#TITLE:BE LOVIN;
#SUBTITLE:;
#ARTIST:D-Crew;
#TITLETRANSLIT:;
#SUBTITLETRANSLIT:;
#ARTISTTRANSLIT:;
#CREDIT:;
#BANNER:../ddrstream fallback-bn.png;
#BACKGROUND:../ddrstream fallback-bg.png;
#LYRICSPATH:;
#CDTITLE:;
#MUSIC:BE LOVIN.ogg;
#OFFSET:0.000;
#SAMPLESTART:10.360;
#SAMPLELENGTH:20.710;
#SELECTABLE:YES;
#DISPLAYBPM:185.000;
#BPMS:0.000=185.000;
#STOPS:;
#BGCHANGES:;

//---------------dance-single - ----------------
#NOTES:
     dance-single:
     Dossar:
     Hard:
     13:
     1.000,1.000,0.000,0.026,1.000:
0000
0000
0000
0000
,
0000
0000
0000
0000
,
0000
0000
0000
0000
,
0000
0000
0000
0000
0000
0000
0000
0000
1000
0000
0001
0000
1000
0000
0001
1000
,
0001
0000
0000
0000
,
1000
0010
0100
0001
1000
0010
0100
0001
,
1000
0100
0010
0001
1000
0100
0010
0001
,
0100
0010
1000
0001
0100
0010
1000
0001
,
1000
0010
0100
0001
1000
0010
0100
0010
1000
0001
0100
0010
0100
0001
1000
0100
,
0010
0001
1000
0100
0010
0001
0010
0100
1000
0001
1000
0001
0010
0100
1000
0001
,
0100
0010
1000
0001
0100
0010
1000
0001
1000
0010
0100
0001
1000
0010
0100
0001
,
1000
0100
0010
0001
1000
0100
0010
0001
1000
0100
0010
0100
1000
0001
0010
0100
,
1000
0001
1000
0010
0100
0001
1000
0010
0100
0001
1000
0010
1000
0001
0100
0001
,
1000
0001
0010
0100
1000
0001
0010
0100
1000
0100
0010
0001
1000
0100
0010
0001
,
1000
0010
1000
0001
0100
0010
1000
0001
0100
0001
1000
0010
0100
0001
1000
0001
,
1000
0100
0010
0001
1000
0100
0010
0001
1000
0100
0010
0001
0010
0100
1000
0001
,
0100
0010
0100
0001
1000
0010
0100
0001
1000
0010
1000
0001
0200
0000
0300
0000
,
0001
0000
1000
0010
0000
0100
0000
0010
,
0000
1000
0001
0000
0010
0100
0010
0001
,
0000
1000
0010
0100
0001
1000
0001
0100
,
0010
1000
0001
0010
0000
0100
0000
0010
,
0000
0001
0010
0100
1000
0100
0010
0001
,
0000
1000
0010
0000
0100
0010
1000
0001
,
0000
1000
0010
1000
0001
0010
0100
1000
,
0001
0010
0001
0010
0100
1000
0100
0000
,
1000
0100
0010
0001
1000
0100
0010
0001
1000
0100
1000
0001
0010
0100
1000
0001
,
1000
0010
0100
0001
1000
0010
0100
0010
1000
0001
0100
0010
1000
0001
1000
0100
,
0010
0001
1000
0100
0010
0001
1000
0100
1000
0001
0010
0100
1000
0001
0010
0100
,
1000
0001
0100
0010
1000
0001
1000
0010
0100
0001
1000
0010
0100
0001
1000
0001
,
0010
0100
1000
0001
0010
0100
1000
0001
0010
0001
1000
0100
0010
0001
1000
0100
,
1000
0001
0100
0010
1000
0001
0010
0001
1000
0010
0100
0001
1000
0010
1000
0001
,
0010
0100
1000
0001
0010
0001
1000
0100
0010
0001
1000
0100
1000
0001
0010
0100
,
1000
0001
0100
0010
1000
0010
1000
0001
1000
0010
0100
0001
2000
0000
3000
0000
,
0001
0000
0100
0010
1000
0001
0010
0100
,
0000
0010
0000
0001
0000
1000
0010
0000
,
0100
0000
0010
0100
0001
1000
0100
0010
,
0000
0000
0001
0000
1000
0000
0010
0100
0010
0000
1000
0000
0001
0010
0001
0000
,
1000
0000
0100
0010
0001
1000
0010
0100
,
0001
0000
1000
0000
0000
0000
0010
0000
0100
0000
0001
0000
1000
0000
0001
0010
,
0100
1000
0100
0010
0001
1000
0100
0010
0001
0010
0100
1000
0001
0010
0001
0000
,
1000
0010
0100
0001
1000
0010
0100
0001
,
1000
0100
1000
0001
0000
0100
0000
0010
,
1000
0001
0100
0010
0000
1000
0000
0001
,
0010
0100
1000
0001
0000
0100
0000
0010
,
1000
0001
0100
0010
0000
1000
0000
0001
,
0010
0100
0010
0100
1000
0001
1000
0001
,
0100
0010
0100
0010
1000
0001
1000
0001
,
0010
0100
0010
0100
1000
0001
1000
0001
,
0010
0100
0010
0100
1000
0100
0010
0001
1000
0100
1000
0100
0010
0100
1000
0001
,
0100
0010
0100
0001
1000
0010
0100
0001
1000
0010
1000
0001
0100
0010
1000
0001
,
1000
0001
0010
0100
1000
0001
0010
0100
1000
0001
1000
0100
1000
0001
0010
0100
,
1000
0001
0100
0001
1000
0010
0100
0001
1000
0100
1000
0001
1000
0001
0100
0010
,
1000
0001
0010
0100
1000
0100
0010
0001
1000
0100
0010
0001
0010
0100
1000
0001
,
0100
0010
1000
0001
0100
0001
1000
0010
0100
0001
1000
0010
1000
0001
0010
0001
,
1000
0100
0010
0001
1000
0100
0010
0001
1000
0100
0010
0001
0010
0100
1000
0001
,
1000
0010
0100
0001
1000
0100
1000
0001
0100
0010
1000
0001
0100
0001
1000
0001
,
0010
0100
1000
0001
0010
0001
1000
0100
0010
0001
0010
0100
1000
0001
0010
0001
,
1000
0000
0000
0000
;

//---------------dance-single - ----------------
#NOTES:
     dance-single:
     Dossar:
     Challenge:
     14:
     1.000,1.000,0.000,0.039,1.000:
0000
0000
0000
0000
,
0000
0000
0000
0000
,
0000
0000
0000
0000
,
0000
0000
0000
0000
0000
0000
0000
0000
1000
0000
0001
0000
1000
0000
0001
1000
,
0001
0000
0000
0000
,
1000
0010
0100
0001
1000
0010
0100
0001
,
1000
0100
0010
0001
1000
0100
0010
0001
,
0100
0010
1000
0001
0100
0010
1000
0001
,
1000
0010
0100
0001
1000
0010
0100
0010
1000
0001
0100
0010
0100
0001
1000
0100
,
0010
0001
1000
0100
0010
0001
0010
0100
1000
0001
1000
0001
0010
0100
1000
0001
,
0100
0010
1000
0001
0100
0010
1000
0001
1000
0010
0100
0001
1000
0010
0100
0001
,
1000
0100
0010
0001
1000
0100
0010
0001
1000
0100
0010
0100
1000
0001
0010
0100
,
1000
0001
1000
0010
0100
0001
1000
0010
0100
0001
1000
0010
1000
0001
0100
0001
,
1000
0001
0010
0100
1000
0001
0010
0100
1000
0100
0010
0001
1000
0100
0010
0001
,
1000
0010
1000
0001
0100
0010
1000
0001
0100
0001
1000
0010
0100
0001
1000
0001
,
1000
0100
0010
0001
1000
0100
0010
0001
1000
0100
0010
0001
0010
0100
1000
0001
,
0100
0010
0100
0001
1000
0010
0100
0001
1000
0010
1000
0001
0200
0000
0300
0000
,
0001
1000
0100
0010
0001
1000
0100
0010
0001
1000
0001
0010
0001
1000
0100
0010
,
0001
1000
0010
1000
0001
0100
0010
1000
0001
0010
0001
1000
0001
1000
0010
0100
,
0001
1000
0100
0010
0001
0010
0100
1000
0001
0010
0100
1000
0100
0010
0001
1000
,
0010
0100
0001
1000
0010
1000
0001
0100
0010
1000
0001
0100
0001
1000
0100
1000
,
0001
0010
0100
1000
0001
0010
0100
1000
0001
0010
0100
1000
0100
0010
0001
1000
,
0001
0100
0010
1000
0001
0010
0001
1000
0010
0100
0001
1000
0010
1000
0001
1000
,
0100
0010
0001
1000
0100
0010
0001
1000
0100
1000
0001
0010
0100
1000
0001
0010
,
0001
1000
0010
0100
0001
1000
0010
1000
0001
0100
0010
1000
0002
0000
0003
0000
,
1000
0100
0010
0001
1000
0100
0010
0001
1000
0100
1000
0001
0010
0100
1000
0001
,
1000
0010
0100
0001
1000
0010
0100
0010
1000
0001
0100
0010
1000
0001
1000
0100
,
0010
0001
1000
0100
0010
0001
1000
0100
1000
0001
0010
0100
1000
0001
0010
0100
,
1000
0001
0100
0010
1000
0001
1000
0010
0100
0001
1000
0010
0100
0001
1000
0001
,
0010
0100
1000
0001
0010
0100
1000
0001
0010
0001
1000
0100
0010
0001
1000
0100
,
1000
0001
0100
0010
1000
0001
0010
0001
1000
0010
0100
0001
1000
0010
1000
0001
,
0010
0100
1000
0001
0010
0001
1000
0100
0010
0001
1000
0100
1000
0001
0010
0100
,
1000
0001
0100
0010
1000
0010
1000
0001
1000
0010
0100
0001
2000
0000
3000
0000
,
0001
0000
0100
0010
1000
0001
0010
0100
,
0000
0010
0000
0001
0000
1000
0010
0000
,
0100
0000
0010
0100
0001
1000
0100
0010
,
0000
0000
0001
0000
1000
0000
0010
0100
0010
0000
1000
0000
0001
0010
0001
0000
,
1000
0000
0100
0010
0001
1000
0010
0100
,
0001
0000
1000
0000
0000
0000
0010
0000
0100
0000
0001
0000
1000
0000
0001
0010
,
0100
1000
0100
0010
0001
1000
0100
0010
0001
0010
0100
1000
0001
0010
0001
0000
,
1000
0010
0100
0001
1000
0010
0100
0001
,
1000
0010
0100
0001
1000
0010
0100
0010
1000
0001
0100
0010
0100
0001
1000
0100
,
0010
0001
1000
0100
0010
0001
0010
0100
1000
0001
1000
0001
0010
0100
1000
0001
,
0100
0010
1000
0001
0100
0010
1000
0001
1000
0010
0100
0001
1000
0010
0100
0001
,
1000
0100
0010
0001
1000
0100
0010
0001
1000
0100
0010
0100
1000
0001
0010
0100
,
1000
0001
1000
0010
0100
0001
1000
0010
0100
0001
1000
0010
1000
0001
0100
0001
,
1000
0001
0010
0100
1000
0001
0010
0100
1000
0100
0010
0001
1000
0100
0010
0001
,
1000
0010
1000
0001
0100
0010
1000
0001
0100
0001
1000
0010
0100
0001
1000
0001
,
0010
0100
0010
0100
1000
0100
0010
0001
1000
0100
1000
0100
0010
0100
1000
0001
,
0100
0010
0100
0001
1000
0010
0100
0001
1000
0010
1000
0001
0100
0010
1000
0001
,
1000
0001
0010
0100
1000
0001
0010
0100
1000
0001
1000
0100
1000
0001
0010
0100
,
1000
0001
0100
0001
1000
0010
0100
0001
1000
0100
1000
0001
1000
0001
0100
0010
,
1000
0001
0010
0100
1000
0100
0010
0001
1000
0100
0010
0001
0010
0100
1000
0001
,
0100
0010
1000
0001
0100
0001
1000
0010
0100
0001
1000
0010
1000
0001
0010
0001
,
1000
0100
0010
0001
1000
0100
0010
0001
1000
0100
0010
0001
0010
0100
1000
0001
,
1000
0010
0100
0001
1000
0100
1000
0001
0100
0010
1000
0001
0100
0001
1000
0001
,
0010
0100
1000
0001
0010
0001
1000
0100
0010
0001
0010
0100
1000
0001
0010
0001
,
1000
0000
0000
0000
;

//---------------dance-single - ----------------
#NOTES:
     dance-single:
     Dossar:
     Medium:
     12:
     0.929,1.000,0.000,0.026,0.764:
0000
0000
0000
0000
,
0000
0000
0000
0000
,
0000
0000
0000
0000
,
0000
0000
0000
0000
0000
0000
0000
0000
1000
0000
0001
0000
1000
0000
0001
1000
,
0001
0000
0000
0000
,
1000
0010
0100
0001
1000
0010
0100
0001
,
1000
0100
0010
0001
1000
0100
0010
0001
,
0100
0010
1000
0001
0100
0010
1000
0001
,
1000
0010
0100
0001
1000
0010
0100
0010
1000
0001
0100
0010
0100
0001
1000
0100
,
0010
0001
1000
0100
0000
0010
0000
0001
,
1000
0010
0100
0001
0000
1000
0000
0001
,
0100
0010
1000
0001
0000
1000
0000
0100
,
0010
0001
1000
0100
0000
0010
0000
0001
,
1000
0000
0000
0000
0001
1000
0100
0010
0001
0010
0100
1000
0001
0010
0100
1000
,
0001
0100
0001
1000
0010
0100
0001
1000
0010
1000
0001
0100
0010
1000
0001
1000
,
0001
0010
0100
1000
0001
0010
0100
1000
0001
0010
0100
1000
0100
0010
0001
1000
,
0010
0100
0010
1000
0001
0100
0010
1000
0001
0100
0001
1000
0020
0000
0030
0000
,
1000
0000
0001
0100
0000
0010
0000
0100
,
0000
0001
1000
0000
0100
0010
0100
1000
,
0000
0001
0100
0010
1000
0001
1000
0010
,
0100
0001
1000
0100
0000
0010
0000
0100
,
0000
1000
0100
0010
0001
0010
0100
1000
,
0000
0001
0100
0000
0010
0100
0001
1000
,
0000
0001
0100
0001
1000
0100
0010
0001
,
1000
0100
1000
0100
0010
0001
0010
0000
,
0001
1000
0010
0100
0010
1000
0000
0001
,
0100
0001
1000
0010
0100
0001
1000
0010
,
0100
0001
1000
0010
1000
0010
0100
0001
,
1000
0100
0010
0001
0010
0100
0000
1000
,
0001
0010
0001
1000
0100
0010
0001
1000
0100
1000
0001
0010
0100
1000
0001
0010
,
0001
1000
0010
0100
0001
1000
0100
1000
0001
0100
0010
1000
0001
0100
0001
1000
,
0100
0010
0001
1000
0100
1000
0001
0010
0100
1000
0001
0010
0001
1000
0100
0010
,
0001
1000
0010
0100
0001
0100
0010
1000
0001
0100
0010
1000
0002
0000
0003
0000
,
1000
0000
0010
0100
0001
1000
0100
0010
,
0000
0100
0000
1000
0000
0001
0100
0000
,
0010
0000
0100
0010
1000
0001
0010
0100
,
0000
0000
1000
0000
0001
0000
0100
0010
0100
0000
0001
0000
1000
0100
1000
0000
,
0001
0000
0010
0100
1000
0001
0100
0010
,
1000
0000
0001
0000
0000
0000
0100
0000
0010
0000
1000
0000
0001
0000
1000
0100
,
0010
0001
0010
0100
1000
0001
0010
0100
1000
0100
0010
0001
1000
0100
1000
0000
,
0001
0100
0010
1000
0001
0100
0010
1000
,
0001
0010
0001
1000
0000
0010
0000
0100
,
0001
1000
0010
0100
0000
0001
0000
1000
,
0100
0010
0001
1000
0000
0010
0000
0100
,
0001
1000
0010
0100
0000
0001
0000
1000
,
0100
0010
0100
0010
0001
1000
0001
1000
,
0010
0100
0010
0100
0001
1000
0001
1000
,
0100
0010
0100
0010
0001
1000
0001
1000
,
0100
0010
0001
1000
0100
0010
0001
0010
0100
1000
0001
0010
0100
0010
0001
1000
,
0010
1000
0001
1000
0010
1000
0001
1000
,
0100
0010
0001
0010
0100
0010
0001
0010
,
0100
1000
0001
1000
0100
1000
0001
1000
,
0010
1000
0001
1000
0010
1000
0001
1000
,
0010
0100
0001
1000
0010
1000
0001
0100
0010
1000
0001
0100
0001
1000
0100
1000
,
0001
0010
0100
1000
0001
0010
0100
1000
0001
0010
0100
1000
0100
0010
0001
1000
,
0001
0100
0010
1000
0001
0010
0001
1000
0010
0100
0001
1000
0010
0100
0001
1000
,
0100
0010
0001
1000
0100
1000
0001
0010
0100
1000
0100
0010
0001
1000
0100
1000
,
0001
0000
0000
0000
;

//---------------dance-single - ----------------
#NOTES:
     dance-single:
     Dossar:
     Easy:
     11:
     0.842,0.931,0.000,0.026,0.464:
0000
0000
0000
0000
,
0000
0000
0000
0000
,
0000
0000
0000
0000
,
0000
0000
0000
0000
0000
0000
0000
0000
1000
0000
0001
0000
1000
0000
0001
1000
,
0001
0000
0000
0000
,
1000
0010
0100
0001
1000
0010
0100
0001
,
1000
0100
0010
0001
1000
0100
0010
0001
,
0100
0010
1000
0001
0100
0010
1000
0001
,
1000
0010
0100
0001
1000
0010
0100
0010
1000
0001
0100
0010
0100
0001
1000
0100
,
0010
0001
1000
0100
0000
0010
0000
0001
,
1000
0010
0100
0001
0000
1000
0000
0001
,
0100
0010
1000
0001
0000
1000
0000
0100
,
0010
0001
1000
0100
0000
0010
0000
0001
,
1000
0000
0001
1000
0001
0100
0001
1000
,
0100
0010
0100
1000
0100
0010
0100
1000
,
0001
0010
0100
1000
0001
0010
0100
1000
0001
0010
0100
1000
0100
0010
0001
1000
,
0010
0100
0010
1000
0001
0100
0010
1000
0001
0100
0001
1000
0020
0000
0030
0000
,
1000
0000
0001
0100
0000
0010
0000
0100
,
0000
0001
1000
0000
0100
0010
0100
1000
,
0000
0001
0100
0010
1000
0001
1000
0010
,
0100
0001
1000
0100
0000
0010
0000
0100
,
0000
1000
0100
0010
0001
0010
0100
1000
,
0000
0001
0100
0000
0010
0100
0001
1000
,
0000
0001
0100
0001
1000
0100
0010
0001
,
1000
0100
1000
0100
0010
0001
0010
0000
,
0001
1000
0010
0100
0010
1000
0000
0001
,
0100
0001
1000
0010
0100
0001
1000
0010
,
0100
0001
1000
0010
1000
0010
0100
0001
,
1000
0100
0010
0001
0010
0100
0000
1000
,
0001
0000
0100
0001
0100
0010
0100
0001
,
1000
0100
1000
0001
1000
0100
1000
0001
,
1000
0100
0010
0001
1000
0001
1000
0100
0010
0001
1000
0100
1000
0001
0010
0100
,
1000
0001
0100
0010
1000
0010
0100
0001
1000
0010
0100
0001
2000
0000
3000
0000
,
0001
0000
0100
0010
1000
0001
0010
0100
,
0000
0010
0000
0001
0000
1000
0010
0000
,
0100
0000
0010
0100
0001
1000
0100
0010
,
0000
0000
0001
0000
1000
0000
0010
0100
0010
0000
1000
0000
0001
0010
0001
0000
,
1000
0000
0100
0010
0001
1000
0010
0100
,
0001
0000
1000
0000
0000
0000
0010
0000
0100
0000
0001
0000
1000
0000
0001
0010
,
0100
1000
0100
0010
0001
1000
0100
0010
0001
0010
0100
1000
0001
0010
0001
0000
,
1000
0010
0100
0001
1000
0010
0100
0001
,
1000
0100
1000
0001
0000
0100
0000
0010
,
1000
0001
0100
0010
0000
1000
0000
0001
,
0010
0100
1000
0001
0000
0100
0000
0010
,
1000
0001
0100
0010
0000
1000
0000
0001
,
0010
0100
0010
0100
1000
0001
1000
0001
,
0100
0010
0100
0010
1000
0001
1000
0001
,
0010
0100
0010
0100
1000
0001
1000
0001
,
1000
0100
0010
0001
1000
0100
0010
0001
1000
0100
0010
0001
0010
0100
1000
0001
,
0100
0001
1000
0001
0100
0001
1000
0001
,
0010
0100
1000
0100
0010
0100
1000
0100
,
0010
0001
1000
0001
0010
0001
1000
0001
,
0100
0001
1000
0001
0100
0001
1000
0001
,
0010
0100
1000
0100
0010
0100
1000
0100
,
0010
0001
1000
0001
0100
0001
1000
0001
,
1000
0010
0100
0001
1000
0010
1000
0001
0100
0010
1000
0001
0100
0010
1000
0001
,
0010
0100
1000
0001
0010
0001
1000
0100
0010
0001
0010
0100
1000
0001
0010
0001
,
1000
0000
0000
0000
;

//---------------dance-double - ----------------
#NOTES:
     dance-double:
     Dossar:
     Challenge:
     14:
     1.000,1.000,0.000,0.052,1.000: // measure 1
00000000
00000000
00000000
00000000
,  // measure 2
00000000
00000000
00000000
00000000
,  // measure 3
00000000
00000000
00000000
00000000
,  // measure 4
00000000
00000000
00000000
00000000
00000000
00000000
00000000
00000000
10000000
00000000
00010000
00000000
01000000
00000000
00001000
00010000
,  // measure 5
00001000
00000000
00000000
00000000
,  // measure 6
00010000
00000100
00010000
00001000
00010000
00000100
00010000
00001000
,  // measure 7
00100000
00010000
00100000
00001000
00100000
00010000
00100000
00001000
,  // measure 8
00010000
00000100
00000010
00000001
00001000
00000100
00010000
00001000
,  // measure 9
01000000
00010000
10000000
00100000
01000000
00010000
10000000
00100000
01000000
00010000
10000000
00100000
01000000
00010000
01000000
00100000
,  // measure 10
10000000
00010000
01000000
00010000
10000000
00100000
01000000
00010000
10000000
00100000
01000000
00010000
01000000
00001000
00010000
00001000
,  // measure 11
01000000
00001000
00010000
00000100
00010000
00001000
00010000
00000100
00000010
00000001
00001000
00000100
00010000
00001000
00010000
00000100
,  // measure 12
00000010
00000001
00001000
00000100
00001000
00000001
00000010
00000100
00001000
00000001
00001000
00000100
00010000
00000100
00010000
00001000
,  // measure 13
01000000
00010000
01000000
00100000
10000000
00010000
01000000
00100000
10000000
00010000
01000000
00100000
01000000
00001000
01000000
00001000
,  // measure 14
00010000
00000010
00001000
00000010
00000100
00000001
00001000
00000010
00001000
00000001
00000100
00000010
00001000
00000001
00001000
00000100
,  // measure 15
00010000
00000100
00010000
00001000
00100000
00010000
00100000
00001000
00100000
00001000
00010000
00001000
00100000
00010000
00100000
01000000
,  // measure 16
10000000
00010000
00100000
00010000
10000000
01000000
00100000
00010000
00100000
01000000
10000000
00010000
00100000
00001000
00100000
00001000
,  // measure 17
00010000
00000100
00010000
00001000
00010000
00000100
00000010
00000100
00001000
00000100
00000010
00000001
00002000
00000000
00003000
00000000
,  // measure 18
00000001
00001000
00000010
00001000
00000001
00000100
00000010
00001000
00000001
00000100
00000010
00001000
00000010
00010000
00001000
00010000
,  // measure 19
00000010
00010000
00001000
00100000
00001000
00010000
00001000
00100000
01000000
10000000
00010000
00100000
00001000
00010000
00001000
00100000
,  // measure 20
01000000
10000000
00010000
00100000
00010000
10000000
01000000
00100000
00010000
10000000
00010000
00100000
00001000
00100000
00001000
00010000
,  // measure 21
00000010
00001000
00000010
00000100
00000001
00001000
00000010
00000100
00000001
00001000
00000010
00000100
00000010
00010000
00000010
00010000
,  // measure 22
00001000
01000000
00010000
01000000
00100000
10000000
00010000
01000000
00010000
10000000
00100000
01000000
00010000
10000000
00010000
00100000
,  // measure 23
00001000
00100000
00001000
00010000
00000100
00001000
00000100
00010000
00000100
00010000
00001000
00010000
00000100
00001000
00000100
00000010
,  // measure 24
00000001
00001000
00000100
00001000
00000001
00000010
00000100
00001000
00000100
00000010
00000001
00001000
00000100
00010000
00000100
00010000
,  // measure 25
00001000
00100000
00001000
00010000
00001000
00100000
01000000
00100000
00010000
00100000
01000000
10000000
00020000
00000000
00030000
00000000
,  // measure 26
10000000
00100000
01000000
00010000
01000000
00100000
10000000
00010000
01000000
00100000
10000000
00010000
01000000
00001000
00010000
00001000
,  // measure 27
01000000
00001000
00010000
00000100
00010000
00001000
00010000
00000100
00000010
00000001
00001000
00000100
00010000
00001000
00010000
00000100
,  // measure 28
00000010
00000001
00001000
00000100
00001000
00000001
00000010
00000100
00001000
00000001
00001000
00000100
00010000
00000100
00010000
00001000
,  // measure 29
01000000
00010000
01000000
00100000
10000000
00010000
01000000
00100000
10000000
00010000
01000000
00100000
01000000
00001000
01000000
00001000
,  // measure 30
00010000
00000010
00001000
00000010
00000100
00000001
00001000
00000010
00001000
00000001
00000100
00000010
00001000
00000001
00001000
00000100
,  // measure 31
00010000
00000100
00010000
00001000
00100000
00010000
00100000
00001000
00100000
00001000
00010000
00001000
00100000
00010000
00100000
01000000
,  // measure 32
10000000
00010000
00100000
00010000
10000000
01000000
00100000
00010000
00100000
01000000
10000000
00010000
00100000
00001000
00100000
00001000
,  // measure 33
00010000
00000100
00010000
00001000
00010000
00000100
00000010
00000001
00001000
00000100
00001000
00000001
00000200
00000000
00000300
00000000
,  // measure 34
00000001
00000000
00001000
00000100
00010000
00001000
00100000
00010000
,  // measure 35
00000000
00100000
00000000
01000000
00000000
10000000
00010000
00000000
,  // measure 36
10000000
00000000
00010000
01000000
00001000
00010000
00000010
00001000
,  // measure 37
00000000
00000000
00000001
00000000
00000100
00000000
00000010
00001000
00000010
00000000
00000100
00000000
00000001
00001000
00000001
00000000
,  // measure 38
00000100
00000000
00000001
00001000
00000100
00010000
00001000
00100000
,  // measure 39
01000000
00000000
10000000
00000000
00000000
00000000
00010000
00000000
01000000
00000000
00010000
00000000
10000000
00000000
00010000
01000000
,  // measure 40
00001000
01000000
00010000
01000000
00001000
00010000
00001000
01000000
00001000
00010000
00000100
00010000
00001000
00010000
00000100
00000010
,  // measure 41
00000001
00001000
00000100
00010000
00001000
01000000
00010000
10000000
,  // measure 42
00010000
01000000
00010000
10000000
00100000
01000000
00010000
10000000
00100000
10000000
00010000
01000000
00010000
01000000
00001000
00010000
,  // measure 43
00001000
01000000
00001000
00010000
00000010
00010000
00001000
00010000
00000010
00001000
00000010
00000100
00000001
00001000
00000100
00000010
,  // measure 44
00000001
00000010
00000100
00001000
00000001
00000010
00000100
00001000
00000100
00000010
00000001
00001000
00000100
00010000
00001000
00100000
,  // measure 45
00001000
00010000
00001000
00100000
00010000
00100000
00001000
00010000
00001000
00100000
00001000
00100000
00010000
00100000
01000000
10000000
,  // measure 46
00010000
01000000
00100000
10000000
00100000
01000000
00010000
10000000
00100000
01000000
00010000
01000000
00100000
10000000
00010000
01000000
,  // measure 47
00001000
01000000
00001000
00010000
00001000
01000000
00010000
01000000
00001000
01000000
00001000
00010000
00000100
00010000
00000100
00001000
,  // measure 48
00000100
00000010
00000001
00001000
00000100
00000010
00000001
00000010
00000100
00001000
00000001
00000010
00000100
00001000
00000100
00010000
,  // measure 49
00001000
00100000
00001000
00100000
00010000
01000000
00010000
01000000
00001000
00010000
00001000
00010000
00000020
00000000
00000030
00000000
,  // measure 50
00001000
00000001
00001000
00000001
00000100
00000010
00001000
00000001
00000100
00000001
00001000
00000010
00001000
00000010
00010000
00001000
,  // measure 51
00010000
00000010
00010000
00001000
01000000
00001000
00010000
00001000
01000000
00010000
01000000
00100000
10000000
00010000
00100000
01000000
,  // measure 52
10000000
01000000
00100000
00010000
10000000
01000000
00100000
00010000
00100000
01000000
10000000
00010000
00100000
00001000
00010000
00000100
,  // measure 53
00010000
00001000
00010000
00000100
00001000
00000100
00010000
00001000
00010000
00000100
00010000
00000100
00001000
00000100
00000010
00000001
,  // measure 54
00001000
00000010
00000100
00000001
00000100
00000010
00001000
00000001
00000100
00000010
00001000
00000010
00000100
00000001
00001000
00000010
,  // measure 55
00010000
00000010
00010000
00001000
00010000
00000010
00001000
00000010
00010000
00000010
00010000
00001000
00100000
00001000
00100000
00010000
,  // measure 56
00100000
01000000
10000000
00010000
00100000
01000000
10000000
01000000
00100000
00010000
10000000
01000000
00100000
00010000
00100000
00001000
,  // measure 57
00010000
00000100
00010000
00000100
00000010
00000001
00000010
00000001
00001000
00000010
00010000
00001000
00100000
01000000
10000000
00010000
,  // measure 58
01000000
00000000
00000000
00000000
;
