#TITLE:AM-3P;
#SUBTITLE:(AM EAST mix);
#ARTIST:KTz;
#TITLETRANSLIT:;
#SUBTITLETRANSLIT:;
#ARTISTTRANSLIT:;
#CREDIT:;
#BANNER:../ddrstream fallback-bn.png;
#BACKGROUND:../ddrstream fallback-bg.png;
#LYRICSPATH:;
#CDTITLE:;
#MUSIC:AM-3P (AM EAST mix).ogg;
#OFFSET:0.000;
#SAMPLESTART:49.710;
#SAMPLELENGTH:13.650;
#SELECTABLE:YES;
#DISPLAYBPM:140.000;
#BPMS:0.000=140.000;
#STOPS:;
#BGCHANGES:;

//---------------dance-single - ----------------
#NOTES:
     dance-single:
     Dossar:
     Challenge:
     11:
     0.996,0.905,0.000,0.102,1.000:
0000
0000
0000
0000
,
0000
0000
0000
0000
,
0000
0000
0000
0000
,
1000
0000
0001
0000
0100
0010
0100
0010
1000
0000
0001
0000
0100
0010
0100
0010
,
1000
0000
0001
0000
0100
0010
0100
0010
1000
0000
0001
0000
1000
0001
1000
0001
,
0010
0000
0100
0000
1000
0100
1000
0100
0010
0000
0001
0000
1000
0100
1000
0100
,
0010
0000
0001
0000
1000
0100
1000
0100
0010
0000
0001
0000
1000
0001
1000
0001
,
0100
0000
0001
0000
1000
0010
1000
0010
0100
0000
0001
0000
1000
0010
1000
0010
,
0100
0000
0001
0000
1000
0010
1000
0010
0100
0000
0001
0000
1000
0100
1000
0100
,
0020
0000
0000
0032
,
2003
0000
0000
3002
0000
0000
0000
0000
,
1003
0000
0000
0001
0000
0000
1000
0000
0000
0001
0000
0000
1000
0000
0001
0000
,
0010
0100
0010
0000
0100
1000
0100
0000
1000
0001
1000
0000
0001
0010
0001
0000
,
1000
0010
0100
0001
1000
0010
0100
0001
1000
0010
1000
0001
0100
0001
1000
0100
,
0010
0001
1000
0100
0010
0001
1000
0100
0010
0100
1000
0001
0010
0100
1000
0001
,
0100
0010
1000
0001
0100
0010
1000
0010
0100
0001
1000
0010
0100
0001
1000
0001
,
0010
0100
1000
0001
0010
0100
1000
0100
0010
0001
1000
0100
0010
0100
1000
0001
,
1000
0010
0100
0001
1000
0010
0100
0010
1000
0001
0100
0010
1000
0001
0100
0010
,
1000
0001
0010
0100
1000
0001
0010
0100
1000
0001
0010
0100
0010
0001
1000
0100
,
1000
0001
0010
0001
1000
0010
1000
0001
0100
0001
1000
0100
1000
0001
0010
0001
,
1000
0100
0010
0001
1000
0100
0010
0100
1000
0001
0010
0100
1000
0001
0010
0001
,
1000
0010
1000
0001
0100
0001
1000
0010
0100
0001
0100
0010
1000
0001
0010
0100
,
1000
0001
1000
0100
0010
0100
1000
0001
0010
0100
0010
0001
1000
0100
0010
0001
,
1000
0010
1000
0001
0100
0001
1000
0010
0100
0001
0100
0010
1000
0001
0010
0100
,
1000
0001
0000
1000
0001
0000
1000
0001
0000
1000
0001
0000
0000
0000
0000
0000
,
0001
0100
0001
1000
0010
1000
0001
0100
0010
1000
0010
0100
0001
1000
0100
0010
,
0001
1000
0001
0010
0100
0010
0001
1000
0100
0010
0100
1000
0001
0010
0100
1000
,
0001
0100
0001
1000
0010
1000
0001
0100
0010
1000
0010
0100
0001
1000
0100
0010
,
0001
1000
0000
0001
1000
0000
0001
1000
0000
0001
1000
0000
0000
0000
0000
0000
,
1000
0010
1000
0001
0100
0001
1000
0010
1000
0001
0010
0001
1000
0010
0100
0001
,
1000
0100
1000
0001
0100
0001
1000
0010
1000
0001
0010
0001
1000
0100
0010
0001
,
1000
0010
1000
0001
0100
0001
1000
0100
1000
0001
0010
0001
1000
0010
0100
0001
,
1000
0100
1000
0001
0100
0001
1000
0010
1000
0001
0010
0001
1000
0100
0010
0001
,
1000
0010
1000
0001
0100
0001
1000
0010
1000
0001
0010
0001
1000
0010
0100
0001
,
1000
0100
1000
0001
0100
0001
1000
0010
1000
0001
0010
0001
1000
0100
0010
0001
,
1000
0010
1000
0001
0100
0001
1000
0100
1000
0001
0010
0001
1000
0010
0100
0001
,
1000
0100
1000
0001
0100
0001
1000
0010
1000
0001
0010
0001
1000
0100
0010
0001
,
2000
0000
0000
3020
,
0230
0000
0000
0302
0000
0000
0000
0000
,
1003
0000
0000
0001
0000
0000
1000
0000
0000
0001
0000
0000
1000
0000
0001
0000
,
0010
0100
0010
0000
0100
1000
0100
0000
1000
0001
1000
0000
0001
0010
0001
0000
,
1000
0010
1000
0001
0100
0001
1000
0010
0100
0001
0100
0010
1000
0001
0010
0100
,
1000
0001
1000
0100
0010
0100
1000
0001
0010
0100
0010
0001
1000
0100
0010
0001
,
1000
0010
1000
0001
0100
0001
1000
0010
0100
0001
0100
0010
1000
0001
0010
0100
,
1000
0001
0000
1000
0001
0000
1000
0001
0000
1000
0001
0000
0000
0000
0000
0000
,
0001
0100
0001
1000
0010
1000
0001
0100
0010
1000
0010
0100
0001
1000
0100
0010
,
0001
1000
0001
0010
0100
0010
0001
1000
0100
0010
0100
1000
0001
0010
0100
1000
,
0001
0100
0001
1000
0010
1000
0001
0100
0010
1000
0010
0100
0001
1000
0100
0010
,
0001
1000
0000
0001
1000
0000
0001
1000
0000
0001
1000
0000
0000
0000
0000
0000
,
1000
0010
0100
0001
1000
0010
0100
0010
1000
0001
0100
0010
1000
0001
0100
0010
,
1000
0001
0010
0100
1000
0001
0010
0100
1000
0001
0010
0100
0010
0001
1000
0010
,
0100
0010
1000
0001
0100
0001
1000
0010
1000
0001
0010
0001
1000
0100
1000
0001
,
0100
0000
0010
0000
0100
0000
0001
0000
1000
0000
0010
0000
1000
0000
0001
0000
0100
0000
0010
0000
0100
0000
0001
0000
1000
0000
0010
0000
2000
3000
0002
0003
,
0010
0100
1000
0100
0010
0001
1000
0010
0100
0010
1000
0000
0000
0000
0000
0000
;

//---------------dance-single - ----------------
#NOTES:
     dance-single:
     Dossar:
     Hard:
     10:
     0.838,0.905,0.000,0.102,1.000:
0000
0000
0000
0000
,
0000
0000
0000
0000
,
0000
0000
0000
0000
,
1000
0000
0001
0000
0100
0010
0100
0010
1000
0000
0001
0000
0100
0010
0100
0010
,
1000
0000
0001
0000
0100
0010
0100
0010
1000
0000
0001
0000
1000
0001
1000
0001
,
0010
0000
0100
0000
1000
0100
1000
0100
0010
0000
0001
0000
1000
0100
1000
0100
,
0010
0000
0001
0000
1000
0100
1000
0100
0010
0000
0001
0000
1000
0001
1000
0001
,
0100
0000
0001
0000
1000
0010
1000
0010
0100
0000
0001
0000
1000
0010
1000
0010
,
0100
0000
0001
0000
1000
0010
1000
0010
0100
0000
0001
0000
1000
0100
1000
0100
,
0020
0000
0000
0032
,
2003
0000
0000
3002
0000
0000
0000
0000
,
1003
0000
0000
0001
0000
0000
1000
0000
0000
0001
0000
0000
1000
0000
0001
0000
,
0010
0100
0010
0000
0100
1000
0100
0000
1000
0001
1000
0000
0001
0010
0001
0000
,
1000
0010
0100
0001
1000
0010
0100
0001
1000
0010
1000
0001
0100
0001
1000
0100
,
0010
0001
1000
0100
0010
0001
1000
0100
0010
0100
1000
0001
0010
0100
1000
0001
,
0100
0010
1000
0001
0100
0010
1000
0010
0100
0001
1000
0010
0100
0001
1000
0001
,
0010
0100
1000
0001
0010
0100
1000
0100
0010
0001
1000
0100
0010
0100
1000
0001
,
1000
0010
0100
0001
1000
0010
0100
0010
1000
0001
0100
0010
1000
0001
0100
0010
,
1000
0001
0010
0100
1000
0001
0010
0100
1000
0001
0010
0100
0010
0001
1000
0100
,
1000
0001
0010
0001
1000
0010
1000
0001
0100
0001
1000
0100
1000
0001
0010
0001
,
1000
0100
0010
0001
1000
0100
0010
0100
1000
0001
0010
0100
1000
0001
0010
0001
,
1000
0000
0000
0010
0000
0000
1000
0000
0000
0001
0100
0000
0001
0000
1000
0000
,
0100
0000
0000
0010
0000
0000
0100
0000
0000
0010
0001
0000
1000
0000
0010
0000
,
0100
0000
0000
0001
0000
0000
0100
0000
0000
0010
1000
0000
0001
0000
0001
0000
,
1000
0001
0000
1000
0001
0000
1000
0001
0000
1000
0001
0000
0000
0000
0000
0000
,
0001
0000
0000
0100
0000
0000
0001
0000
0000
1000
0010
0000
0100
0000
0001
0000
,
1000
0000
0000
0100
0000
0000
1000
0000
0000
0001
0010
0000
0100
0000
1000
0000
,
0001
0000
0000
1000
0000
0000
0001
0000
0000
0100
0010
0000
1000
0000
1000
0000
,
0001
1000
0000
0001
1000
0000
0001
1000
0000
0001
1000
0000
0000
0000
0000
0000
,
1000
0010
1000
0001
0100
0001
1000
0010
1000
0001
0010
0001
1000
0010
0100
0001
,
1000
0100
1000
0001
0100
0001
1000
0010
1000
0001
0010
0001
1000
0100
0010
0001
,
1000
0010
1000
0001
0100
0001
1000
0100
1000
0001
0010
0001
1000
0010
0100
0001
,
1000
0100
1000
0001
0100
0001
1000
0010
1000
0001
0010
0001
1000
0100
0010
0001
,
1000
0010
1000
0001
0100
0001
1000
0010
1000
0001
0010
0001
1000
0010
0100
0001
,
1000
0100
1000
0001
0100
0001
1000
0010
1000
0001
0010
0001
1000
0100
0010
0001
,
1000
0010
1000
0001
0100
0001
1000
0100
1000
0001
0010
0001
1000
0010
0100
0001
,
1000
0100
1000
0001
0100
0001
1000
0010
1000
0001
0010
0001
1000
0100
0010
0001
,
2000
0000
0000
3020
,
0230
0000
0000
0302
0000
0000
0000
0000
,
1003
0000
0000
0001
0000
0000
1000
0000
0000
0001
0000
0000
1000
0000
0001
0000
,
0010
0100
0010
0000
0100
1000
0100
0000
1000
0001
1000
0000
0001
0010
0001
0000
,
1000
0000
0000
0010
0000
0000
1000
0000
0000
0001
0100
0000
0010
0000
1000
0000
,
0001
0000
0000
0010
0000
0000
0001
0000
0000
1000
0100
0000
0010
0000
0001
0000
,
0100
0000
0000
0010
0000
0000
0100
0000
0000
0001
1000
0000
0010
0000
0010
0000
,
1000
0001
0000
1000
0001
0000
1000
0001
0000
1000
0001
0000
0000
0000
0000
0000
,
0100
0000
0000
0001
0000
0000
0100
0000
0000
0010
1000
0000
0001
0000
0010
0000
,
0100
0000
0000
1000
0000
0000
0100
0000
0000
0010
0001
0000
1000
0000
0001
0000
,
0100
0000
0000
0010
0000
0000
0100
0000
0000
0001
1000
0000
0100
0000
0100
0000
,
1000
0001
0000
1000
0001
0000
1000
0001
0000
1000
0001
0000
0000
0000
0000
0000
,
0001
0100
0010
1000
0001
0100
0010
0100
0001
1000
0010
0100
0001
1000
0010
0100
,
0001
1000
0100
0010
0001
1000
0100
0010
0001
1000
0100
0010
0100
1000
0001
0100
,
0010
0100
0001
1000
0010
1000
0001
0100
0001
1000
0100
1000
0001
0010
0001
1000
,
0010
0000
0100
0000
0010
0000
1000
0000
0001
0000
0100
0000
0001
0000
1000
0000
0010
0000
0100
0000
0010
0000
1000
0000
0001
0000
0100
0000
0002
0003
2000
3000
,
0100
0010
0001
0010
0100
1000
0001
0100
0010
0100
0001
0000
0000
0000
0000
0000
;

//---------------dance-single - ----------------
#NOTES:
     dance-single:
     Dossar:
     Medium:
     10:
     0.760,0.796,0.000,0.235,1.000:
0000
0000
0000
0000
,
0000
0000
0000
0000
,
0000
0000
0000
0000
,
1000
0000
0001
0000
0100
0010
0100
0010
1000
0000
0001
0000
0100
0010
0100
0010
,
1000
0000
0001
0000
0100
0010
0100
0010
1000
0000
0001
0000
1000
0001
1000
0001
,
0010
0000
0100
0000
1000
0100
1000
0100
0010
0000
0001
0000
1000
0100
1000
0100
,
0010
0000
0001
0000
1000
0100
1000
0100
0010
0000
0001
0000
1000
0001
1000
0001
,
0100
0000
0001
0000
1000
0010
1000
0010
0100
0000
0001
0000
1000
0010
1000
0010
,
0100
0000
0001
0000
1000
0010
1000
0010
0100
0000
0001
0000
1000
0100
1000
0100
,
0020
0000
0000
0032
,
2003
0000
0000
3002
0000
0000
0000
0000
,
1003
0000
0000
0001
0000
0000
1000
0000
0000
0001
0000
0000
1000
0000
0001
0000
,
0010
0100
0010
0000
0100
1000
0100
0000
1000
0001
1000
0000
0001
0010
0001
0000
,
1000
0010
0100
0001
1000
0010
0100
0001
1000
0010
1000
0001
0100
0001
1000
0100
,
0020
0030
0002
0003
2000
3000
0010
0000
,
0100
0010
1000
0001
0100
0010
1000
0010
0100
0001
1000
0010
0100
0001
1000
0001
,
0020
0000
0000
0000
0100
0000
0000
0000
0130
1000
0000
0100
1000
0000
0001
0000
,
1000
0010
0100
0001
1000
0010
0100
0010
1000
0001
0100
0010
1000
0001
0100
0010
,
2000
3000
0002
0003
0020
0030
0100
0000
,
1000
0001
0010
0001
1000
0010
1000
0001
0100
0001
1000
0100
1000
0001
0010
0001
,
1000
0100
0010
0001
1000
0100
0010
0100
1000
0001
0010
0100
1000
0001
0010
0001
,
1000
0000
0000
0010
0000
0000
1000
0000
0000
0001
0100
0000
0001
0000
1000
0000
,
0100
0000
0000
0010
0000
0000
0100
0000
0000
0010
0001
0000
1000
0000
0010
0000
,
0100
0000
0000
0001
0000
0000
0100
0000
0000
0010
1000
0000
0001
0000
0001
0000
,
1000
0001
0000
1000
0001
0000
1000
0001
0000
1000
0001
0000
0000
0000
0000
0000
,
0001
0000
0000
0100
0000
0000
0001
0000
0000
1000
0010
0000
0100
0000
0001
0000
,
1000
0000
0000
0100
0000
0000
1000
0000
0000
0001
0010
0000
0100
0000
1000
0000
,
0001
0000
0000
1000
0000
0000
0001
0000
0000
0100
0010
0000
1000
0000
1000
0000
,
0001
1000
0000
0001
1000
0000
0001
1000
0000
0001
1000
0000
0000
0000
0000
0000
,
1000
0010
1000
0001
0100
0001
1000
0010
1000
0001
0010
0001
2000
0000
3000
0000
,
0001
0010
0001
1000
0100
1000
0001
0010
0001
1000
0100
1000
0002
0000
0003
0000
,
1000
0010
1000
0001
0100
0001
1000
0100
1000
0001
0010
0001
2000
0000
3000
0000
,
0001
0010
0001
1000
0010
1000
0001
0100
0001
1000
0100
1000
0001
0000
0001
0000
,
1000
0010
1000
0001
0100
0001
1000
0010
1000
0001
0010
0001
2000
0000
3000
0000
,
0001
0010
0001
1000
0010
1000
0001
0100
0001
1000
0100
1000
0002
0000
0003
0000
,
1000
0010
1000
0001
0100
0001
1000
0100
1000
0001
0010
0001
2000
0000
3000
0000
,
0001
0010
0001
1000
0010
1000
0001
0100
0001
1000
0100
1000
0001
0000
0001
0000
,
2000
0000
0000
3020
,
0230
0000
0000
0302
0000
0000
0000
0000
,
1003
0000
0000
0001
0000
0000
1000
0000
0000
0001
0000
0000
1000
0000
0001
0000
,
0010
0100
0010
0000
0100
1000
0100
0000
1000
0001
1000
0000
0001
0010
0001
0000
,
1000
0000
0000
0010
0000
0000
1000
0000
0000
0001
0100
0000
0010
0000
1000
0000
,
0001
0000
0000
0010
0000
0000
0001
0000
0000
1000
0100
0000
0010
0000
0001
0000
,
0100
0000
0000
0010
0000
0000
0100
0000
0000
0001
1000
0000
0010
0000
0010
0000
,
1000
0001
0000
1000
0001
0000
1000
0001
0000
1000
0001
0000
0000
0000
0000
0000
,
0100
0000
0000
0001
0000
0000
0100
0000
0000
0010
1000
0000
0001
0000
0010
0000
,
0100
0000
0000
1000
0000
0000
0100
0000
0000
0010
0001
0000
1000
0000
0001
0000
,
0100
0000
0000
0010
0000
0000
0100
0000
0000
0001
1000
0000
0100
0000
0100
0000
,
1000
0001
0000
1000
0001
0000
1000
0001
0000
1000
0001
0000
0000
0000
0000
0000
,
0001
0100
0000
0010
1000
0000
0001
0100
0000
0010
1000
0001
1000
0010
0100
0001
,
1000
0100
0000
0010
0001
0010
0000
0100
1000
0100
0000
0010
0001
0010
0000
0001
,
1000
0001
0000
0100
0010
0100
0000
0001
1000
0001
0000
0100
0010
0100
0000
0001
,
0100
0000
0010
0000
0100
0000
0001
0000
1000
0000
0010
0000
1000
0000
0001
0000
0100
0000
0010
0000
0100
0000
0001
0000
1000
0000
0010
0000
2000
3000
0002
0003
,
0010
0100
1000
0100
0010
0001
1000
0010
0100
0010
1000
0000
0000
0000
0000
0000
;

//---------------dance-double - ----------------
#NOTES:
     dance-double:
     Dossar:
     Challenge:
     11:
     0.829,0.905,0.061,0.102,1.000: // measure 1
00000000
00000000
00000000
00000000
,  // measure 2
00000000
00000000
00000000
00000000
,  // measure 3
00000000
00000000
00000000
00000000
,  // measure 4
10000000
00000000
00100000
00000000
01000000
00001000
01000000
00001000
00010000
00000000
00000100
00000000
00000010
00000001
00000010
00000001
,  // measure 5
00001000
00000000
00000100
00000000
00010000
00001000
00010000
00001000
00100000
00000000
01000000
00000000
10000000
00010000
10000000
00010000
,  // measure 6
00100000
00000000
00001000
00000000
00010000
00000010
00010000
00000010
00000100
00000000
00000001
00000000
00001000
00000010
00001000
00000010
,  // measure 7
00010000
00000000
00001000
00000000
00100000
01000000
00100000
01000000
10000000
00000000
00010000
00000000
01000000
00001000
01000000
00001000
,  // measure 8
00010000
00000000
00000100
00000000
00001000
00000001
00001000
00000001
00000100
00000000
00000010
00000000
00010000
00001000
00010000
00001000
,  // measure 9
01000000
00000000
00100000
00000000
10000000
00010000
10000000
00010000
00100000
00000000
00001000
00000000
00010000
00000100
00010000
00000100
,  // measure 10
00000020
00000000
00000000
00000032
,  // measure 11
00020003
00000000
00000000
00032000
00000000
00000000
00000000
00000000
,  // measure 12
00103000
00000000
00000000
00001000
00000000
00000000
00010000
00000000
00000000
00000100
00000000
00000000
00000010
00000000
00000001
00000000
,  // measure 13
00001000
00001100
00110000
10010000
,  // measure 14
10000000
01000000
00100000
00010000
00100000
00001000
00010000
00000100
00001000
00000100
00000010
00000001
00001000
00000100
00010000
00001000
,  // measure 15
10000000
00100000
01000000
00010000
01000000
00001000
00010000
00000010
00001000
00000010
00000100
00000001
00001000
00000010
00010000
00001000
,  // measure 16
10000000
01000000
00100000
00010000
00100000
00001000
00010000
00000100
00001000
00000100
00000010
00000001
00001000
00000100
00010000
00001000
,  // measure 17
10000000
00100000
01000000
00010000
01000000
00001000
00010000
00000010
00001000
00000010
00000100
00000001
00001000
00000010
00010000
00001000
,  // measure 18
10000000
01000000
00100000
00010000
00100000
00001000
00010000
00000100
00001000
00000100
00000010
00000001
00001000
00000100
00010000
00001000
,  // measure 19
10000000
00100000
01000000
00010000
01000000
00001000
00010000
00000010
00001000
00000010
00000100
00000001
00001000
00000010
00010000
00001000
,  // measure 20
10000000
01000000
00100000
00010000
00100000
00001000
00010000
00000100
00001000
00000100
00000010
00000001
00001000
00000100
00010000
00001000
,  // measure 21
10000000
00100000
01000000
00010000
01000000
00001000
00010000
00000010
00001000
00000010
00000100
00000001
00001000
00000010
00010000
00001000
,  // measure 22
10000000
00000000
00000000
00001000
00000000
00000000
00100000
00000000
00000000
00000010
00001000
00000000
00000001
00000000
00010000
00000000
,  // measure 23
00001000
00000000
00000000
10000000
00000000
00000000
01000000
00000000
00000000
00100000
00001000
00000000
00010000
00000000
00000100
00000000
,  // measure 24
00000010
00000000
00000000
00000100
00000000
00000000
00010000
00000000
00000000
00001000
01000000
00000000
00100000
00000000
10000000
00000000
,  // measure 25
00010000
00010000
00000000
01000000
01000000
00000000
00001000
00001000
00000000
00010000
00010000
00000000
00000100
00000010
00000100
00000010
,  // measure 26
00000001
00000000
00000000
00010000
00000000
00000000
00000100
00000000
00000000
01000000
00010000
00000000
10000000
00000000
00001000
00000000
,  // measure 27
00010000
00000000
00000000
00000001
00000000
00000000
00000010
00000000
00000000
00000100
00010000
00000000
00001000
00000000
00100000
00000000
,  // measure 28
01000000
00000000
00000000
00100000
00000000
00000000
00001000
00000000
00000000
00010000
00000010
00000000
00000100
00000000
00000001
00000000
,  // measure 29
00001000
00001000
00000000
00000010
00000010
00000000
00010000
00010000
00000000
00001000
00001000
00000000
00100000
01000000
00100000
01000000
,  // measure 30
10000000
00010000
10000000
00001000
01000000
00001000
00010000
00000100
00010000
00000010
00001000
00000010
00000100
00000001
00000010
00000100
,  // measure 31
00001000
00000001
00001000
00000010
00010000
00000010
00001000
00000100
00001000
00000010
00010000
00000010
00001000
00000100
00010000
00001000
,  // measure 32
10000000
01000000
10000000
00001000
01000000
00001000
00010000
00000010
00010000
00000100
00000010
00000100
00001000
00000001
00000010
00000100
,  // measure 33
00001000
00000001
00001000
00000100
00000010
00000100
00010000
00001000
00010000
00000010
00001000
00000010
00010000
00001000
00100000
01000000
,  // measure 34
10000000
00010000
10000000
00001000
01000000
00001000
00010000
00000100
00010000
00000010
00001000
00000010
00000100
00000001
00000010
00000100
,  // measure 35
00001000
00000001
00001000
00000010
00010000
00000010
00001000
00000100
00001000
00000010
00010000
00000010
00001000
00000100
00010000
00001000
,  // measure 36
10000000
01000000
10000000
00001000
01000000
00001000
00010000
00000010
00010000
00000100
00000010
00000100
00001000
00000001
00000010
00000100
,  // measure 37
00001000
00000001
00001000
00000100
00000010
00000100
00010000
00001000
00010000
00000010
00001000
00000010
00010000
00001000
00100000
01000000
,  // measure 38
20000000
00000000
00000000
30002000
,  // measure 39
00023000
00000000
00000000
00030002
00000000
00000000
00000000
00000000
,  // measure 40
00001003
00000000
00000000
00000010
00000000
00000000
00010000
00000000
00000000
00001000
00000000
00000000
00100000
00000000
01000000
00000000
,  // measure 41
10000000
10001000
00011000
00010001
,  // measure 42
00000001
00000000
00000000
00010000
00000000
00000000
00000100
00000000
00000000
01000000
00010000
00000000
10000000
00000000
00001000
00000000
,  // measure 43
00010000
00000000
00000000
00000001
00000000
00000000
00000010
00000000
00000000
00000100
00010000
00000000
00001000
00000000
00100000
00000000
,  // measure 44
01000000
00000000
00000000
00100000
00000000
00000000
00001000
00000000
00000000
00010000
00000010
00000000
00000100
00000000
00000001
00000000
,  // measure 45
00001000
00001000
00000000
00000010
00000010
00000000
00010000
00010000
00000000
00001000
00001000
00000000
00100000
01000000
00100000
01000000
,  // measure 46
10000000
00000000
00000000
00001000
00000000
00000000
00100000
00000000
00000000
00000010
00001000
00000000
00000001
00000000
00010000
00000000
,  // measure 47
00001000
00000000
00000000
10000000
00000000
00000000
01000000
00000000
00000000
00100000
00001000
00000000
00010000
00000000
00000100
00000000
,  // measure 48
00000010
00000000
00000000
00000100
00000000
00000000
00010000
00000000
00000000
00001000
01000000
00000000
00100000
00000000
10000000
00000000
,  // measure 49
00010000
00010000
00000000
01000000
01000000
00000000
00001000
00001000
00000000
00010000
00010000
00000000
00000100
00000010
00000100
00000010
,  // measure 50
00000001
00001000
00000000
00000010
00010000
00000000
00001000
00100000
00000000
01000000
10000000
00000000
00010000
01000000
00100000
10000000
,  // measure 51
00010000
01000000
00000000
00001000
00010000
00000010
00000000
00001000
00000001
00000100
00000000
00000010
00010000
00001000
00000000
00100000
,  // measure 52
01000000
10000000
00000000
00010000
01000000
00001000
00000000
00010000
00000100
00000010
00000000
00000001
00001000
00000010
00000000
00010000
,  // measure 53
00001000
00000000
01000000
00000000
00001000
00000000
01000000
00000000
00000100
00000000
00010000
00000000
00000100
00000000
00010000
00000000
00000001
00000000
00001000
00000000
00000001
00000000
00000100
00000000
00000010
00000000
00001000
00000000
00000200
00000300
00000020
00000030
,  // measure 54
00000001
00000100
00000010
00001000
00000100
00010000
00001000
00100000
00010000
10000000
00100000
00000000
00000000
00000000
00000000
00000000
;
