#TITLE:AGAINST ALL ODDS;
#SUBTITLE:(Definitive MIX);
#ARTIST:DEJA VU featuring TASMIN;
#TITLETRANSLIT:;
#SUBTITLETRANSLIT:;
#ARTISTTRANSLIT:;
#CREDIT:;
#BANNER:../ddrstream fallback-bn.png;
#BACKGROUND:../ddrstream fallback-bg.png;
#LYRICSPATH:;
#CDTITLE:;
#MUSIC:AGAINST ALL ODDS (Definitive MIX).ogg;
#OFFSET:0.000;
#SAMPLESTART:27.630;
#SAMPLELENGTH:15.470;
#SELECTABLE:YES;
#DISPLAYBPM:139.000;
#BPMS:0.000=139.000;
#STOPS:;
#BGCHANGES:;

//---------------dance-single - ----------------
#NOTES:
     dance-single:
     Dossar:
     Challenge:
     12:
     1.000,0.890,0.000,0.000,1.000:
0000
0000
0000
0000
,
0000
0000
0000
0000
,
0000
0000
0000
0000
,
1000
0001
0100
0010
0000
0000
1000
0000
,
0001
0000
0000
0000
,
1000
0010
1000
0001
0100
0010
1000
0001
1000
0010
0100
0001
1000
0001
0100
0010
,
1000
0001
1000
0100
0010
0001
0010
0100
1000
0001
0010
0001
1000
0100
0010
0001
,
1000
0010
0100
0010
1000
0001
0100
0010
0100
0001
1000
0010
0100
0001
0100
0010
,
1000
0001
0010
0001
1000
0100
0010
0001
1000
0010
1000
0001
0100
0010
1000
0001
,
0010
0001
1000
0100
0010
0001
0010
0100
1000
0001
0010
0001
1000
0100
0010
0001
,
1000
0010
1000
0001
0100
0001
1000
0010
0100
0001
0100
0010
1000
0001
0100
0010
,
1000
0001
0010
0001
1000
0100
1000
0001
0010
0100
1000
0100
0010
0001
1000
0100
,
1000
0001
0100
0001
1000
0010
0100
0010
1000
0001
1000
0100
0010
0001
0010
0100
,
1000
0001
0100
0001
1000
0010
0100
0010
1000
0001
0100
0001
1000
0010
0100
0010
,
1000
0001
1000
0100
0010
0001
0010
0100
1000
0001
0010
0100
0010
0001
1000
0001
,
0100
0010
1000
0010
0100
0001
1000
0001
0100
0010
1000
0001
1000
0010
0100
0001
,
1000
0100
0010
0001
0010
0100
1000
0001
1000
0010
0100
0001
0100
0010
1000
0001
,
0100
0010
1000
0001
0100
0010
1000
0001
1000
0010
0100
0001
1000
0001
0100
0010
,
1000
0001
1000
0100
0010
0001
0010
0100
1000
0001
0010
0001
1000
0100
0010
0001
,
1000
0010
0100
0010
1000
0001
0100
0010
0100
0001
1000
0010
0100
0001
0100
0010
,
1000
0001
0010
0001
1000
0100
0010
0001
1000
0010
1000
0001
0100
0010
1000
0001
,
0010
0001
1000
0100
0010
0001
0010
0100
1000
0001
0010
0001
1000
0100
0010
0001
,
1000
0010
1000
0001
0100
0001
1000
0010
0100
0001
0100
0010
1000
0001
0100
0010
,
1000
0001
0010
0001
1000
0100
1000
0001
0010
0100
1000
0100
0010
0001
1000
0100
,
1000
0001
0100
0001
1000
0010
0100
0010
1000
0001
1000
0100
0010
0001
0010
0100
,
1000
0001
0100
0001
1000
0010
0100
0010
1000
0001
0100
0001
1000
0010
0100
0010
,
1000
0001
1000
0100
0010
0001
0010
0100
1000
0001
0010
0100
0010
0001
1000
0001
,
0100
0010
1000
0010
0100
0001
1000
0001
0100
0010
1000
0001
1000
0010
0100
0001
,
1000
0100
0010
0001
0010
0100
1000
0001
1000
0010
0100
0001
0100
0010
1000
0001
,
0100
0010
1000
0001
0100
0010
1000
0001
1000
0010
0100
0001
1000
0001
0100
0010
,
1000
0001
1000
0100
0010
0001
0010
0100
1000
0001
0010
0001
1000
0100
0010
0001
,
1000
0010
0100
0010
1000
0001
0100
0010
0100
0001
1000
0010
0100
0001
0100
0010
,
1000
0001
0010
0001
1000
0100
0010
0001
1000
0010
1000
0001
0100
0010
1000
0001
,
0010
0001
1000
0100
0010
0001
0010
0100
1000
0001
0010
0001
1000
0100
0010
0001
,
1000
0010
1000
0001
0100
0001
1000
0010
0100
0001
0100
0010
1000
0001
0100
0010
,
1000
0001
0010
0001
1000
0100
1000
0001
0010
0100
1000
0100
0010
0001
1000
0100
,
1000
0001
0100
0001
1000
0010
0100
0010
1000
0001
1000
0100
0010
0001
0010
0100
,
1000
0001
0100
0001
1000
0010
0100
0010
1000
0001
0100
0001
1000
0010
0100
0010
,
1000
0001
1000
0100
0010
0001
0010
0100
1000
0001
0010
0100
0010
0001
1000
0001
,
0100
0010
1000
0010
0100
0001
1000
0001
0100
0010
1000
0001
1000
0010
0100
0001
,
1000
0100
0010
0001
0010
0100
1000
0001
1000
0010
0100
0001
0100
0010
1000
0001
,
1000
0010
0100
0001
0100
0010
1000
0001
1000
0010
0100
0001
1000
0001
0100
0010
,
1000
0001
1000
0100
0010
0001
0010
0100
1000
0001
0010
0001
1000
0100
0010
0001
,
1000
0010
0100
0010
1000
0001
0100
0010
0100
0001
1000
0010
0100
0001
0100
0010
,
1000
0001
0010
0001
1000
0100
0010
0001
1000
0010
1000
0001
0100
0010
1000
0001
,
0010
0001
1000
0100
0010
0001
0010
0100
1000
0001
0010
0001
1000
0100
0010
0001
,
1000
0010
1000
0001
0100
0001
1000
0010
0100
0001
0100
0010
1000
0001
0100
0010
,
1000
0001
0010
0001
1000
0100
1000
0001
0010
0100
1000
0100
0010
0001
1000
0100
,
1000
0001
0100
0001
1000
0010
0100
0010
1000
0001
1000
0100
0010
0001
0010
0100
,
1000
0001
0100
0001
1000
0010
0100
0010
1000
0001
0100
0001
1000
0010
0100
0010
,
1000
0001
1000
0100
0010
0001
0010
0100
1000
0001
0010
0100
0010
0001
1000
0001
,
0100
0010
1000
0010
0100
0001
1000
0001
0100
0010
1000
0001
1000
0010
0100
0001
,
1000
0100
0010
0001
0010
0100
1000
0001
1000
0010
0100
0001
0100
0010
1000
0001
,
0100
0010
1000
0001
0100
0010
1000
0001
1000
0010
0100
0001
1000
0001
0100
0010
,
1000
0001
1000
0100
0010
0001
0010
0100
1000
0001
0010
0001
1000
0100
0010
0001
,
1000
0000
0000
0000
;

//---------------dance-single - ----------------
#NOTES:
     dance-single:
     Dossar:
     Hard:
     11:
     0.966,0.890,0.000,0.000,1.000:
0000
0000
0000
0000
,
0000
0000
0000
0000
,
0000
0000
0000
0000
,
1000
0001
0100
0010
0000
0000
1000
0000
,
0001
0000
0000
0000
,
1000
0010
1000
0001
0100
0010
1000
0001
1000
0010
0100
0001
1000
0001
0100
0010
,
1000
0001
1000
0100
0010
0001
0010
0100
1000
0001
0010
0001
1000
0100
0010
0001
,
1000
0010
0100
0010
1000
0001
0100
0010
0100
0001
1000
0010
0100
0001
0100
0010
,
1000
0001
0010
0001
1000
0100
0010
0001
1000
0010
1000
0001
0100
0010
1000
0001
,
0010
0001
1000
0100
0010
0001
0010
0100
1000
0001
0010
0001
1000
0100
0010
0001
,
1000
0010
1000
0001
0100
0001
1000
0010
0100
0001
0100
0010
1000
0001
0100
0010
,
1000
0001
0010
0001
1000
0100
1000
0001
0010
0100
1000
0100
0010
0001
1000
0100
,
1000
0001
0100
0001
1000
0010
0100
0010
1000
0001
1000
0100
0010
0001
0010
0100
,
1000
0001
0100
0001
1000
0010
0100
0010
1000
0001
0100
0001
1000
0010
0100
0010
,
1000
0001
1000
0100
0010
0001
0010
0100
1000
0001
0010
0100
0010
0001
1000
0001
,
0100
0010
1000
0010
0100
0001
1000
0001
0100
0010
1000
0001
1000
0010
0100
0001
,
1000
0100
0010
0001
0010
0100
1000
0001
1000
0010
0100
0001
0100
0010
1000
0001
,
0100
0010
1000
0001
0100
0010
1000
0001
1000
0010
0100
0001
1000
0001
0100
0010
,
1000
0001
1000
0100
0010
0001
0010
0100
1000
0001
0010
0001
1000
0100
0010
0001
,
1000
0010
0100
0010
1000
0001
0100
0010
0100
0001
1000
0010
0100
0001
0100
0010
,
1000
0001
0010
0001
1000
0100
0010
0001
1000
0010
1000
0001
0100
0010
1000
0001
,
0010
0001
1000
0100
0010
0001
0010
0100
1000
0001
0010
0001
1000
0100
0010
0001
,
1000
0010
1000
0001
0100
0001
1000
0010
0100
0001
0100
0010
1000
0001
0100
0010
,
1000
0001
0010
0001
1000
0100
1000
0001
0010
0100
1000
0100
0010
0001
1000
0100
,
1000
0001
0100
0001
1000
0010
0100
0010
1000
0001
1000
0100
0010
0001
0010
0100
,
1000
0001
0100
0001
1000
0010
0100
0010
1000
0001
0100
0001
1000
0010
0100
0010
,
1000
0001
0100
0010
1000
0000
0010
0100
,
0001
1000
0000
0000
0000
0000
0000
0000
,
1000
0100
0010
0001
1000
0100
0000
0010
,
0000
0000
0000
0000
0000
0000
0000
0000
0000
0000
0000
0000
0001
0000
0000
1000
,
0000
0001
0010
0000
0100
0000
1000
0001
,
0000
0100
0000
0000
0010
0000
0000
0000
0000
0000
0000
0000
0000
0000
1000
0000
,
0100
0010
0000
0001
0000
0010
0000
0001
,
0000
0000
0000
0000
0000
0000
1000
0010
,
0100
0001
1000
0000
0000
0000
0001
0010
,
0100
1000
0000
0001
0000
1000
0001
0000
,
1000
0001
0100
0001
1000
0010
0100
0010
1000
0001
1000
0100
0010
0001
0010
0100
,
1000
0001
0100
0001
1000
0010
0100
0010
1000
0001
0100
0001
1000
0010
0100
0010
,
1000
0001
1000
0100
0010
0001
0010
0100
1000
0001
0010
0100
0010
0001
1000
0001
,
0100
0010
1000
0010
0100
0001
1000
0001
0100
0010
1000
0001
1000
0010
0100
0001
,
1000
0100
0010
0001
0010
0100
1000
0001
1000
0010
0100
0001
0100
0010
1000
0001
,
1000
0010
0100
0001
0100
0010
1000
0001
1000
0010
0100
0001
1000
0001
0100
0010
,
1000
0001
1000
0100
0010
0001
0010
0100
1000
0001
0010
0001
1000
0100
0010
0001
,
1000
0010
0100
0010
1000
0001
0100
0010
0100
0001
1000
0010
0100
0001
0100
0010
,
1000
0001
0010
0001
1000
0100
0010
0001
1000
0010
1000
0001
0100
0010
1000
0001
,
0010
0001
1000
0100
0010
0001
0010
0100
1000
0001
0010
0001
1000
0100
0010
0001
,
1000
0010
1000
0001
0100
0001
1000
0010
0100
0001
0100
0010
1000
0001
0100
0010
,
1000
0001
0010
0001
1000
0100
1000
0001
0010
0100
1000
0100
0010
0001
1000
0100
,
1000
0001
0100
0001
1000
0010
0100
0010
1000
0001
1000
0100
0010
0001
0010
0100
,
1000
0001
0100
0001
1000
0010
0100
0010
1000
0001
0100
0001
1000
0010
0100
0010
,
1000
0001
1000
0100
0010
0001
0010
0100
1000
0001
0010
0100
0010
0001
1000
0001
,
0100
0010
1000
0010
0100
0001
1000
0001
0100
0010
1000
0001
1000
0010
0100
0001
,
1000
0100
0010
0001
0010
0100
1000
0001
1000
0010
0100
0001
0100
0010
1000
0001
,
0100
0010
1000
0001
0100
0010
1000
0001
1000
0010
0100
0001
1000
0001
0100
0010
,
1000
0001
1000
0100
0010
0001
0010
0100
1000
0001
0010
0001
1000
0100
0010
0001
,
1000
0000
0000
0000
;

//---------------dance-single - ----------------
#NOTES:
     dance-single:
     Dossar:
     Medium:
     10:
     0.710,0.890,0.000,0.000,0.961:
0000
0000
0000
0000
,
0000
0000
0000
0000
,
0000
0000
0000
0000
,
1000
0001
0100
0010
0000
0000
1000
0000
,
0001
0000
0000
0000
,
1000
0010
0100
0001
1000
0000
0001
0100
,
0010
1000
0000
0000
0000
0000
0001
0010
,
0100
1000
0100
0010
0001
1000
0000
0001
,
0000
0000
0000
0000
0000
0000
1000
0010
,
0100
0000
0001
1000
0000
0100
0000
0010
,
0001
0000
1000
0000
0000
0000
0000
0001
,
0100
0010
0000
1000
0000
0001
0000
0010
,
0000
0000
0000
0000
0000
0000
0001
1000
,
0100
0010
0001
0000
0000
0000
1000
0010
,
0100
0001
0000
1000
0000
0000
0010
0000
,
1000
0001
1000
0001
,
1000
0100
0010
0001
0010
0100
1000
0001
1000
0010
0100
0001
0100
0010
1000
0001
,
0100
0010
1000
0001
0100
0010
1000
0001
1000
0010
0100
0001
1000
0001
0100
0010
,
1000
0001
1000
0100
0010
0001
0010
0100
1000
0001
0010
0001
1000
0100
0010
0001
,
1000
0010
0100
0010
1000
0001
0100
0010
0100
0001
1000
0010
0100
0001
0100
0010
,
1000
0001
0010
0001
1000
0100
0010
0001
1000
0010
1000
0001
0100
0010
1000
0001
,
0010
0001
1000
0100
0010
0001
0010
0100
1000
0001
0010
0001
1000
0100
0010
0001
,
1000
0010
1000
0001
0100
0001
1000
0010
0100
0001
0100
0010
1000
0001
0100
0010
,
1000
0001
0010
0001
1000
0100
1000
0001
0010
0100
1000
0100
0010
0001
1000
0100
,
1000
0001
0100
0001
1000
0010
0100
0010
1000
0001
1000
0100
0010
0001
0010
0100
,
1000
0001
0100
0001
1000
0010
0100
0010
1000
0001
0100
0001
1000
0010
0100
0010
,
1000
0001
0100
0010
1000
0000
0010
0100
,
0001
1000
0000
0000
0000
0000
0000
0000
,
1000
0100
0010
0001
1000
0100
0000
0010
,
0000
0000
0000
0000
0000
0000
0000
0000
0000
0000
0000
0000
0001
0000
0000
1000
,
0000
0001
0010
0000
0100
0000
1000
0001
,
0000
0100
0000
0000
0010
0000
0000
0000
0000
0000
0000
0000
0000
0000
1000
0000
,
0100
0010
0000
0001
0000
0010
0000
0001
,
0000
0000
0000
0000
0000
0000
1000
0010
,
0100
0001
1000
0000
0000
0000
0001
0010
,
0100
1000
0000
0001
0000
1000
0001
0000
,
1000
0010
0000
0100
0010
0000
0100
0001
0000
1000
0001
0000
0100
0000
0010
0000
,
1000
0100
0000
0010
0001
0000
1000
0001
0000
0010
0100
0000
1000
0000
0001
0000
,
1000
0000
0010
0000
0100
0000
0001
0000
1000
0010
0000
0100
0001
0000
1000
0000
,
0100
0000
0010
0001
0000
1000
0100
0000
1000
0001
0000
0010
0100
0000
1000
0000
,
0001
0000
0100
0010
0000
1000
0010
0000
0100
0001
0000
1000
0001
0000
1000
0000
,
0100
0000
1000
0100
0000
0010
0001
0000
0010
0100
0000
1000
0001
0000
1000
0000
,
0010
0000
0100
0001
0000
1000
0010
0000
0100
0010
0000
1000
0001
0000
1000
0000
,
0001
0000
0010
0100
0000
1000
0100
0000
0010
0001
0000
1000
0001
0000
1000
0000
,
0010
0000
0100
0010
0000
1000
0001
0000
1000
0010
0000
0100
0001
0000
1000
0000
,
0001
1000
0001
0010
0100
1000
0100
0010
0001
1000
0100
1000
0001
0010
0100
1000
,
0001
0100
0001
1000
0010
1000
0001
0100
0010
1000
0010
0100
0001
1000
0010
0100
,
0001
1000
0100
1000
0001
0010
0001
1000
0100
0010
0001
0010
0100
1000
0001
0010
,
0001
1000
0010
1000
0001
0100
0010
0100
0001
1000
0001
0010
0100
1000
0100
0010
,
0001
1000
0010
1000
0001
0100
0010
0100
0001
1000
0010
1000
0001
0100
0010
0100
,
0001
1000
0001
0010
0100
1000
0100
0010
0001
1000
0100
0010
0100
1000
0001
1000
,
0010
0100
0001
0100
0010
1000
0001
1000
0010
0100
0001
1000
0001
0100
0010
1000
,
0001
0010
0100
1000
0100
0010
0001
1000
0001
0100
0010
1000
0010
0100
0001
1000
,
0010
0100
0001
1000
0010
0100
0001
1000
0001
0100
0010
1000
0001
1000
0010
0100
,
0001
1000
0001
0010
0100
1000
0100
0010
0001
1000
0100
1000
0001
0010
0100
1000
,
0001
0000
0000
0000
;

//---------------dance-double - ----------------
#NOTES:
     dance-double:
     Dossar:
     Challenge:
     10:
     0.744,0.890,0.010,0.196,0.951: // measure 1
00000000
00000000
00000000
00000000
,  // measure 2
00000000
00000000
00000000
00000000
,  // measure 3
00000000
00000000
00000000
00000000
,  // measure 4
10000000
00100000
01000000
00010000
00000000
00000000
00100000
00000000
,  // measure 5
00202000
00000000
00000000
00303000
,  // measure 6
00001000
00010000
00000100
00000010
00000001
00000000
00001000
00000010
,  // measure 7
00010000
00001000
00000000
00000000
00000000
00000000
00010000
00001000
,  // measure 8
00100000
01000000
00100000
00010000
10000000
00100000
00000000
02000000
,  // measure 9
00000000
03000000
00000000
00000000
00000000
00000000
00010000
10000000
,  // measure 10
00100000
00000000
01000000
00001000
00000000
00010000
00000000
00000100
,  // measure 11
00001000
00000000
00000001
00000000
00000000
00000000
00000000
00001000
,  // measure 12
00000010
00010000
00000000
00001000
00000000
00100000
00000000
00020000
,  // measure 13
00000000
00030000
00000000
00000000
00000000
00000000
10000000
00010000
,  // measure 14
01000000
00001000
00010000
00000000
00000000
00000000
00001000
00010000
,  // measure 15
00000100
00000010
00000000
00000001
00000000
00000000
00001000
00000000
,  // measure 16
00000001
00000100
00000010
00001000
00000001
00000100
00000010
00001000
00000001
00000100
00000010
00001000
00000001
00000100
00000010
00001000
,  // measure 17
00000001
00001000
00000100
00000010
00000001
00001000
00000100
00000010
00000001
00000010
00000100
00001000
00000001
00000010
00000100
00001000
,  // measure 18
00000001
00000100
00000001
00001000
00000010
00000100
00000001
00001000
00000001
00000100
00000010
00001000
00000001
00001000
00000100
00010000
,  // measure 19
00000100
00010000
00001000
00010000
00000100
00001000
00000100
00010000
00001000
00010000
00000100
00010000
00001000
00100000
00010000
00100000
,  // measure 20
01000000
10000000
00010000
00100000
01000000
10000000
01000000
00100000
00010000
10000000
01000000
00100000
00010000
00100000
00001000
00010000
,  // measure 21
00001000
00100000
00001000
00010000
00000100
00010000
00001000
00010000
00000100
00001000
00000100
00010000
00000100
00000010
00000001
00001000
,  // measure 22
00000010
00000100
00000001
00001000
00000010
00001000
00000001
00000100
00000010
00001000
00000001
00000100
00000001
00001000
00000100
00010000
,  // measure 23
00000100
00001000
00000100
00010000
00001000
00100000
00001000
00100000
00010000
00100000
00001000
00010000
00001000
00100000
01000000
10000000
,  // measure 24
00010000
01000000
00100000
10000000
00010000
01000000
00100000
10000000
00010000
10000000
00100000
01000000
00010000
01000000
00001000
00010000
,  // measure 25
00001000
01000000
00001000
00010000
00000100
00010000
00001000
00010000
00000100
00001000
00000100
00010000
00000100
00000010
00000001
00001000
,  // measure 26
00000010
00000100
00000001
00001000
00000010
00000100
00000010
00001000
00000001
00000100
00000010
00001000
00000010
00000100
00000001
00001000
,  // measure 27
00000100
00010000
00001000
00100000
01000000
00000000
10000000
00100000
,  // measure 28
01000000
00010000
00000000
00000000
00000000
00000000
00000000
00000000
,  // measure 29
10000000
00010000
01000000
00001000
00010000
00000100
00000000
00000020
,  // measure 30
00000000
00000000
00000030
00000000
00000000
00000000
00000000
00000000
00000000
00000000
00000000
00000000
00000001
00000000
00000000
00001000
,  // measure 31
00000000
00000001
00000100
00000000
00000010
00000000
00010000
00001000
,  // measure 32
00000000
00100000
00000000
00000000
01000000
00000000
00000000
00000000
00000000
00000000
00000000
00000000
00000000
00000000
10000000
00000000
,  // measure 33
00010000
01000000
00000000
00001000
00000000
00010000
00000000
00000020
,  // measure 34
00000000
00000030
00000000
00000000
00000000
00000000
00001000
00000001
,  // measure 35
00000100
00000010
00001000
00000000
00000000
00000000
00000010
00010000
,  // measure 36
00001000
00100000
00000000
01000000
00000000
10000000
00010000
00000000
,  // measure 37
10000000
00010000
00000000
01000000
00010000
00000000
01000000
00001000
00000000
00010000
00001000
00000000
00010000
00000000
00000100
00000000
,  // measure 38
00000010
00000002
00002003
00003020
00020030
00032000
00203000
00320000
,  // measure 39
10030000
00000000
01000000
00100000
00000000
00010000
10000000
00000000
00100000
01000000
00000000
00001000
00010000
00000000
00000100
00000000
,  // measure 40
00000010
00000000
00000001
00001000
00000000
00000010
00000100
00000000
00000001
00000100
00000000
00000010
00010000
00000000
00001000
00000000
,  // measure 41
00100000
00000000
01000000
10000000
00000000
00010000
00100000
00000000
00001000
00010000
00000000
00000100
00001000
00000000
00000001
00000000
,  // measure 42
00000100
00000000
00000010
00001000
00000000
00000001
00000100
00000000
00000010
00010000
00000000
00001000
00100000
00000000
01000000
00000000
,  // measure 43
10000000
00000000
00010000
01000000
00000000
00001000
00010000
00000000
00000100
00000010
00000000
00000001
00001000
00000000
00000010
00000000
,  // measure 44
00000100
00000000
00000001
00001000
00000000
00000010
00010000
00000000
00001000
00100000
00000000
01000000
10000000
00000000
00010000
00000000
,  // measure 45
10000000
00000000
00100000
01000000
00000000
00010000
00100000
00000000
00001000
00010000
00000000
00000100
00000010
00000000
00000001
00000000
,  // measure 46
00001000
00000020
00020030
00032000
00203000
02300000
23000000
30020000
,  // measure 47
10030000
00100000
10000000
00010000
01000000
00100000
10000000
00010000
10000000
00100000
01000000
00010000
10000000
00010000
00100000
00001000
,  // measure 48
00100000
00001000
00010000
00001000
00100000
00010000
00100000
00001000
00010000
00001000
00100000
00001000
00010000
00000100
00001000
00000100
,  // measure 49
00000010
00000001
00001000
00000100
00000010
00000001
00000010
00000100
00001000
00000001
00000010
00000100
00001000
00000100
00010000
00001000
,  // measure 50
00010000
00000100
00010000
00001000
00100000
00001000
00010000
00001000
00100000
00010000
00100000
00001000
00100000
01000000
10000000
00010000
,  // measure 51
01000000
00100000
10000000
00010000
01000000
00010000
10000000
00100000
01000000
00010000
10000000
00100000
10000000
00010000
00100000
00001000
,  // measure 52
00100000
00010000
00100000
00001000
00010000
00000100
00010000
00000100
00001000
00000100
00010000
00001000
00010000
00000100
00000010
00000001
,  // measure 53
00001000
00000010
00000100
00000001
00001000
00000010
00000100
00000001
00001000
00000001
00000100
00000010
00001000
00000010
00010000
00001000
,  // measure 54
00010000
00000010
00010000
00001000
00100000
00001000
00010000
00001000
00100000
00010000
00100000
00001000
00100000
01000000
10000000
00010000
,  // measure 55
01000000
00100000
10000000
00010000
01000000
00100000
01000000
00010000
10000000
00100000
01000000
00010000
01000000
00100000
10000000
00010000
,  // measure 56
01000000
00000000
00000000
00000000
;
