#TITLE:ABSOLUTE;
#SUBTITLE:(Cuff -N- Stuff it Mix);
#ARTIST:Thuggie D.;
#TITLETRANSLIT:;
#SUBTITLETRANSLIT:;
#ARTISTTRANSLIT:;
#CREDIT:;
#BANNER:../ddrstream fallback-bn.png;
#BACKGROUND:../ddrstream fallback-bg.png;
#LYRICSPATH:;
#CDTITLE:;
#MUSIC:absolute.ogg;
#OFFSET:-1.722;
#SAMPLESTART:18.380;
#SAMPLELENGTH:13.270;
#SELECTABLE:YES;
#DISPLAYBPM:144.000;
#BPMS:0.000=144.000,214.000=134.000,215.000=120.000,216.000=112.000,217.000=89.000,218.000=85.000,219.000=59.000,220.000=84.000,221.000=144.000;
#STOPS:;
#BGCHANGES:;

//---------------dance-single - ----------------
#NOTES:
     dance-single:
     Dossar:
     Challenge:
     12:
     1.000,0.914,0.029,0.098,1.000:
0000
0000
0000
0000
,
0000
0000
0000
0000
,
0000
0000
0000
0000
,
1000
0000
0000
0001
0100
0001
1000
0000
0000
0010
0000
0000
0100
0000
0000
0001
0100
0001
1000
0000
0000
0100
0000
0000
,
0010
0000
0001
0000
0010
0000
0100
1000
0000
1000
0100
0000
1000
0000
0001
1000
,
0010
0000
0000
0100
0001
0100
0010
0000
0000
1000
0000
0000
0001
0000
0000
0100
0001
0100
0010
0000
0000
1000
0000
0000
,
0001
0000
1000
0000
0100
0000
0010
0001
0000
0001
0010
0000
0100
0000
1000
0001
,
0020
0030
0000
0001
1000
0001
0100
0010
,
1000
0000
0000
0001
0000
0000
0010
0000
0100
0000
1000
0000
0100
0000
0010
0000
,
0001
1000
0010
0100
0001
1000
0010
0100
0001
0000
1000
0001
0000
0020
0000
0000
,
0031
1000
0010
0100
0001
1000
0010
0100
0001
1000
0001
0100
0010
1000
0001
0100
,
0001
1000
0100
0010
0001
1000
0100
0010
0001
0010
0100
1000
0001
0010
0100
1000
,
0001
0100
0010
1000
0001
0100
0001
1000
0010
0100
0001
1000
0010
1000
0001
0010
,
0100
1000
0001
0010
0100
1000
0100
0010
0001
1000
0100
0010
0001
0010
0100
1000
,
0001
0100
0010
1000
0001
1000
0010
0100
0001
1000
0010
0100
0010
1000
0001
1000
,
0100
0010
0001
1000
0100
0010
0001
1000
0100
1000
0001
0010
0100
1000
0001
0010
,
0001
1000
0010
0100
0001
0100
0010
1000
0001
0100
0010
1000
0010
0100
0001
1000
,
0100
0010
0001
1000
0100
0010
0001
0010
0100
1000
0001
0010
0001
1000
0100
0010
,
0001
1000
0010
0100
0001
1000
0010
0100
0001
1000
0001
0100
0010
1000
0001
0100
,
0001
1000
0100
0010
0001
1000
0100
0010
0001
0010
0100
1000
0001
0010
0100
1000
,
0001
0100
0010
1000
0001
0100
0001
1000
0010
0100
0001
1000
0010
1000
0001
0010
,
0100
1000
0001
0010
0100
1000
0100
0010
0001
1000
0100
0010
0001
0010
0100
1000
,
0002
0000
0003
1000
0010
0100
0010
0000
1000
0001
1000
0000
0010
0100
0010
0000
,
1000
0000
0001
0020
0000
0000
0130
0000
0010
0000
0001
2000
0000
0000
3010
0000
,
0100
0001
0100
0000
0010
1000
0010
0100
0000
0001
1000
0001
0100
0010
1000
0001
,
0010
0000
0100
2000
0000
0000
3100
0000
0010
0000
0001
2000
0000
0000
3010
0000
,
0100
0000
0001
0000
0100
0000
0010
1000
0000
0001
0010
0001
1000
0100
0010
0001
,
1000
0000
0001
0100
0010
0000
1000
0000
0010
0000
0100
0001
1000
0000
0100
0000
,
0010
0000
0001
0000
1000
0100
0000
0010
0001
1000
0000
0010
0100
0001
1000
0000
,
0001
0000
1000
0001
0100
0000
0010
0000
1000
0000
0001
0010
0100
0000
1000
0000
,
0001
0000
0010
0000
0100
0000
0010
0000
0001
1000
0100
0010
0001
0010
0100
1000
,
0001
0100
0010
1000
0010
0100
0001
1000
0200
0000
0300
0000
0010
0001
0010
0100
,
1000
0001
0100
0010
1000
0001
0100
0010
1000
0001
1000
0010
0100
0001
1000
0010
,
1000
0001
0010
0100
1000
0001
0010
0100
1000
0100
0010
0001
1000
0100
0010
0001
,
1000
0010
0100
0001
1000
0010
1000
0001
0100
0010
1000
0001
0100
0001
1000
0100
,
0010
0001
1000
0100
0010
0001
0010
0100
1000
0001
0010
0100
1000
0100
0010
0001
,
1000
0010
0100
0001
1000
0001
0100
0010
1000
0001
0100
0010
0100
0001
1000
0001
,
0010
0100
1000
0001
0010
0100
1000
0001
0010
0001
1000
0100
0010
0001
1000
0100
,
1000
0001
0100
0010
1000
0010
0100
0001
1000
0010
0100
0001
0100
0010
1000
0001
,
0010
0100
1000
0001
0010
0100
1000
0100
0010
0001
1000
0100
1000
0001
0010
0100
,
1000
0001
0100
0010
1000
0001
0100
0010
1000
0001
1000
0010
0100
0001
1000
0010
,
1000
0001
0010
0100
1000
0001
0010
0100
1000
0100
0010
0001
1000
0100
0010
0001
,
1000
0010
0100
0001
1000
0010
1000
0001
0100
0010
1000
0001
0100
0001
1000
0100
,
0010
0001
1000
0100
0010
0001
0010
0100
1000
0001
0010
0100
1000
0100
0010
0001
,
1000
0001
0100
0010
1000
0001
0100
0010
1000
0001
1000
0010
0100
0001
1000
0010
,
1000
0001
0010
0100
1000
0001
0010
0100
1000
0100
0010
0001
1000
0100
0010
0001
,
1000
0010
0100
0001
1000
0010
1000
0001
0100
0010
1000
0001
0100
0001
1000
0100
,
0010
0001
1000
0100
0010
0001
0010
0100
1000
0001
0010
0100
1000
0100
0010
0001
,
1000
0010
0100
0001
0100
0010
1000
0010
0100
0001
1000
0100
1000
0001
0010
0001
,
1000
0100
0010
0001
1000
0100
0010
0001
1000
0010
0100
0001
1000
0010
0100
0001
,
1000
0100
0010
0001
0010
0100
1000
0100
0010
0001
1000
0010
1000
0001
0100
0001
,
1000
0010
0100
0001
1000
0010
0100
0001
1000
0100
0010
0001
1000
0100
0010
0001
,
1000
0010
0100
0001
0100
0010
1000
0010
0100
0001
1000
0100
1000
0001
0010
0001
,
1000
0100
0010
0001
1000
0100
0010
0001
1000
0000
0000
0000
1001
0000
0000
0000
,
0101
0000
0000
0000
0000
0000
0001
0000
1000
0000
0001
0000
0100
0000
0000
0000
0000
0000
0010
0000
0000
0000
0000
0000
1000
0000
0000
0000
0000
0000
0001
0000
0010
0000
0001
0000
1000
0000
0000
0000
0000
0100
0000
0000
0000
0000
0000
0000
,
2002
0000
3003
0000
1000
0000
0010
0000
0100
0000
0001
0000
1000
0010
0100
0001
,
1000
0010
1000
0001
0100
0010
1000
0001
0100
0001
1000
0100
0010
0000
0000
0000
;

//---------------dance-single - ----------------
#NOTES:
     dance-single:
     Dossar:
     Hard:
     11:
     0.952,0.914,0.029,0.117,1.000:
0000
0000
0000
0000
,
0000
0000
0000
0000
,
0000
0000
0000
0000
,
1000
0000
0000
0001
0100
0001
1000
0000
0000
0010
0000
0000
0100
0000
0000
0001
0100
0001
1000
0000
0000
0100
0000
0000
,
0010
0000
0001
0000
0010
0000
0100
1000
0000
1000
0100
0000
1000
0000
0001
1000
,
0010
0000
0000
0100
0001
0100
0010
0000
0000
1000
0000
0000
0001
0000
0000
0100
0001
0100
0010
0000
0000
1000
0000
0000
,
0001
0000
1000
0000
0100
0000
0010
0001
0000
0001
0010
0000
0100
0000
1000
0001
,
0020
0030
0000
0001
1000
0001
0100
0010
,
1000
0000
0000
0001
0000
0000
0010
0000
0100
0000
1000
0000
0100
0000
0010
0000
,
0001
1000
0010
0100
0001
1000
0010
0100
0001
0000
1000
0001
0000
0020
0000
0000
,
0031
1000
0010
0100
0001
1000
0010
0100
0001
1000
0001
0100
0010
1000
0001
0100
,
0001
1000
0100
0010
0001
1000
0100
0010
0001
0010
0100
1000
0001
0010
0100
1000
,
0001
0100
0010
1000
0001
0100
0001
1000
0010
0100
0001
1000
0010
1000
0001
0010
,
0100
1000
0001
0010
0100
1000
0100
0010
0001
1000
0100
0010
0001
0010
0100
1000
,
0001
0100
0010
1000
0001
1000
0010
0100
0001
1000
0010
0100
0010
1000
0001
1000
,
0100
0010
0001
1000
0100
0010
0001
1000
0100
1000
0001
0010
0100
1000
0001
0010
,
0001
1000
0010
0100
0001
0100
0010
1000
0001
0100
0010
1000
0010
0100
0001
1000
,
0100
0010
0001
1000
0100
0010
0001
0010
0100
1000
0001
0010
0001
1000
0100
0010
,
0001
1000
0010
0100
0001
1000
0010
0100
0001
1000
0001
0100
0010
1000
0001
0100
,
0001
1000
0100
0010
0001
1000
0100
0010
0001
0010
0100
1000
0001
0010
0100
1000
,
0001
0100
0010
1000
0001
0100
0001
1000
0010
0100
0001
1000
0010
1000
0001
0010
,
0100
1000
0001
0010
0100
1000
0100
0010
0001
1000
0100
0010
0001
0010
0100
1000
,
0002
0000
0003
1000
0010
0100
0010
0000
1000
0001
1000
0000
0010
0100
0010
0000
,
1000
0000
0001
0020
0000
0000
0130
0000
0010
0000
0001
2000
0000
0000
3010
0000
,
0100
0001
0100
0000
0010
1000
0010
0100
0000
0001
1000
0001
0100
0010
1000
0001
,
0010
0000
0100
2000
0000
0000
3100
0000
0010
0000
0001
2000
0000
0000
3010
0000
,
0100
0000
0001
0000
0100
0000
0010
1000
0000
0001
0010
0001
1000
0100
0010
0001
,
1000
0000
0001
0100
0010
0000
1000
0000
0010
0000
0100
0001
1000
0000
0100
0000
,
0010
0000
0001
0000
1000
0100
0000
0010
0001
1000
0000
0010
0100
0001
1000
0000
,
0001
0000
1000
0001
0100
0000
0010
0000
1000
0000
0001
0010
0100
0000
1000
0000
,
0001
0000
0010
0000
0100
0000
0010
0000
0001
1000
0100
0010
0001
0010
0100
1000
,
0001
0100
0010
1000
0010
0100
0001
1000
0200
0000
0300
0000
0010
0001
0010
0100
,
1000
0000
0001
0010
0001
0000
1000
0000
0000
0000
0001
0010
0001
0000
1000
0000
,
0001
0000
0100
0010
0100
0000
0001
0000
0000
0000
1000
0010
1000
0001
0000
0000
,
1000
0000
0100
0000
0010
0000
0001
1000
0001
0000
0010
0000
0100
0000
1000
0001
,
1000
0010
0100
0001
2000
0000
0000
0000
,
3001
0000
0010
0100
0010
0000
0001
0000
0000
0000
1000
0100
1000
0000
0001
0000
,
0100
0000
0010
1000
0010
0000
0100
0000
0000
0000
0001
1000
0001
0100
0000
0000
,
0001
1000
0100
0010
0001
0010
0100
1000
,
0001
0100
0010
1000
0001
0001
1000
1000
,
0001
1000
0010
0100
0001
1000
0010
0100
0001
1000
0001
0100
0010
1000
0001
0100
,
0001
1000
0100
0010
0001
1000
0100
0010
0001
0010
0100
1000
0001
0010
0100
1000
,
0001
0100
0010
1000
0001
0100
0001
1000
0010
0100
0001
1000
0010
1000
0001
0010
,
0100
1000
0001
0010
0100
1000
0100
0010
0001
1000
0100
0010
0001
0010
0100
1000
,
0001
1000
0010
0100
0001
1000
0010
0100
0001
1000
0001
0100
0010
1000
0001
0100
,
0001
1000
0100
0010
0001
1000
0100
0010
0001
0010
0100
1000
0001
0010
0100
1000
,
0002
0000
0000
0000
0000
0000
1003
0100
,
1000
0001
0010
0001
1000
0010
0100
0001
,
1000
0010
0100
0001
0100
0010
1000
0010
0100
0001
1000
0100
1000
0001
0010
0001
,
1000
0100
0010
0001
1000
0100
0010
0001
1000
0010
0100
0001
1000
0010
0100
0001
,
1000
0100
0010
0001
0010
0100
1000
0100
0010
0001
1000
0010
1000
0001
0100
0001
,
1000
0010
0100
0001
1000
0010
0100
0001
1000
0100
0010
0001
1000
0100
0010
0001
,
1000
0010
0100
0001
0100
0010
1000
0010
0100
0001
1000
0100
1000
0001
0010
0001
,
1000
0100
0010
0001
1000
0100
0010
0001
1000
0000
0000
0000
1001
0000
0000
0000
,
0101
0000
0000
0000
0000
0000
0001
0000
1000
0000
0001
0000
0100
0000
0000
0000
0000
0000
0010
0000
0000
0000
0000
0000
1000
0000
0000
0000
0000
0000
0001
0000
0010
0000
0001
0000
1000
0000
0000
0000
0000
0100
0000
0000
0000
0000
0000
0000
,
2002
0000
3003
0000
1000
0000
0010
0000
0100
0000
0001
0000
1000
0010
0100
0001
,
1000
0010
1000
0001
0100
0010
1000
0001
0100
0001
1000
0100
0010
0000
0000
0000
;

//---------------dance-single - ----------------
#NOTES:
     dance-single:
     Dossar:
     Medium:
     10:
     0.809,0.914,0.039,0.342,0.927:
0000
0000
0000
0000
,
0000
0000
0000
0000
,
0000
0000
0000
0000
,
1000
0002
1003
0010
0100
0002
1003
0100
,
0010
0000
0001
0000
0010
0000
0100
1000
0000
1000
0100
0000
1000
0000
0001
1000
,
0010
0200
0310
1000
0001
0200
0310
1000
,
0001
0000
1000
0000
0100
0000
0010
0001
0000
0001
0010
0000
0100
0000
1000
0001
,
0020
0030
0000
0001
1000
0001
0100
0010
,
1000
0000
0000
0001
0000
0000
0010
0000
0100
0000
1000
0000
0100
0000
0010
0000
,
0001
1000
0010
0100
0001
1000
0010
0100
0001
0000
1000
0001
0000
0020
0000
0000
,
0031
1000
0010
0100
0001
1000
0010
0100
0001
1000
0001
0100
0010
1000
0001
0100
,
0001
1000
0100
0010
0001
1000
0100
0010
0001
0010
0100
1000
0001
0010
0100
1000
,
0001
0100
0010
1000
0001
0100
0001
1000
0010
0100
0001
1000
0010
1000
0001
0010
,
0100
1000
0001
0010
0100
1000
0100
0010
0001
1000
0100
0010
0001
0010
0100
1000
,
0001
0100
0010
1000
0001
1000
0010
0100
0001
1000
0010
0100
0010
1000
0001
1000
,
0100
0010
0001
1000
0100
0010
0001
1000
0100
1000
0001
0010
0100
1000
0001
0010
,
0001
1000
0010
0100
0001
0100
0010
1000
0001
0100
0010
1000
0010
0100
0001
1000
,
0100
0010
0001
1000
0100
0010
0001
0010
0100
1000
0001
0010
0001
1000
0100
0010
,
0001
0000
1000
0002
0000
0000
0103
0000
0010
0000
1000
0002
0000
0000
0013
0000
,
0100
0000
1000
0000
0100
0000
0010
0001
0000
0001
0010
0000
0100
0000
1000
0001
,
0100
0000
0010
2000
0000
0000
3001
0000
0100
0000
0010
2000
0000
0000
3001
0000
,
0010
0000
0100
0000
1000
0000
0001
0010
0000
0010
0001
0000
1000
0000
0100
0010
,
0002
0000
0003
1000
0010
0100
0010
0000
1000
0001
1000
0000
0010
0100
0010
0000
,
1000
0000
0001
0020
0000
0000
0130
0000
0010
0000
0001
2000
0000
0000
3010
0000
,
0100
0001
0100
0000
0010
1000
0010
0100
0000
0001
1000
0001
0100
0010
1000
0001
,
0010
0000
0100
2000
0000
0000
3100
0000
0010
0000
0001
2000
0000
0000
3010
0000
,
0100
0000
0001
0000
0100
0000
0010
1000
0000
0001
0010
0001
1000
0100
0010
0001
,
1000
0000
0001
0100
0010
0000
1000
0000
0010
0000
0100
0001
1000
0000
0100
0000
,
0010
0000
0001
0000
1000
0100
0000
0010
0001
1000
0000
0010
0100
0001
1000
0000
,
0001
0000
1000
0001
0100
0000
0010
0000
1000
0000
0001
0010
0100
0000
1000
0000
,
0001
0000
0010
0000
0100
0000
0010
0000
0001
1000
0100
0010
0001
0010
0100
1000
,
0001
0100
0010
1000
0010
0100
0001
1000
0200
0000
0300
0000
0010
0001
0010
0100
,
1000
0000
0001
0010
0001
0000
1000
0000
0000
0000
0001
0010
0001
0000
1000
0000
,
0001
0000
0100
0010
0100
0000
0001
0000
0000
0000
1000
0010
1000
0001
0000
0000
,
1000
0000
0100
0000
0010
0000
0001
1000
0001
0000
0010
0000
0100
0000
1000
0001
,
1000
0010
0100
0001
2000
0000
0000
0000
,
3001
0000
0010
0100
0010
0000
0001
0000
0000
0000
1000
0100
1000
0000
0001
0000
,
0100
0000
0010
1000
0010
0000
0100
0000
0000
0000
0001
1000
0001
0100
0000
0000
,
0001
1000
0100
0010
0001
0010
0100
1000
,
0001
0100
0010
1000
0001
0001
1000
1000
,
0002
0000
0000
0203
,
0320
2030
3200
0320
,
0032
0000
0000
0023
,
0000
0230
2300
3002
,
0203
0000
0000
0300
,
0000
0002
0023
0230
,
2300
0000
0000
0000
0000
0000
3001
0010
,
0001
1000
0100
1000
0001
0100
0010
1000
,
0001
0100
0010
1000
0010
0100
0001
0100
0010
1000
0001
0010
0001
1000
0100
1000
,
0001
0010
0100
1000
0001
0010
0100
1000
0001
0100
0010
1000
0001
0100
0010
1000
,
0001
0010
0100
1000
0100
0010
0001
0010
0100
1000
0001
0100
0001
1000
0010
1000
,
0001
0100
0010
1000
0001
0100
0010
1000
0001
0010
0100
1000
0001
0010
0100
1000
,
0001
0100
0010
1000
0010
0100
0001
0100
0010
1000
0001
0010
0001
1000
0100
1000
,
0001
0010
0100
1000
0001
0010
0100
1000
0001
0000
0000
0000
1001
0000
0000
0000
,
1010
0000
0101
0000
,
2002
0000
3003
0000
0001
0000
0100
0000
0010
0000
1000
0000
0001
0100
0010
1000
,
0001
0100
0001
1000
0010
0100
0001
1000
0010
1000
0001
0010
0100
0000
0000
0000
;

//---------------dance-double - ----------------
#NOTES:
     dance-double:
     Dossar:
     Challenge:
     10:
     0.824,0.888,0.049,0.546,0.732: // measure 1
00000000
00000000
00000000
00000000
,  // measure 2
00000000
00000000
00000000
00000000
,  // measure 3
00000000
00000000
00000000
00000000
,  // measure 4
10000000
02000000
03100000
00010000
01000000
00002000
00103000
00001000
,  // measure 5
00010000
00000000
00000100
00000000
00001000
00000000
00000001
00000100
00000000
00000010
00001000
00000000
00000100
00000000
00010000
00000000
,  // measure 6
00001000
00200000
00310000
10000000
00100000
02000000
03010000
00100000
,  // measure 7
00001000
00000000
00010000
00000000
00000010
00000000
00001000
00000100
00000000
00000010
00000001
00000000
00001000
00000000
00000100
00010000
,  // measure 8
00002000
00003000
00000000
00100000
00010000
10000000
01000000
00100000
,  // measure 9
00010000
00000000
00000000
10000000
00000000
00000000
00010000
00000000
10000000
00000000
01000000
00000000
00100000
00000000
00010000
00000000
,  // measure 10
10000000
01000000
00100000
00010000
00100000
00001000
00010000
00000100
00010000
00000000
00000100
00000010
00000000
00000002
00000000
00000000
,  // measure 11
00001003
00000200
00010300
00001000
00100000
00020000
10030000
01000000
,  // measure 12
10000000
01000000
00100000
00000000
01000000
00100000
00010000
00000000
00100000
00001000
00010000
00000000
00001000
00010000
00000100
00010000
,  // measure 13
00001000
00020000
00030100
00001000
00000001
00000200
00000310
00001000
,  // measure 14
00000001
00000010
00000100
00000000
00000010
00000100
00001000
00000000
00000100
00010000
00001000
00000000
00010000
00001000
00100000
00001000
,  // measure 15
00010000
00002000
00103000
00010000
10000000
00200000
01300000
00010000
,  // measure 16
10000000
00100000
01000000
00000000
00100000
01000000
00010000
00000000
00100000
00001000
00010000
00000000
00001000
00010000
00000010
00010000
,  // measure 17
00001000
00200000
01300000
10000000
00010000
00200000
00301000
00010000
,  // measure 18
00000010
00010000
00001000
00000000
00010000
00001000
00100000
00000000
00001000
00010000
00000100
00000000
00010000
00001000
01000000
00001000
,  // measure 19
00010000
00002000
00103000
01000000
10000000
00020000
01030000
00100000
,  // measure 20
01000000
00001000
00000000
00000000
00010000
00001000
00000000
00000000
00010000
00000100
00000010
00000100
00000000
00001000
00000001
00000000
,  // measure 21
00001000
00000200
00010300
00001000
01000000
00020000
10030000
01000000
,  // measure 22
00100000
00001000
00010000
00000010
00001000
00000000
00000001
00000100
00000010
00000100
00000001
00000000
00001000
00000000
00000100
00010000
,  // measure 23
00002000
00000000
00003000
01000000
00100000
10000000
00010000
00000000
10000000
01000000
10000000
00000000
00010000
01000000
00010000
00000000
,  // measure 24
01000000
00000000
00001000
00020000
00000000
00000000
00030100
00000000
00010000
00000000
00001000
00200000
00000000
00000000
00320000
00000000
,  // measure 25
01030000
00100000
01000000
00000000
00010000
10000000
00010000
00100000
00000000
00001000
00010000
00000100
00010000
00000100
00001000
00000001
,  // measure 26
00000100
00000000
00000010
00020000
00000000
00000000
00031000
00000000
00100000
00000000
00001000
00020000
00000000
00000000
00030100
00000000
,  // measure 27
00000010
00000000
00000001
00000000
00000010
00000000
00000100
00001000
00000000
00000100
00010000
00001000
00010000
00001000
01000000
00010000
,  // measure 28
10000000
00000000
00010000
00100000
00001000
00000000
00010000
00000000
00000100
00000000
00001000
00000001
00000100
00000000
00000010
00000000
,  // measure 29
00001000
00000000
00000100
00000000
00010000
00000000
00001000
00000000
01000000
00000000
00100000
00000000
10000000
00000000
00010000
00100000
,  // measure 30
00010000
00000000
00100000
00001000
00010000
00000000
00000100
00000000
00000010
00000000
00000100
00010000
00001000
00000000
01000000
00000000
,  // measure 31
00100000
00000000
10000000
00000000
00010000
00000000
00100000
00001000
00010000
00000010
00010000
00000010
00001000
00000001
00001000
00000001
,  // measure 32
00001000
00000010
00000100
00000001
00001000
00000010
00000100
00000001
00002000
00000000
00003000
00000000
00000100
00010000
00001000
00100000
,  // measure 33
00010000
00000000
00100000
00001000
00100000
00000000
00001000
00000000
00000000
00000000
00010000
00000100
00010000
00000000
00000010
00000000
,  // measure 34
00001000
00000000
00000001
00000010
00000001
00000000
00001000
00000000
00000000
00000000
00000001
00000100
00000001
00000010
00000000
00000000
,  // measure 35
00000002
00002003
00003200
00020300
00032000
02003000
03020000
20030000
,  // measure 36
30020000
02030000
03002000
00023000
00030200
00000000
00000300
00000000
,  // measure 37
00001000
00000000
00000100
00010000
00000100
00000000
00000010
00000000
00000000
00000000
00000100
00001000
00000100
00000000
00010000
00000000
,  // measure 38
00001000
00000000
00100000
00010000
00100000
00000000
01000000
00000000
00000000
00000000
10000000
00010000
10000000
00100000
00000000
00000000
,  // measure 39
20000000
30020000
02030000
03002000
00023000
00030200
00002300
00003002
,  // measure 40
00002003
00003200
00020300
00032000
02003000
00010000
00010000
03010000
,  // measure 41
10000000
00000000
00010000
01000000
00010000
00000000
00100000
00000000
00000000
00000000
00001000
00010000
00001000
00000000
00010000
00000000
,  // measure 42
00000010
00000000
00001000
00000001
00001000
00000000
00000100
00000000
00000000
00000000
00010000
00001000
00010000
00000100
00000000
00000000
,  // measure 43
00001000
00000000
00000100
00010000
00000100
00000000
00010000
00000000
00000000
00000000
00001000
01000000
00001000
00000000
00010000
00000000
,  // measure 44
00000100
00000000
00001000
00000100
00001000
00000000
00000100
00000000
00000000
00000000
00010000
00001000
00010000
00000100
00000000
00000000
,  // measure 45
00010000
00000000
00001000
00100000
00001000
00000000
00010000
00000000
00000000
00000000
00001000
00010000
00001000
00000000
00100000
00000000
,  // measure 46
00001000
00000000
00010000
00000010
00010000
00000000
00000100
00000000
00000000
00000000
00001000
00000100
00001000
00000010
00000000
00000000
,  // measure 47
00002002
00000000
00000000
00000000
00000000
00003003
00000001
00001000
,  // measure 48
00000100
00010000
00001000
10000000
00010000
01000000
00001000
00010000
,  // measure 49
00000010
00000000
00001000
00000100
00010000
00001000
00100000
00010000
00100000
00000000
01000000
10000000
01000000
00100000
00010000
00100000
,  // measure 50
00001000
00010000
00001000
00100000
00010000
10000000
00010000
00100000
00001000
00010000
00001000
00100000
00010000
10000000
00010000
00100000
,  // measure 51
00010000
00000000
10000000
01000000
10000000
00010000
00100000
00010000
10000000
01000000
00100000
00010000
00100000
00001000
00010000
00000010
,  // measure 52
00001000
00000001
00001000
00000010
00010000
00001000
00010000
00000010
00001000
00000001
00001000
00000010
00010000
00001000
00010000
00000010
,  // measure 53
00001000
00000000
00000001
00000010
00000001
00001000
00000100
00001000
00000001
00000000
00001000
00000100
00010000
00001000
01000000
00010000
,  // measure 54
10000000
00100000
01000000
00010000
00100000
00001000
00010000
00000100
00001000
00000000
00000000
00000000
00001001
00000000
00000000
00000000
,  // measure 55
00000110
00000000
00011000
00000000
,  // measure 56
20020000
00000000
00000000
30030000
10000000
00000000
01000000
00000000
00100000
00000000
00010000
00000000
10000000
01000000
00100000
00010000
,  // measure 57
10000000
01000000
00100000
00010000
10000000
01000000
00100000
00010000
10000000
01000000
00100000
00001000
00020000
00000000
00030000
00000000
;
