#TITLE:Trip Machine ~Next Generation~;
#SUBTITLE:;
#ARTIST:Liam Carver;
#TITLETRANSLIT:;
#SUBTITLETRANSLIT:;
#ARTISTTRANSLIT:;
#GENRE:;
#CREDIT:;
#BANNER:Trip Machine ~Next Generation~.png;
#BACKGROUND:Trip Machine ~Next Generation~-bg.png;
#LYRICSPATH:;
#CDTITLE:;
#MUSIC:Trip Machine ~Next Generation~.ogg;
#OFFSET:0.000000;
#SAMPLESTART:45.499912;
#SAMPLELENGTH:15.000009;
#SELECTABLE:YES;
#DISPLAYBPM:170.000000;
#BPMS:0.000000=170.000000
,225.000000=85.000000
,226.000000=170.000000
,254.500000=80.000000
,255.166672=240.000000
,256.000000=170.000000
;
#STOPS:33.000000=0.360000,
36.000000=0.700000,
37.000000=0.880000,
45.500000=0.360000,
57.500000=0.530000,
62.500000=0.350000,
71.000000=0.350000,
73.000000=0.340000,
74.000000=0.210000,
74.500000=0.500000,
85.000000=0.360000,
98.500000=0.350000,
102.000000=0.350000,
106.000000=0.360000,
106.500000=0.350000,
107.000000=0.340000,
107.500000=1.250000,
121.500000=0.530000,
123.000000=0.340000,
124.000000=0.890000,
148.500000=0.530000,
152.000000=0.200000,
160.500000=0.260000,
160.750000=0.260000,
226.000000=0.520000,
256.000000=0.350000,
259.500000=0.350000,
268.000000=0.350000,
270.000000=0.340000,
271.000000=0.210000,
271.500000=0.500000,
282.000000=0.360000,
295.500000=0.350000,
310.250000=0.190000
;
#BGCHANGES:;
#KEYSOUNDS:;
#ATTACKS:;

//---------------dance-single - ----------------
#NOTES:
     dance-single:
     :
     Challenge:
     18:
     0.747991,0.929638,0.635742,0.235724,0.589311,733.000000,644.000000,89.000000,33.000000,0.000000,0.000000,0.747991,0.929638,0.635742,0.235724,0.589311,733.000000,644.000000,89.000000,33.000000,0.000000,0.000000:
// measure 0
0000
0000
0000
0000
,  // measure 1
0000
0000
0000
0000
,  // measure 2
0000
0000
0000
0000
,  // measure 3
0000
0000
0000
0000
,  // measure 4
0000
0000
0000
0000
,  // measure 5
0000
0000
0000
0000
,  // measure 6
0000
0000
0000
0000
,  // measure 7
0000
0000
0000
0000
,  // measure 8
1002
0000
0000
0000
0000
0000
0000
0000
0000
0000
0000
0000
0100
0000
0003
0000
0000
0000
0010
0000
0000
0100
0000
0000
1000
0000
0000
0000
0000
0000
0000
0000
0000
0000
0000
0000
0000
0000
0000
0000
0000
0000
0100
0000
0000
0100
0000
0000
,  // measure 9
2002
0000
3003
0000
0010
1000
0100
0000
0110
0000
0000
0000
1000
0100
0000
0000
,  // measure 10
0001
0100
0000
0000
0100
0010
0000
0000
0010
0100
0020
0000
0000
0000
2030
0000
,  // measure 11
0000
0000
0000
0000
0100
0000
3100
0000
0010
0000
0100
0000
0001
1000
0000
0000
,  // measure 12
0001
0100
0000
0000
0001
0010
0000
0000
0001
1000
0001
0000
0200
0000
0000
0000
,  // measure 13
0310
0001
0000
0000
0100
1000
0000
0000
0010
0001
0000
0000
0100
0010
1000
0000
,  // measure 14
0100
0010
0001
0000
1000
0010
0200
0000
0000
0000
0010
0000
0301
1000
0001
0000
,  // measure 15
0000
0000
1000
0000
0100
0000
0101
0000
0001
1000
0001
0000
0210
0000
0020
0000
,  // measure 16
0000
0000
0000
0000
0030
0000
0010
0000
0310
0000
1000
0100
0010
0000
0001
0100
,  // measure 17
0010
0000
0010
0100
1000
0000
0100
0000
1001
0000
0100
0010
1001
0000
0001
0000
,  // measure 18
0100
1000
0100
0000
0001
0000
1100
0000
0101
0000
0110
0000
1000
0000
0001
0100
,  // measure 19
1000
0000
1001
0000
0220
0000
0030
0000
0310
0000
1000
0001
1000
0000
0100
1000
,  // measure 20
0100
0000
0001
0010
0100
0000
0001
1000
0200
0000
0010
0000
0310
0000
0001
0000
,  // measure 21
1100
0000
0010
0001
0110
0000
0100
0000
1000
0000
0100
0000
0010
0000
1000
0100
,  // measure 22
0001
0000
1001
0000
0000
0000
0001
0100
1000
0000
0010
0000
0100
0000
0010
1000
,  // measure 23
0000
0000
0010
0001
0000
0000
0100
1000
0000
0000
0100
0000
1001
0000
0100
0000
,  // measure 24
0010
0000
0001
1000
0120
0000
0000
0000
0130
0000
1001
0000
0100
0000
0100
0000
,  // measure 25
0100
0000
1001
0000
0000
0000
0110
0000
0001
0000
0100
0000
0010
0000
1000
0001
,  // measure 26
1000
0000
0100
0000
0110
0000
0001
0000
2002
0003
0200
0300
0020
0030
0002
0003
,  // measure 27
0001
0000
3010
0001
0100
0000
0100
0000
0100
0010
0000
0000
1000
0010
0000
0000
,  // measure 28
0100
0001
0000
0000
0001
1000
0002
0000
0000
0000
0000
0000
0100
0000
0100
0000
,  // measure 29
0203
0000
1300
0100
0010
0001
1000
0100
,  // measure 30
0010
0000
0000
0000
0000
0000
0000
0000
0001
0000
0000
0000
0000
0000
0000
0000
1000
0000
0000
0000
0001
0000
0000
0000
1000
0010
0000
0000
0000
0000
0000
0000
0100
0000
0000
0000
0001
0000
0000
0000
0010
0000
0000
0000
0000
0000
0000
0000
0020
0000
0000
0000
0000
0000
0000
0000
1000
0000
0000
0000
0000
0000
0000
0000
,  // measure 31
0001
0000
0030
0000
0000
0000
0100
0000
0000
0000
0000
0000
1000
0000
0000
0000
0000
0000
0100
0000
0000
0000
0000
0000
1000
0000
0000
0000
0000
0000
0100
0000
0000
0000
0000
0000
1000
0000
0000
1100
0000
0000
0000
0000
0000
0000
0000
0000
,  // measure 32
0010
0110
0000
0000
1000
0000
0011
0000
0100
0000
0001
0000
0110
0000
1000
0100
,  // measure 33
0010
0000
1001
0000
0100
0000
0001
0000
1000
0001
1000
0000
0010
0100
0010
0000
,  // measure 34
0100
1000
0010
0100
0001
0010
0100
1000
,  // measure 35
0100
0001
0010
0000
1000
0000
0001
0000
0010
0001
1000
0000
0001
0100
0000
0000
,  // measure 36
0010
0100
0000
0000
0001
1000
0000
0000
1000
0010
0000
0000
0100
0010
0000
0000
,  // measure 37
0010
0000
0000
0010
0000
0000
2002
0000
3003
0000
0000
0000
0000
0000
0000
0000
0000
0000
1000
0000
0000
0000
0000
0000
0020
0000
0000
0000
0000
0000
0100
0000
0000
0000
0000
0000
1000
0000
0000
0000
0000
0000
0001
0000
0000
0100
0000
0000
,  // measure 38
1000
0030
0000
0000
0100
0000
0000
0000
1000
0000
0000
0000
0010
0000
0000
0000
0100
0000
0000
0000
0010
0000
0000
0000
0001
0000
0100
0000
0001
0000
0000
0000
,  // measure 39
0010
0001
0010
0000
0100
0010
0100
0000
0010
1000
0010
0000
0100
1000
0100
0000
,  // measure 40
0010
0100
1001
0110
1000
0000
0000
0010
0100
0000
0000
0100
0010
0000
0001
0010
,  // measure 41
0100
0000
1000
0100
0001
0000
0100
1000
0000
0000
0100
0001
0000
0000
0100
1000
,  // measure 42
0010
0000
0100
0001
0010
0000
0100
0000
1001
0000
0100
0000
0100
0000
0010
0001
,  // measure 43
0010
0000
0100
0010
1000
0000
0100
0001
0000
0000
0100
1000
0000
0000
0010
0001
,  // measure 44
0000
0000
0010
0100
0101
0000
0100
0000
1000
0000
0100
0000
0010
0000
1000
0000
,  // measure 45
0100
0001
0010
0100
0010
0001
0100
0010
,  // measure 46
0100
1000
0010
0100
0010
0001
0100
1000
,  // measure 47
0100
0010
0100
0001
0100
1000
0001
0010
,  // measure 48
0100
1000
0101
0100
1100
1000
1010
0010
,  // measure 49
0011
0001
1001
1000
1010
0010
0110
0100
,  // measure 50
1100
0100
0101
0001
0011
0010
0110
0010
,  // measure 51
1010
0000
1000
0000
1001
0000
0000
0100
0110
0000
0000
0001
1001
0000
0000
0010
,  // measure 52
0110
0000
0000
1000
1001
0000
1100
0000
1100
0000
0101
0000
0101
0000
0010
0001
,  // measure 53
0000
0001
0010
0000
1001
0000
1010
0000
1010
0000
0110
0000
0110
0000
1000
0100
,  // measure 54
0000
0001
0100
0000
1001
0000
0011
0000
0011
0000
1100
0000
1100
0000
0010
0100
,  // measure 55
0000
0001
1000
0000
1001
0000
1100
0000
0101
0000
0110
0000
1001
0000
1010
0000
,  // measure 56
0110
0000
0101
0000
1002
0000
0000
0000
0103
0000
0100
0000
0100
1000
0100
0000
,  // measure 57
0010
0100
0000
0100
0010
0001
0000
0010
0100
1000
0010
0000
0010
0001
0010
0000
,  // measure 58
0100
0010
0000
0010
0100
1000
0000
0100
0010
0001
1000
0000
1000
0010
1000
0000
,  // measure 59
0001
1000
0000
1000
0001
0100
0000
0001
1000
0010
0100
0000
0010
1000
0010
0000
,  // measure 60
1000
0100
0000
0100
0010
0001
0000
0010
0001
1000
0001
0000
0001
0100
0001
0000
,  // measure 61
1000
0001
0000
0001
1000
0010
0000
1000
0001
0100
0010
0100
1000
0100
0010
0100
,  // measure 62
1000
0100
0010
0001
0010
1000
0010
0001
0010
1000
0010
0001
0100
1000
0100
0001
,  // measure 63
0100
1000
0100
0001
0010
1000
0010
0001
0010
1000
0020
0000
0000
0000
0000
0000
,  // measure 64
0100
0000
1000
0000
0030
0000
0100
0000
1000
0000
0010
0000
0100
1000
0100
0000
,  // measure 65
1002
0000
0100
0000
0100
0000
0010
0000
0010
0000
1000
0000
1003
0000
0100
0001
,  // measure 66
1000
0000
0010
0001
1000
0000
1000
0001
0100
0000
0001
0000
0110
0000
0001
1000
,  // measure 67
0110
0000
0010
0000
0001
0100
0001
0000
0010
0000
0101
0000
0011
0000
1001
0000
,  // measure 68
1000
0100
0010
0001
1000
0100
0010
0001
2002
0000
3000
0000
1003
0000
0100
0010
,  // measure 69
0100
0000
0100
1000
0100
0000
0001
0010
0100
0000
0001
1000
0200
0000
0010
0000
,  // measure 70
0310
0000
0001
0000
1100
0000
0010
0001
0110
0000
0100
0000
1000
0000
0100
0000
,  // measure 71
0010
0000
1000
0100
0001
0000
1001
0000
0000
0000
0001
0100
1000
0000
1000
0000
,  // measure 72
0001
0000
1000
0100
0000
0000
1000
0010
0000
0000
0001
0100
0000
0000
0001
0000
,  // measure 73
0110
0000
0001
0000
1000
0000
0010
0100
2001
0000
0010
0000
3001
0000
0110
0000
,  // measure 74
0001
0000
0001
1000
0001
0000
0110
0000
0000
0000
1001
0000
0010
0000
0001
0100
,  // measure 75
1000
0000
0100
0000
0000
0000
0001
0100
1010
0000
0010
0000
1000
0000
1000
0000
,  // measure 76
0100
0010
0100
0000
0001
0000
0001
0010
0100
0000
0100
0000
0001
1000
0001
0000
,  // measure 77
1000
0000
0010
0100
0001
0000
1000
0001
0100
0000
0000
0000
0220
0000
0000
0000
,  // measure 78
0000
0000
0000
0000
0000
0000
0000
0330
;

//---------------dance-single - ----------------
#NOTES:
     dance-single:
     :
     Hard:
     16:
     0.591862,0.646903,0.592883,0.278583,0.196437,580.000000,497.000000,83.000000,39.000000,0.000000,0.000000,0.591862,0.646903,0.592883,0.278583,0.196437,580.000000,497.000000,83.000000,39.000000,0.000000,0.000000:
0000
0000
0000
0000
,
0000
0000
0000
0000
,
0000
0000
0000
0000
,
0000
0000
0000
0000
,
0000
0000
0000
0000
,
0000
0000
0000
0000
,
0000
0000
0000
0000
,
0000
0000
0000
0000
,
0120
0000
0130
0010
1000
0000
0000
0100
,
1001
0000
1000
0010
0001
0000
1100
0000
,
0101
0000
0011
0000
1010
0002
0000
0023
,
0000
0000
0130
0001
0010
0100
1001
0000
,
1100
0000
0101
0000
0011
0001
0010
1000
,
0011
1100
0011
1100
,
0101
0000
0100
0000
1001
0000
0020
0030
0000
0000
0010
0000
0001
0000
0011
0000
,
0000
1000
0100
1100
0000
1001
0100
2000
,
0000
0000
0000
3001
0110
1000
0110
0010
,
1001
0010
1001
0100
1001
0100
1001
0001
,
0010
0000
0100
0000
0100
0000
1000
0000
0001
0000
0110
0000
1000
0100
0001
0000
,
1000
0100
0001
0000
2000
0000
0000
0000
3020
0000
0100
0000
0130
0000
2000
0000
,
0100
3200
0001
0301
2000
0010
3020
0100
,
0130
0000
0010
0001
1000
0000
0110
0000
0000
0000
0101
0000
0000
0000
1100
0000
,
0000
1001
0000
0001
0010
1000
1000
0010
,
0100
0100
0001
0010
0010
0100
1000
1000
,
0010
0000
0001
1000
0100
0000
0000
0000
1100
0000
1001
0000
0001
0000
0100
0010
,
0100
0000
1000
0000
0000
0000
1010
0000
0001
0000
0001
0100
0001
0000
1000
0000
,
1000
0000
1000
0000
0010
0000
0010
0000
0220
0330
2200
3300
0202
0303
0220
0330
,
0001
1000
0001
0000
0100
0100
1010
0000
,
0110
0000
0000
0000
0000
0000
0100
0000
0001
1000
0001
0000
1000
0000
0100
0000
,
0000
0010
0010
0100
1000
0001
0010
1000
,
0010
0000
0100
0000
1000
0000
0001
0000
0010
1000
0010
0000
0100
0000
0011
0000
,
0110
2200
0000
0000
3000
1300
0001
0100
,
0010
0100
1000
0011
0100
0001
0110
0001
,
1000
0000
0010
0010
0100
1001
0000
0100
,
1000
0100
0110
1000
0101
0000
0110
0000
,
1010
0010
0001
0010
0110
0000
1000
0100
,
0010
0100
1000
0100
0002
0000
2003
0000
,
3010
0110
1000
0100
0200
0000
0000
0010
,
0310
0000
0010
1002
0100
0103
2000
0100
,
3100
0002
0100
0103
2000
0010
3010
0002
,
0010
0000
0013
0100
1100
0000
0100
0000
0001
0000
0000
0000
0001
0000
0010
0000
,
0100
1001
0000
0100
0001
0100
1000
0100
,
0001
0100
0010
0100
1001
0000
0110
0001
,
1000
0100
0000
0010
0000
0010
0000
0100
,
0000
0100
1001
0010
0100
0000
0100
1000
,
0100
0000
0100
0010
0001
0010
0001
0100
,
0001
0000
0100
1000
0100
0000
0001
1000
,
0100
0000
0001
0001
0100
0100
1000
1000
,
0010
0000
0010
0000
0100
0000
1000
0000
0100
0000
0010
0000
1000
0000
0000
0010
,
0000
0000
1000
0000
0100
0000
0001
0000
0010
0000
0100
0000
1000
0000
0000
0001
,
0000
0000
0100
0000
1000
0000
0001
0000
0100
0000
0001
0000
0010
0000
0000
1000
,
0000
0010
0100
0010
0100
0001
1000
0001
,
1000
0000
0100
0000
0001
0000
0010
0000
1100
0000
0000
0000
1001
0000
0000
0110
,
0000
0000
1010
0000
0001
0000
0100
0000
0001
0000
0100
0000
0011
0000
0000
1100
,
0000
0000
0011
0000
0100
0000
1000
0000
0010
0000
0100
0000
1100
0000
0000
1001
,
0000
0110
0100
1000
0010
1000
0010
0100
,
0001
0000
0100
0000
0020
0000
0000
0000
0031
0000
0001
0000
0100
1000
0000
0000
,
1000
0100
0000
0000
0100
0010
0000
0000
0010
0100
0000
0000
0001
0010
0000
0000
,
0010
0001
0000
0000
0001
1000
0000
0000
1000
0001
0000
0000
0001
0010
0000
0000
,
0010
0100
0000
0000
0100
1000
0000
0000
0100
0010
0000
0000
0010
0001
0000
0000
,
0001
0010
0000
0000
1000
0100
0000
0010
0100
1000
0000
0000
0100
0001
0000
0000
,
0001
0100
0000
0000
0010
0100
0000
1000
0100
0010
0000
0000
0010
1000
0000
0000
,
1000
0010
0000
0000
0010
0001
0000
0000
0001
0010
0000
0000
0010
0100
0000
0000
,
0010
1000
0000
0000
0100
1000
0000
0000
1000
0001
2000
0000
0000
0000
0000
0000
,
3100
0011
0000
1010
0010
0011
0000
0110
,
0001
0200
0000
0000
0000
0301
0010
0100
,
1000
0001
0010
0100
1000
0001
0100
1000
,
0110
0001
1000
0001
1000
0010
0100
0011
,
1000
0100
0010
0001
0010
0100
1000
0100
0010
0000
0000
0000
0002
0000
1000
0000
,
1003
0020
0100
0230
0010
0310
2000
0010
,
3020
0000
0001
0000
0031
0000
0010
0100
0010
0000
1100
0000
0000
0000
0110
0000
,
0000
0011
0000
1001
0000
0100
0100
1000
,
0100
0010
0001
0010
0100
0010
0100
1000
,
0100
0000
0010
0000
0001
0000
0100
1000
0100
0000
0010
0000
0001
0000
1100
0000
,
0001
0000
0100
0010
0001
0000
0100
0000
0000
0000
1000
0000
0010
0000
0100
0010
,
0001
0000
0100
0000
0000
0000
1000
0100
0010
0000
0001
0000
0100
0000
0001
0000
,
0110
0100
0001
1010
0100
0001
1001
0010
,
0100
0000
1010
0000
0100
0000
0001
1000
0001
0000
0000
0000
2002
0000
0000
0000
,
0000
0000
0000
3003
;

//---------------dance-single - ----------------
#NOTES:
     dance-single:
     :
     Medium:
     13:
     0.362260,0.448591,0.128577,0.128577,0.003572,355.000000,337.000000,18.000000,18.000000,0.000000,0.000000,0.362260,0.448591,0.128577,0.128577,0.003572,355.000000,337.000000,18.000000,18.000000,0.000000,0.000000:
0000
0000
0000
0000
,
0000
0000
0000
0000
,
0000
0000
0000
0000
,
0000
0000
0000
0000
,
0000
0000
0000
0000
,
0000
0000
0000
0000
,
0000
0000
0000
0000
,
0000
0000
0000
0000
,
1000
0000
0100
0000
0001
0000
0000
0100
,
0010
1000
0001
0110
,
1000
0000
0110
0000
0000
0001
0000
0110
,
0000
0000
0100
0010
1000
0001
0000
0000
,
1000
0000
0100
0000
0001
0010
0001
0000
,
0110
1000
0110
0001
,
0110
0000
1001
0000
0000
0000
0100
0002
,
0000
0003
0100
2000
0000
3010
0000
0000
,
0000
0000
0000
0001
0000
1000
0000
0001
,
0100
0010
0000
1000
0000
0001
0100
0000
,
0000
0100
0010
0001
1000
0000
0001
1000
,
0001
1000
0001
0000
0010
1000
0000
0100
,
0001
0100
0000
0010
0100
1000
0000
1000
,
0100
0010
0000
0000
0110
0000
0100
0000
,
0110
0000
0010
0000
0100
1000
0100
1000
,
0100
0000
0100
0001
0100
0000
0100
1000
,
0100
0000
0001
1000
0001
0000
0000
1000
,
0001
0000
0000
0001
1000
0000
0000
0001
,
0100
1000
0000
0100
1000
0001
1000
0001
,
0000
1000
0100
0000
0000
0100
0001
0000
,
1000
0000
0000
0010
0000
0100
0000
0010
,
0000
1000
0100
1000
0000
0001
0010
0001
,
0000
0010
0100
0010
1000
0000
0100
0000
,
0010
0000
0000
0000
0000
0001
1000
0000
,
1000
0100
0000
0100
1000
0000
1000
0010
,
1000
0000
0000
1000
0000
1000
0000
0001
,
0000
1000
0000
0001
0000
0001
0000
1000
,
0000
0001
1000
0001
1000
0001
0000
1000
,
0000
0100
0000
0010
0000
0001
0000
0001
,
0000
0100
0000
0000
0100
0000
0010
0000
,
0001
0000
0000
1000
0000
0100
0000
1000
,
0000
0200
0000
0310
0000
0200
0000
1300
,
0000
0000
1001
1001
0000
0000
0000
0000
0200
0000
0000
0000
0000
0000
1300
0000
,
0000
0001
0000
0010
0000
0100
0000
0110
,
0000
1001
0000
0010
0010
0000
0000
0001
,
0000
1000
0000
0100
0000
0100
0000
0100
,
0000
0100
0010
0000
0001
0000
0010
0000
,
0001
0020
0230
2300
,
3200
0320
0032
0023
,
0230
1300
0100
0010
,
0001
0000
0100
1000
0100
0000
0001
0000
,
1000
0000
0010
0001
0010
0000
0001
0000
,
1000
0000
0100
0001
0100
0000
0100
1000
,
0100
0000
0001
0100
0001
0000
1000
0000
,
0100
0000
0010
0100
0010
0000
0001
0000
,
0100
0000
1000
0010
1000
0000
0010
0000
,
0100
0000
1000
0010
1000
0000
0100
1000
,
0100
0000
0010
0001
0010
0000
1000
0000
,
0001
0000
0200
0000
0300
0010
0100
1000
,
0000
0010
0000
0100
0000
0010
0100
0001
,
0000
0001
0000
0100
0000
0100
1000
0001
,
0000
0100
0000
0010
0000
0100
0010
0001
,
0000
1000
0000
0001
0000
0100
1000
0010
,
0000
0010
0100
1000
0000
0100
0010
0001
,
0000
0001
0100
1000
0000
0010
0100
1000
,
0000
0110
0000
1001
0000
0110
0000
0000
,
0000
2000
0000
3000
0100
0020
0000
0230
,
0000
0300
0000
0000
0000
0010
0000
1000
,
0000
0100
0001
0100
0000
0010
0000
1000
,
0100
0000
0000
0001
1000
0100
0010
0000
,
0010
1000
0010
1000
0010
0000
0100
0001
,
0000
0100
0010
0100
0000
1000
0100
0001
,
0000
0001
0010
0100
0000
0000
1100
0000
,
1000
0000
0101
0000
0001
0000
0010
0100
,
1000
0100
0010
0000
0001
1000
0001
0000
,
0100
0010
0100
0000
0001
1000
0001
0000
,
0010
0100
0010
0100
0000
0001
1000
0000
,
0001
0100
0001
0000
0010
1000
0010
0000
,
1000
0001
1000
0001
1000
0100
1000
0100
,
0010
0001
1000
0001
1000
0000
0200
0000
,
0000
0000
0300
0000
;

//---------------dance-single - ----------------
#NOTES:
     dance-single:
     :
     Easy:
     6:
     0.229602,0.277690,0.050002,0.114291,0.000000,225.000000,218.000000,7.000000,16.000000,0.000000,0.000000,0.229602,0.277690,0.050002,0.114291,0.000000,225.000000,218.000000,7.000000,16.000000,0.000000,0.000000:
0000
0000
0000
0000
,
0000
0000
0000
0000
,
0000
0000
0000
0000
,
0000
0000
0000
0000
,
0000
0000
0000
0000
,
0000
0000
0000
0000
,
0000
0000
0000
0000
,
0000
0000
0000
0000
,
0100
0000
0000
0010
0000
0001
0000
1000
,
0000
0100
0001
1000
,
0001
0000
0000
0000
0000
0001
0000
1000
,
0000
0010
0000
0010
,
1000
0000
0010
0000
0000
0010
0000
0000
,
1000
0010
0100
0010
,
0100
0000
0001
0000
0000
0000
0000
0100
,
0000
0000
0000
0001
0000
1000
0000
0000
,
0000
0000
0000
0100
0000
1000
0000
0000
,
0010
0000
0000
0100
0000
0000
0010
0000
,
0100
0000
1000
0000
0100
0000
0010
0100
,
0010
1000
0000
0100
,
0001
0100
0100
0001
,
0010
1000
0011
0000
,
1100
0000
0100
0100
,
0100
0000
0000
0000
0010
0100
0010
0000
,
1000
0000
0001
0100
,
0010
0000
0100
0000
,
0001
0001
0010
0100
,
0000
0000
0010
0000
0000
0010
1000
0000
,
0100
0000
0000
0010
0100
0010
0000
1000
,
0000
0000
0000
1000
0000
0001
0000
0001
,
0000
1000
0000
0010
0000
0000
0100
0000
,
0000
0001
0000
0000
0000
0200
0000
0310
,
0000
0200
0000
0301
0000
0020
0000
0130
,
0000
0000
0000
0100
0000
0000
0000
0010
,
0000
0000
0000
0001
0000
0000
0000
0100
,
0000
0010
0000
0100
0000
0010
0000
0000
,
0000
1000
0000
0000
0000
0100
0000
0000
,
0000
0001
0000
0000
0100
0000
0100
0000
,
0100
0000
0000
0000
0000
0020
0000
1030
,
0000
0020
0000
0130
0000
0020
0000
0031
,
0000
0001
0000
0000
0020
0000
0000
0130
,
0000
0020
0000
1000
0030
1000
0000
0001
,
0000
0001
0000
0000
0200
0000
0000
0310
,
0000
0200
0000
0010
0000
0010
0000
0010
,
0000
0310
0000
1000
,
0000
0010
0000
0001
,
0000
0010
0000
1000
,
0000
0100
0100
0100
,
0100
0000
0002
0000
0000
0000
0010
0010
,
0013
0000
2000
0000
0000
0000
0010
0010
,
3010
0000
0020
0000
0000
0000
1000
1000
,
1030
0010
0100
0010
,
0100
0000
0020
0000
0000
0000
0100
0100
,
0130
0000
0200
0000
0000
0000
0001
0001
,
0301
0000
0200
0000
0000
0000
0010
0010
,
0310
0001
0010
0100
,
1000
0000
0000
0000
0000
1000
0000
0000
,
0000
0100
0000
0000
0000
0010
0000
0000
,
0000
0001
0000
0000
0000
1000
0000
0000
,
0000
0010
0000
0000
0000
0100
0000
0000
,
0000
1000
0000
0000
0000
0100
0000
0000
,
0000
0010
0000
0000
0000
0001
0000
0000
,
0000
1000
0000
0000
0000
0100
0000
0000
,
0000
0001
0000
0001
0000
1001
0000
0000
,
0000
0110
0000
0000
0000
0100
0000
0010
,
0000
0000
0000
0000
0000
1000
0000
0100
,
0000
0000
0010
0000
0000
1000
0000
0000
,
0001
0010
0001
0100
,
0001
1000
0001
0000
0010
0000
0000
0000
,
1000
0010
1000
1000
,
0100
0010
0010
0101
,
0000
1001
0000
0010
,
1000
0000
0001
0000
0000
0000
1000
0001
,
0100
0100
0000
1000
,
0100
0010
0000
0100
,
0000
0100
0010
0001
,
0010
0100
1000
0100
,
0010
0001
0010
1100
;

//---------------dance-single - ----------------
#NOTES:
     dance-single:
     :
     Beginner:
     3:
     0.141843,0.222152,0.107147,0.071432,0.000000,139.000000,124.000000,15.000000,10.000000,0.000000,0.000000,0.141843,0.222152,0.107147,0.071432,0.000000,139.000000,124.000000,15.000000,10.000000,0.000000,0.000000:
0000
0000
0000
0000
,
0000
0000
0000
0000
,
0000
0000
0000
0000
,
0000
0000
0000
0000
,
0000
0000
0000
0000
,
0000
0000
0000
0000
,
0000
0000
0000
0000
,
0000
0000
0000
0000
,
0100
0000
0000
0000
0000
0010
0000
0000
,
0000
0010
0000
1000
,
1000
0000
0000
0000
0000
0001
0000
0000
,
0000
0000
0000
0010
0000
1000
0000
0000
,
0000
0000
0000
0100
0000
0000
0000
0000
,
0000
0001
0000
0000
0100
0000
0000
0010
,
0000
0000
0000
0110
0000
0000
1000
0000
,
0000
0001
0000
0000
,
0000
0000
0000
0000
1000
0000
0000
0010
,
0000
1000
0000
0010
,
0000
0100
0000
0000
,
0000
0000
0000
0000
0010
0000
0000
0001
,
0000
0100
0000
0000
0000
0000
0100
0000
,
0000
0000
0000
0020
,
0030
0000
0100
0000
,
0000
0000
0100
0000
0000
0010
0000
0010
,
0000
0000
0100
0000
,
0001
0000
1000
0000
,
0010
0000
0000
0000
,
0000
1001
0000
0000
0100
0000
0100
0000
,
0000
0000
0000
0001
0000
0000
0000
0000
,
0000
0100
0000
0000
0010
0000
0000
0001
,
0000
0000
0000
0010
0000
0000
0010
0000
,
0000
0010
0000
0000
0000
0000
0000
1001
,
0000
0110
0110
0000
,
0000
1000
0000
0000
0000
1000
0000
0000
,
0000
0010
0000
0000
0000
0010
0000
0000
,
0000
0001
0000
0000
0000
0001
0000
0000
,
0000
0100
0000
0000
0000
0100
0000
0000
,
0000
0100
0000
0000
0010
0000
0000
0000
,
0100
0000
0000
0000
0000
0010
0000
0000
,
0000
1000
0000
0000
0001
0000
0000
1000
,
0000
0000
0200
0000
,
0300
0000
0000
0010
0000
0000
0000
0010
,
0000
0000
0200
0000
,
0300
0000
0000
0001
0000
0000
0000
0001
,
0000
0000
0100
0000
,
0100
0000
0010
0000
,
0010
0000
1000
0000
,
1000
1001
0000
0000
,
0000
0020
0000
0000
,
0030
2000
0000
0000
,
3000
0002
0000
0000
,
0003
0010
0010
0010
,
0000
0200
0010
0000
,
0300
2000
0100
0000
,
3000
0020
0100
0000
,
0030
1000
1000
1000
,
1000
0000
0010
0000
0000
0110
0000
0000
,
0000
0000
0000
0000
0000
1001
0000
0000
,
0000
0000
0000
0000
0000
0110
0000
0000
,
0000
0000
0000
0000
0000
1001
0000
0000
,
0000
0000
0000
0000
0000
1010
0000
0000
,
0000
0000
0000
0000
0000
0011
0000
0000
,
0000
0000
0000
0000
0000
1001
0000
0000
,
0000
0000
0000
0000
0000
0110
0000
0000
,
0000
0000
0001
0000
,
0000
0000
0000
1000
,
0000
0010
0000
0000
1000
0000
0000
0000
,
0010
0000
0100
0000
,
0000
0000
0000
0010
,
0000
0001
0000
0100
0000
0000
0000
0000
,
0100
0000
0000
0000
,
0020
0030
0000
0100
,
0000
0000
0000
0000
0100
0000
0000
0010
,
0000
0010
0000
0000
0000
0000
0100
0000
,
0000
0001
0000
1000
,
0000
0000
0000
0010
0010
0000
0000
0000
,
0100
0000
0000
0010
0000
0000
0100
0000
,
0000
0010
0000
0000
0000
0000
1001
0000
;
