#TITLE:The Moon (Mega Man X Remix);
#SUBTITLE:;
#ARTIST:DuckTales;
#TITLETRANSLIT:;
#SUBTITLETRANSLIT:;
#ARTISTTRANSLIT:;
#GENRE:;
#CREDIT:;
#BANNER:The Moon (Mega Man X Remix).png;
#BACKGROUND:The Moon (Mega Man X Remix)-bg.png;
#LYRICSPATH:;
#CDTITLE:;
#MUSIC:The Moon (Mega Man X Remix).ogg;
#OFFSET:0.000000;
#SAMPLESTART:117.899956;
#SAMPLELENGTH:14.999982;
#SELECTABLE:YES;
#BPMS:0.000000=68.500000
,29.000000=60.000000
,29.500000=57.000000
,30.000000=46.000000
,31.375000=20.000000
,32.270832=15.000000
,33.500000=60.000000
,36.000000=62.999996
,42.666668=66.000000
,44.000000=180.000000
;
#STOPS:
;
#BGCHANGES:;
#KEYSOUNDS:;
#ATTACKS:;

//---------------dance-single - ----------------
#NOTES:
     dance-single:
     :
     Hard:
     12:
     0.409701,0.442699,0.162334,0.108223,0.071021,424.000000,400.000000,24.000000,16.000000,0.000000,0.000000,0.409701,0.442699,0.162334,0.108223,0.071021,424.000000,400.000000,24.000000,16.000000,0.000000,0.000000:
// measure 0
0000
0000
0000
0000
,  // measure 1
0000
0000
0000
0000
,  // measure 2
0000
0000
0000
0000
,  // measure 3
0000
0000
0000
0000
,  // measure 4
0010
0001
0100
1000
,  // measure 5
0010
0000
0100
0001
1000
0000
0100
0000
,  // measure 6
0010
0000
1000
0000
0010
0000
0001
0010
,  // measure 7
0100
0000
1000
0100
0010
0001
0100
1000
,  // measure 8
0000
0000
0000
0000
0000
0000
0000
0000
0000
0000
0000
0000
0000
0000
0100
0000
0000
0000
0000
0000
0000
0000
0000
0000
0000
0000
0000
0000
0000
0000
0000
0000
0000
0000
0000
0000
0000
0000
0000
0000
0000
0000
0000
0000
0000
0000
0000
0000
0000
0000
0000
0000
0000
0000
0000
0000
0000
0000
0000
0000
0000
0000
0000
0000
0000
0000
0000
0000
0000
0000
0000
0000
0020
0000
0000
0000
0000
0000
0000
0000
0000
0000
0000
0000
0000
0000
0000
0000
0000
0000
0000
0000
0000
0000
0000
0000
0000
0000
0000
0000
0000
0000
0000
0000
0000
0000
0000
0000
0000
0000
0000
0000
0000
0000
0000
0000
0000
0000
0000
0000
0030
0000
0000
0000
0000
0000
0000
0000
0000
0000
0000
0000
0000
0000
0000
0000
0000
0000
0000
0000
0000
0000
0000
0000
0100
0000
0000
0000
0000
0000
0000
0000
0000
0000
0000
0000
0000
0000
0000
0000
1000
0000
0000
0000
0000
0000
0000
0000
0000
0000
0000
0000
0000
0000
0000
0000
0010
0000
0000
0000
0000
0000
0000
0000
0000
0000
0000
0000
0000
0000
0000
0000
,  // measure 9
0200
0000
0000
0000
0000
0000
0000
0000
0000
0020
0000
0000
0300
0000
0000
0000
0000
0000
0000
0000
0000
0000
0000
0000
1030
0000
0000
0000
0100
0000
0000
0000
0020
0000
0000
0000
0000
0000
0000
0000
0000
0000
0000
0000
0000
0100
0000
0000
,  // measure 10
0030
0200
0000
0000
0000
0000
0000
0000
0000
2000
0300
0000
0000
0000
0000
0000
0000
0000
0000
0000
0000
0000
0000
0000
0000
0000
0000
0000
0000
0000
0000
0000
0002
0000
0000
0000
0000
0000
0000
0000
0000
0000
0000
0000
3003
0000
0000
0000
,  // measure 11
0010
0000
0001
0000
0100
0010
0100
0000
,  // measure 12
0001
0000
1000
0001
0100
0010
0100
0010
,  // measure 13
1000
0000
0011
0000
1000
0010
1000
0010
,  // measure 14
1000
0100
0001
0000
1000
0010
0001
0000
,  // measure 15
1000
0100
0010
0100
1000
0100
0010
0000
,  // measure 16
1000
0000
0011
0000
1000
0000
1000
0001
,  // measure 17
1000
0000
0100
0001
0100
0000
0010
0001
,  // measure 18
0010
0000
0010
0100
0010
0000
0100
0000
,  // measure 19
1000
0000
0011
0000
1000
0100
0010
0100
,  // measure 20
1000
0011
1010
0011
,  // measure 21
0110
0000
1000
0000
0001
0100
0001
0000
,  // measure 22
0010
0000
0001
0000
0010
0100
0010
0000
,  // measure 23
1000
0000
0001
0000
0010
0001
1000
0000
,  // measure 24
0100
0000
0010
0000
0100
0001
0100
0000
,  // measure 25
0010
1000
0010
1000
0100
0001
0100
0000
,  // measure 26
0001
1000
0001
0010
1000
0001
1000
0000
,  // measure 27
0010
0120
0000
1030
2100
0000
3020
0000
,  // measure 28
0001
0100
1000
0031
,  // measure 29
1000
0110
0000
0000
0001
0110
0000
0100
,  // measure 30
0000
1000
0100
0001
,  // measure 31
0100
1000
0100
0001
,  // measure 32
0100
1000
0100
0001
,  // measure 33
0001
1010
0000
0000
1000
0101
0000
0100
,  // measure 34
0000
0010
1000
0010
,  // measure 35
0001
0010
1000
0010
,  // measure 36
1000
0100
1000
0000
0010
0001
0010
0000
,  // measure 37
1000
0010
1000
0000
0100
0010
0100
0010
,  // measure 38
1000
0000
0000
0000
0000
0000
0000
0000
0000
0000
0000
0000
1000
0100
0000
0000
0000
0000
0010
0001
0000
0000
0000
0000
,  // measure 39
0020
1000
0031
0000
0200
0010
1300
0000
,  // measure 40
0001
1000
0001
0100
1000
0001
1000
0000
,  // measure 41
0010
0000
0000
1000
0000
0000
0001
0000
0000
0000
0000
0000
0100
0010
0000
0000
0000
0000
1000
0100
0000
0000
0000
0000
,  // measure 42
0100
0001
0000
0000
0000
0000
0100
0000
0000
0000
0000
0000
0100
0000
0000
1000
0000
0000
0010
0000
0000
0000
0000
0000
,  // measure 43
0110
0000
1000
0000
0010
1000
0010
1000
,  // measure 44
0010
0000
0000
0000
0000
0000
0100
0000
0000
0000
0000
0000
0001
0010
0000
0000
0000
0000
1000
0100
0000
0000
0000
0000
,  // measure 45
0010
0100
0000
0000
0000
0000
1001
0000
0000
0000
0000
0000
0100
0010
0000
0000
0000
0000
0001
0010
0000
0000
0000
0000
,  // measure 46
0010
0100
0000
0000
0000
0000
1000
0000
0000
0000
0000
0000
0100
0000
0000
0000
0000
0000
0001
0000
0000
0000
0000
0000
,  // measure 47
0010
0100
1000
0000
0010
0100
1000
0000
,  // measure 48
1000
0100
0001
0000
1000
0100
0001
0000
,  // measure 49
0001
0010
0100
1000
0010
0100
1000
0100
,  // measure 50
1000
0010
0001
0010
1000
0010
0001
0010
,  // measure 51
1000
0001
1000
0000
0010
1000
0010
0001
,  // measure 52
0100
1000
0100
0001
,  // measure 53
0100
0010
0100
0010
0100
0010
0100
0000
,  // measure 54
1000
0011
0100
1010
,  // measure 55
0100
1100
0000
0000
0010
0011
0000
0100
,  // measure 56
0000
0000
0010
0000
1000
0001
0100
0000
,  // measure 57
0010
0100
0001
0000
0100
1000
0001
0000
,  // measure 58
0100
0010
0100
0000
1000
0010
0100
0000
,  // measure 59
0010
1001
0000
0000
0100
1001
0000
1000
,  // measure 60
0000
0001
0100
1000
,  // measure 61
0100
0001
0100
0010
,  // measure 62
1000
0010
1000
0010
0001
0010
0001
0010
,  // measure 63
0001
0010
0100
0010
0001
0010
0100
0010
,  // measure 64
0001
0000
0000
0000
1020
1000
0100
0100
,  // measure 65
0031
0000
1001
0000
0010
1000
0010
1000
,  // measure 66
0100
0000
0001
1000
0001
0100
0010
0000
,  // measure 67
1000
0001
1000
0001
0100
0000
0010
0000
,  // measure 68
0010
0100
1000
0000
0011
0000
0001
1000
,  // measure 69
0001
0000
0100
0001
0100
0000
0010
0000
,  // measure 70
1000
0000
0100
0000
1000
0100
0010
0000
,  // measure 71
0010
0100
1000
0100
0010
0001
0010
0000
,  // measure 72
0100
1000
0100
0010
0001
0010
0100
0000
,  // measure 73
0020
0000
1000
0000
0001
0000
1000
0030
,  // measure 74
0100
0010
0001
1000
0001
1000
0001
1000
,  // measure 75
0010
1000
0010
0200
,  // measure 76
0020
0000
0000
0000
,  // measure 77
0330
0000
0000
0000
;
