#TITLE:System Failure;
#SUBTITLE:;
#ARTIST:Renard;
#TITLETRANSLIT:;
#SUBTITLETRANSLIT:;
#ARTISTTRANSLIT:;
#GENRE:;
#CREDIT:;
#BANNER:System Failure.png;
#BACKGROUND:System Failure-bg.png;
#LYRICSPATH:;
#CDTITLE:;
#MUSIC:Renard - System Failure [HQ] 128 kbps.mp3;
#OFFSET:3.660001;
#SAMPLESTART:21.000116;
#SAMPLELENGTH:14.999974;
#LASTBEATHINT:4.038768;
#SELECTABLE:YES;
#BPMS:0.000000=91.099998
,20.000000=180.139999
,232.500000=91.099998
,236.000000=360.119995
;
#STOPS:20.000000=0.240000,
176.500000=0.060000,
177.000000=0.060000,
177.500000=0.060000,
179.000000=0.140000,
214.500000=0.160000,
218.000000=0.160000,
221.500000=0.160000,
225.000000=0.160000,
228.500000=0.160000,
232.000000=0.160000,
236.000000=0.240000
;
#BGCHANGES:;
#KEYSOUNDS:;
#ATTACKS:;

//---------------dance-single - ----------------
#NOTES:
     dance-single:
     :
     Hard:
     13:
     0.598242,0.695088,0.068651,0.317509,0.034325,488.000000,480.000000,8.000000,37.000000,0.000000,0.000000,0.598242,0.695088,0.068651,0.317509,0.034325,488.000000,480.000000,8.000000,37.000000,0.000000,0.000000:
0000
0000
0000
0000
,
0000
0000
0010
0010
,
1000
0010
1000
0000
0100
0000
0100
0000
,
0001
0000
0001
0010
0100
0000
0100
0000
,
0001
1000
0000
1000
0000
1000
0000
1000
,
0000
1000
0100
1000
0010
1000
0001
1000
,
0010
0000
0000
0200
0000
0010
0000
0301
,
0000
1000
0001
1000
0010
1000
0100
1000
,
0010
0000
0000
0200
0000
1000
0000
0301
,
0000
0010
0001
0010
1000
0010
0001
0010
,
1000
0000
0000
0020
0000
0100
0000
1030
,
0000
0010
0100
0010
1000
0010
0100
0010
,
1000
0000
0000
0000
0000
0000
0010
0100
0000
0100
1000
0000
1000
0000
0001
1000
,
0001
0100
0010
0100
1000
0100
0010
0100
,
1000
0000
0000
0200
0010
0010
1000
1300
,
0000
0100
0001
0100
0010
0100
0001
0100
,
0010
0000
0000
0200
1000
1000
0001
0301
,
0000
0001
1000
0001
0010
0001
1000
0001
,
0010
0000
0000
0020
0001
0001
1000
1030
,
0000
0001
0100
0001
0010
0001
0100
0001
,
0010
0000
0000
0000
0000
0000
1000
0010
0000
0010
0001
0000
1000
0000
0010
0100
,
0010
0100
1000
0100
0010
0001
0202
0000
,
0303
0010
0100
1000
0000
1000
0100
0010
,
0000
0001
0001
0010
0100
0100
2010
0000
,
3100
0010
0100
0000
2000
0000
0002
0000
,
3003
0100
0001
0100
0010
0100
2020
0000
,
3030
0100
1000
0010
0000
0010
0001
0100
,
0000
1000
1000
0100
0001
0001
0210
0000
,
0310
0100
0010
0000
2000
0000
0020
0000
,
3030
0001
0010
0001
0010
0001
0020
0000
,
0030
1000
0001
1000
0000
1000
0010
1000
,
0000
1000
0100
1000
0110
0000
0110
0000
,
0200
1000
0000
0001
0000
1000
0000
0301
,
0000
1000
0010
1000
0010
1000
0020
0000
,
0030
1000
0001
1000
0001
1000
0100
0010
,
0001
1000
0001
1000
0001
1000
0100
0001
,
0000
2002
0000
0000
0000
0000
0000
3003
,
0000
0100
0001
0100
1000
0100
0010
0100
,
1000
0000
0000
0002
0000
1000
0000
0013
,
0000
0100
0010
0100
1000
0100
0001
0100
,
1000
0000
0000
0002
0000
0100
0000
0013
,
0000
1000
0010
1000
0100
1000
0010
1000
,
0100
0000
0000
2000
0000
0001
0000
3100
,
0000
1000
0001
1000
0100
1000
0001
1000
,
0100
1000
1000
0010
1000
0010
1000
0001
,
1000
0001
0100
0001
1000
0001
0100
0000
,
0000
0002
1000
1000
0100
0103
0000
0001
,
0010
0001
1000
0001
0010
0001
1000
0000
,
0000
0002
0100
0100
0010
0013
0000
0010
,
0100
0010
1000
0010
0100
0010
1000
0000
,
0000
2000
0010
0010
0100
3100
0000
0010
,
0001
0010
1000
0010
0001
0010
1000
0000
,
0000
0000
0200
0000
0300
2000
0000
3000
0200
0000
0300
0002
0000
0003
0000
0000
,
0100
1000
0100
0001
0100
1000
0100
0001
,
0100
0010
0100
1000
0100
0001
0100
1000
,
0100
0001
1000
0010
1000
0001
1000
0010
,
1000
0001
0010
0100
0010
0001
0010
1000
,
0010
0100
1000
0010
1000
0100
1000
0010
,
1000
0100
0000
0010
0000
0100
0000
1000
,
0000
0010
1000
0010
,
1000
0010
1000
0010
,
1000
0010
0100
0001
,
0100
0001
0100
0001
,
0000
0001
0100
1000
,
0100
0001
0100
1000
,
0100
0001
0100
0010
,
0100
0001
0100
0001
,
0000
0001
0010
0100
,
0010
0100
0010
0100
,
0010
0001
0010
0001
,
0010
0001
0010
0100
,
0000
0100
1000
0100
,
1000
0100
0001
1000
,
0001
1000
0001
1000
,
0001
1000
0001
0100
,
0000
0001
0010
0002
,
0100
1000
0100
0010
,
1003
0200
1000
0001
,
0010
1000
0001
1300
,
0000
0100
0010
0100
,
0010
1000
0010
0000
0100
0000
1000
0000
,
0000
0010
1000
0010
,
0000
0100
0010
1000
,
0000
0000
0100
0010
0100
0000
0010
0001
,
0010
0000
0100
1000
0100
0000
0100
0001
,
0100
0000
0001
0100
1000
0000
0100
0010
,
0001
0010
0200
0020
,
0330
0000
1000
0100
0010
0100
1000
0010
,
0001
0100
1000
0100
0010
0100
0001
1000
,
0001
2002
0000
0000
,
3003
0000
0000
0000
;

//---------------dance-single - ----------------
#NOTES:
     dance-single:
     :
     Medium:
     11:
     0.422937,0.579240,0.154464,0.163045,0.017163,345.000000,327.000000,18.000000,19.000000,0.000000,0.000000,0.422937,0.579240,0.154464,0.163045,0.017163,345.000000,327.000000,18.000000,19.000000,0.000000,0.000000:
0000
0000
0000
0000
,
0000
0000
0000
0000
,
0000
0000
0000
0000
,
0000
0000
0000
0000
,
0000
0100
0000
0100
0000
0100
0000
0100
,
0000
1000
0000
0100
0000
0100
0000
0001
,
0000
0000
0000
0100
1000
0100
0000
0100
,
1000
0100
0000
0001
0000
0001
0000
0100
,
0000
0000
0000
0001
1000
0001
0000
0001
,
1000
0001
0000
0100
0000
0100
0000
0001
,
0000
0000
0000
0010
0001
1000
0000
0010
,
0001
1000
0000
0001
0000
0010
0000
0100
,
0000
0000
0000
0000
0000
0000
0010
0000
0000
0100
0000
0000
0001
0000
1000
0000
,
0000
0001
1000
0100
0000
1000
0001
0010
,
0000
0000
0000
0100
0000
0010
0000
1000
,
0000
0100
0001
0100
0000
0100
1000
0100
,
0000
0000
0000
1000
0000
0100
0000
0001
,
0000
0010
1000
0100
0000
0010
0100
0001
,
0000
0000
0000
0010
0000
0001
0000
1000
,
0000
0010
0100
0010
0000
0001
0100
0001
,
0000
0000
0000
0000
0000
0000
1000
0000
0000
0010
0000
0000
0000
0000
0110
0000
,
0000
0100
0001
0000
0100
0000
0020
0000
,
0030
0100
0000
1000
0000
0100
0000
0001
,
0000
0100
0010
0000
0100
0000
2000
0000
,
3000
0010
0100
0000
2002
0000
3003
0000
,
0000
0010
0100
0000
1000
0000
0020
0000
,
0030
0100
0000
0010
0000
0100
0000
0001
,
0000
1000
0001
0000
0010
0000
2000
0000
,
3000
0100
0010
0000
0220
0000
0330
0000
,
0000
0001
0100
0000
0010
0000
0010
0000
,
0000
1001
0000
1001
0000
0110
0000
0110
,
0000
0001
0000
1000
0010
0000
0010
0000
,
0000
0010
0000
0101
0000
0010
0000
0101
,
0000
0100
0010
0000
0010
0000
1000
0000
,
0000
1100
0000
0100
0000
1100
0000
0100
,
0000
1000
0000
1000
0000
0001
0000
0001
,
0000
2002
0000
0000
0000
0000
0000
3003
,
0000
0001
0000
0010
0000
0010
0000
1000
,
0000
0000
0000
0010
0001
0010
0000
0010
,
0001
0010
0000
1000
0000
1000
0000
0010
,
0000
0000
0000
1000
0001
1000
0000
1000
,
0001
1000
0000
0010
0000
0010
0000
1000
,
0000
0000
0000
0100
1000
0001
0000
0100
,
1000
0001
0000
1000
0000
0100
0000
0010
,
0000
0200
0000
0000
0300
0000
0000
1000
,
0001
0010
0000
0001
1000
0100
0000
0000
,
0000
0010
0000
0100
0000
0001
0000
0010
,
1000
0010
0000
0010
0001
0010
0000
0000
,
0000
0001
0000
0010
0000
1000
0000
0100
,
0001
0010
0000
0100
0010
1000
0000
0000
,
0000
0100
0000
1000
0000
0001
0000
0100
,
0010
0100
0000
1000
0010
1000
0000
0000
,
0000
0000
2000
0000
3000
0200
0000
0300
0020
0000
0030
0002
0000
0003
0000
0000
,
0100
0010
1000
0000
1000
0110
0000
0010
,
0100
1000
0000
1000
0101
0000
0100
1000
,
0100
0000
0001
0011
0000
0001
0100
0001
,
0000
0010
1100
0000
0010
0100
0010
0000
,
1000
1001
0000
0010
0001
1000
0000
1000
,
0200
0010
0000
0010
0000
0010
0000
0310
,
0000
0100
1000
0100
,
0000
0010
0001
0010
,
0000
0010
0000
0010
,
0000
0100
0000
0100
,
0000
0010
0100
1000
,
0000
0100
0010
0001
,
0000
0001
0000
0001
,
0000
1000
0000
1000
,
0000
0100
0010
0100
,
0000
0010
1000
0010
,
0000
0010
0000
0010
,
0000
0001
0000
0001
,
0000
0100
0001
0100
,
0000
0100
1000
0100
,
0000
1000
0000
1000
,
0000
0010
0000
0010
,
0000
0001
0010
0100
,
0000
1000
0100
0010
,
0000
0100
1000
0100
,
1000
0100
0010
0100
,
0000
0100
0010
0100
,
0000
0010
0001
0010
,
0000
0010
1000
0010
,
0001
0100
0010
0100
,
0000
0100
1000
0100
,
0001
0100
1000
0100
,
0001
0100
1000
0100
,
0001
0010
0100
0020
,
0030
1000
1000
0010
,
0010
0100
0100
0001
,
0001
0220
0000
0000
,
0330
0000
0000
0000
;

//---------------dance-single - ----------------
#NOTES:
     dance-single:
     :
     Easy:
     9:
     0.323639,0.386160,0.111557,0.257440,0.004291,264.000000,251.000000,13.000000,30.000000,0.000000,0.000000,0.323639,0.386160,0.111557,0.257440,0.004291,264.000000,251.000000,13.000000,30.000000,0.000000,0.000000:
0000
0000
0000
0000
,
0000
0000
0000
0000
,
0000
0000
0000
0000
,
0000
0000
0000
0000
,
0000
0000
0000
0000
,
0000
0010
0000
0100
0000
0010
0000
0100
,
0000
0000
0000
0100
0000
0100
0000
0100
,
0000
0010
0000
1000
0000
0010
0000
1000
,
0000
0000
0000
0001
0000
0001
0000
0001
,
0000
1000
0000
0100
0000
1000
0000
0100
,
0000
0000
0000
0100
0000
0100
0000
0100
,
0000
0001
0000
1000
0000
0001
0000
1000
,
0000
0010
0000
0000
0000
0100
0010
0100
,
0000
0020
0000
0130
0000
0200
0000
0310
,
0000
0000
0000
0100
0000
0010
0000
0100
,
0000
0020
0000
0130
0000
0020
0000
0031
,
0000
0000
0000
1000
0000
0100
0000
1000
,
0000
0200
0000
1300
0000
0200
0000
0301
,
0000
0000
0000
0100
0000
0001
0000
0100
,
0000
2000
0000
3100
0000
0002
0000
0103
,
0000
0000
0000
0000
0000
0000
1000
0000
0000
0010
0000
0000
1000
0000
0000
0000
,
0000
0100
0000
0001
0000
0000
0010
0100
,
0000
0100
0000
1000
0000
0000
0010
0100
,
0000
0001
0000
0010
0000
0000
0100
1000
,
0000
0010
0000
0000
0220
0000
0330
0000
,
0000
0010
0000
0100
0000
0000
1000
0010
,
0000
1000
0000
0001
0000
0000
0100
0010
,
0000
1000
0000
0000
0001
0000
0002
0000
,
0003
0100
0000
0000
0220
0000
0330
0000
,
0000
2002
0000
0003
0001
0000
3001
0000
,
0000
1000
0000
0100
0000
0010
0000
0001
,
0000
0010
0000
0100
0000
1000
0000
0100
,
0000
0020
0000
0001
0000
0001
0000
0031
,
0000
2002
0000
3000
1000
0000
1000
0003
,
0000
1000
0000
0010
0000
0100
0000
0010
,
0000
0001
0000
0100
0000
0010
0000
0100
,
0000
1001
0000
0000
0000
0000
0000
0000
,
0000
0100
0000
0010
0000
0100
0000
0010
,
0000
0000
0000
0010
0000
0010
0000
0010
,
0000
0100
0000
0001
0000
0100
0000
0001
,
0000
0000
0000
1000
0000
1000
0000
1000
,
0000
0001
0000
0010
0000
0001
0000
0010
,
0000
0000
0000
0010
0000
0010
0000
0010
,
0000
1000
0000
0001
0000
1000
0000
0001
,
0000
0200
0000
0000
0300
0000
0000
0000
,
0000
0010
0000
0020
0000
0130
0000
0000
,
0000
0010
0000
0100
0000
0010
0000
0200
,
0000
0310
0000
0200
0000
0301
0000
0000
,
0000
0001
0000
0010
0000
0001
0000
0020
,
0000
0130
0000
0020
0000
1030
0000
0000
,
0000
0010
0000
1000
0000
0010
0000
0002
,
0000
0013
0000
2000
0000
3010
0000
0000
,
0000
2000
0000
0000
0020
0000
3030
0000
,
0000
0010
0000
0100
0000
0010
0100
0000
,
0010
0000
0001
0000
0010
0100
0000
1000
,
0000
0100
0000
0010
0001
0000
0010
0000
,
0001
0000
0100
0010
0000
1000
0000
0010
,
0000
0100
1000
0000
0001
0000
0010
0000
,
0000
0020
0000
0000
0000
0030
0000
0000
,
0000
0100
0000
0010
,
0000
0100
0000
1000
,
0000
0100
0000
1000
,
0000
0001
0000
0100
,
0000
1000
0000
0100
,
0000
1000
0000
0010
,
0000
0001
0000
1000
,
0000
0001
0000
1000
,
0000
0100
0000
0001
,
0000
0010
0000
0100
,
0000
0010
0000
0100
,
0000
0001
0000
0100
,
0000
1000
0000
0010
,
0000
0100
0000
1000
,
0000
0100
0000
0010
,
0000
0010
0000
0010
,
0000
0001
0000
0010
,
0000
0001
0000
0100
,
0000
0001
0000
0010
,
0000
0100
0000
1000
,
0000
0100
0000
0010
,
0000
0001
0000
1000
,
0000
0010
0000
0010
,
0000
0100
0000
0100
,
0000
0101
0000
0101
,
0000
0110
0000
0110
,
0000
1010
0000
1010
,
0000
1001
0000
1001
,
0000
1000
0001
1000
,
0001
1000
0100
0010
,
0100
0020
0000
0000
,
0030
0000
0000
0000
;

//---------------dance-single - ----------------
#NOTES:
     dance-single:
     :
     Beginner:
     5:
     0.209630,0.424776,0.137301,0.197371,0.000000,171.000000,155.000000,16.000000,23.000000,0.000000,0.000000,0.209630,0.424776,0.137301,0.197371,0.000000,171.000000,155.000000,16.000000,23.000000,0.000000,0.000000:
// measure 0
0000
0000
0000
0000
,  // measure 1
0000
0000
0000
0000
,  // measure 2
0000
0000
0000
0000
,  // measure 3
0000
0000
0000
0000
,  // measure 4
0000
0000
0000
0000
,  // measure 5
0000
0010
0000
0000
0000
0100
0000
0100
,  // measure 6
0000
0200
0000
0000
0000
0000
0000
0300
,  // measure 7
0000
1000
0000
0000
0000
0010
0000
0010
,  // measure 8
0000
0020
0000
0000
0000
0000
0000
0030
,  // measure 9
0000
1000
0000
0000
0000
0100
0000
0100
,  // measure 10
0000
0200
0000
0000
0000
0000
0000
0300
,  // measure 11
0000
0010
0000
0000
0000
0001
0000
0001
,  // measure 12
0000
0001
0000
0100
0000
0010
0000
0000
,  // measure 13
0000
0001
0000
0000
0000
1000
0000
1000
,  // measure 14
0000
2000
0000
0000
0000
3200
0000
0300
,  // measure 15
0000
0001
0000
0000
0000
0001
0000
0001
,  // measure 16
0000
0002
0000
0000
0000
2003
0000
3000
,  // measure 17
0000
0100
0000
0000
0000
0010
0000
0010
,  // measure 18
0000
0020
0000
0000
0000
0230
0000
0300
,  // measure 19
0000
0001
0000
0000
0000
0010
0000
0100
,  // measure 20
0000
0010
0000
0000
0000
1001
0000
0000
,  // measure 21
0000
0100
0000
0000
0000
0001
0000
0000
,  // measure 22
0000
0100
0000
1000
0000
0100
0000
0000
,  // measure 23
0000
0001
0000
0000
0000
1000
0000
0000
,  // measure 24
0000
0010
0000
1000
0000
0010
0000
0010
,  // measure 25
0000
0010
0000
0000
0000
0100
0000
0000
,  // measure 26
0000
1000
0000
0001
0000
1000
0000
0000
,  // measure 27
0000
1000
0000
0000
0000
0100
0000
0000
,  // measure 28
0000
0100
0000
0010
0000
0010
0000
0000
,  // measure 29
0000
0001
0000
0010
0000
0010
0000
0000
,  // measure 30
0000
0110
0000
0000
0000
1001
0000
0000
,  // measure 31
0000
0110
0000
0000
0000
1000
0000
1001
,  // measure 32
0000
2002
0000
0000
0000
3003
0000
0000
,  // measure 33
0000
0010
0000
0100
0000
0100
0000
0000
,  // measure 34
0000
0110
0000
0000
0000
1001
0000
0000
,  // measure 35
0000
0110
0000
0000
0000
1001
0000
0000
,  // measure 36
0000
0220
0000
0000
0330
0000
0000
0000
,  // measure 37
0000
0001
0000
0000
0000
1000
0000
1000
,  // measure 38
0000
2000
0000
0000
0000
0000
0000
3000
,  // measure 39
0000
0010
0000
0000
0000
0001
0000
0001
,  // measure 40
0000
0002
0000
0000
0000
0000
0000
0003
,  // measure 41
0000
0010
0000
0000
0000
1000
0000
1000
,  // measure 42
0000
2000
0000
0000
0000
0000
0000
3000
,  // measure 43
0000
0001
0000
0000
0000
0100
0000
0100
,  // measure 44
0000
0000
0000
0000
,  // measure 45
0000
0000
0000
0001
0000
0001
0000
0002
,  // measure 46
0000
0000
0000
0023
0000
0030
0000
1000
,  // measure 47
0000
0000
0000
1000
0000
1000
0000
2000
,  // measure 48
0000
0000
0000
3002
0000
0003
0000
0010
,  // measure 49
0000
0000
0000
0100
0000
0100
0000
0200
,  // measure 50
0000
0000
0000
0320
0000
0030
0000
1000
,  // measure 51
0000
0000
0000
0100
0000
0010
0000
0100
,  // measure 52
0000
0000
0000
0110
0000
0000
0000
0000
,  // measure 53
0000
0010
0000
0000
0000
0010
0000
0000
,  // measure 54
0100
0000
0000
0000
0100
0000
0000
1000
,  // measure 55
0000
0000
0000
1000
0000
0000
0001
0000
,  // measure 56
0000
0000
0001
0000
0000
0100
0000
0000
,  // measure 57
0000
0100
0000
0000
0001
0000
0000
0000
,  // measure 58
1000
0000
0000
0000
,  // measure 59
0000
1000
0000
0000
,  // measure 60
0000
0010
0000
0000
,  // measure 61
0000
0100
0000
0000
,  // measure 62
0000
0010
0000
0000
,  // measure 63
0000
0100
0000
0000
,  // measure 64
0000
1000
0000
0000
,  // measure 65
0000
0010
0000
0000
,  // measure 66
0000
0100
0000
0000
,  // measure 67
0000
0010
0000
0000
,  // measure 68
0000
0010
0000
0000
,  // measure 69
0000
0001
0000
0000
,  // measure 70
0000
1000
0000
0000
,  // measure 71
0000
1000
0000
0000
,  // measure 72
0000
0001
0000
0000
,  // measure 73
0000
0100
0000
0000
,  // measure 74
0000
1000
0000
0000
,  // measure 75
0000
0001
0000
0000
,  // measure 76
0000
0001
0000
0000
,  // measure 77
0000
1000
0000
0000
,  // measure 78
0000
0100
0000
0000
,  // measure 79
0000
0010
0000
0000
,  // measure 80
0000
0001
0000
0000
,  // measure 81
0000
1000
0000
0000
,  // measure 82
0000
0010
0000
0000
,  // measure 83
0000
0110
0000
0000
,  // measure 84
0000
0110
0000
0000
,  // measure 85
0000
1001
0000
0000
,  // measure 86
0000
1001
0000
0000
,  // measure 87
0000
0100
0000
0010
,  // measure 88
0000
0100
0000
0010
,  // measure 89
0000
0200
0000
0000
,  // measure 90
0300
0000
0000
0000
;
