#TITLE:ME!ME!ME!;
#SUBTITLE:;
#ARTIST:feat. daoko / TeddyLoid;
#TITLETRANSLIT:;
#SUBTITLETRANSLIT:;
#ARTISTTRANSLIT:;
#GENRE:;
#CREDIT:;
#BANNER:ME!ME!ME!.png;
#BACKGROUND:ME!ME!ME!-bg.png;
#LYRICSPATH:;
#CDTITLE:;
#MUSIC:ME!ME!ME!.ogg;
#OFFSET:0.000000;
#SAMPLESTART:61.759983;
#SAMPLELENGTH:15.000003;
#SELECTABLE:YES;
#DISPLAYBPM:125.000000;
#BPMS:0.000000=125.549995
,49.000000=124.550003
,79.500000=124.999992
;
#STOPS:
;
#BGCHANGES:;
#KEYSOUNDS:;
#ATTACKS:;

//---------------dance-single - ----------------
#NOTES:
     dance-single:
     :
     Hard:
     10:
     0.377709,0.546025,0.226625,0.194250,0.188854,245.000000,224.000000,21.000000,18.000000,0.000000,0.000000,0.377709,0.546025,0.226625,0.194250,0.188854,245.000000,224.000000,21.000000,18.000000,0.000000,0.000000:
0000
0000
0000
0000
,
0000
0000
0000
0000
,
0000
0000
0000
0000
,
0000
0000
0000
0000
,
0000
0000
0000
0000
,
0000
0000
0000
0000
,
0000
0000
0000
0000
,
0000
0000
0000
0000
,
0000
0020
0130
2000
,
3001
0000
0000
0000
0100
0000
0000
0020
0000
0000
0000
0000
0000
0000
1000
0000
,
1030
0002
0013
0020
,
2030
0002
0000
0000
,
3003
0000
0100
1000
0100
0000
1001
0000
,
0100
1000
0000
0001
1000
0110
0000
0000
,
0000
0001
0001
0010
1000
0100
0000
0001
,
0001
0010
0100
1000
0100
0002
0000
0000
,
0003
0000
0010
0100
0010
0000
1001
0000
,
0001
0100
0000
0010
0100
0110
0000
0100
,
1000
0100
0000
0001
0100
0001
0000
0010
,
1000
0010
0000
1000
0001
1000
0000
0110
,
1000
0010
0000
0100
0000
0001
0000
0110
,
0100
0001
0000
0100
0000
1000
0000
0110
,
0001
1000
0000
0100
0000
0010
0000
0010
,
1000
0010
0000
0100
0001
0100
0000
1001
,
0010
1000
0000
0001
0001
1000
0000
1001
,
0100
0010
0000
1000
1000
0010
0000
1001
,
1000
0001
0000
0010
0010
1000
0000
0001
,
1000
0001
0000
1000
0010
0000
1000
0000
,
1000
0010
0200
0000
0000
0000
0000
0000
,
0000
0000
0000
0000
,
0000
0000
0000
0000
,
0300
0000
0000
0010
1000
0100
0001
1000
0100
0010
0001
0100
,
1000
0100
0010
0002
0000
0000
0013
0000
0000
0020
0000
0000
,
0130
0000
0000
0000
2000
0000
0000
0000
3100
0000
0000
0010
1000
0000
0000
0100
,
0001
0000
0000
0000
0110
0000
0000
0100
1000
0000
0000
1000
0010
0000
0000
0010
,
0100
0000
0000
0001
1000
0000
1000
0000
0001
0000
0100
0000
0001
0000
0000
0000
,
1001
0000
0000
0100
0020
0000
0030
0100
0001
0000
0000
0010
0200
0000
0300
0000
,
1001
0000
0000
0001
0020
0000
0030
0100
1000
0000
0000
1000
0020
0000
0030
0000
,
0110
1001
0110
0110
,
1001
0000
2002
0000
0000
0003
0001
0000
,
3001
0000
0000
0000
0000
0000
0010
0000
0000
1000
0000
0000
0010
0000
0000
0100
0000
0000
0001
0000
1000
0000
0001
0000
,
1000
0000
0010
0000
0001
0000
0100
0000
0000
1000
0000
0000
0100
0000
0000
0001
0000
0000
0100
0000
1000
0000
0100
0000
,
1000
0000
0100
0000
0001
0000
0010
0000
0000
0100
0000
0000
0010
0000
0000
1000
0000
0000
0010
0000
0001
0000
0010
0000
,
0100
1000
0100
1000
0000
0000
1001
0000
0000
1001
0000
0000
,
0100
0010
0100
0000
0010
0100
0010
0000
,
1000
0001
1000
0000
0010
1000
0010
0100
,
1000
0100
0001
0000
1000
0001
1000
0000
,
0010
0100
0001
0010
0100
1000
0100
0100
,
0010
0001
1000
0100
0000
0000
0000
0000
0000
0000
0000
0000
0000
0000
0000
0000
;

//---------------dance-single - ----------------
#NOTES:
     dance-single:
     :
     Medium:
     6:
     0.252834,0.363545,0.226625,0.053958,0.005396,164.000000,143.000000,21.000000,5.000000,0.000000,0.000000,0.252834,0.363545,0.226625,0.053958,0.005396,164.000000,143.000000,21.000000,5.000000,0.000000,0.000000:
0000
0000
0000
0000
,
0000
0000
0000
0000
,
0000
0000
0000
0000
,
0000
0000
0000
0000
,
0000
0000
0000
0000
,
0000
0000
0000
0000
,
0000
0000
0000
0000
,
0000
0000
0000
0000
,
0000
0010
0100
1000
,
0100
0000
0000
0000
0100
0000
0000
0020
0000
0000
0000
0000
0000
0000
0000
0000
,
0030
0001
0001
0100
,
0100
0220
0000
0330
,
0000
1100
0110
0010
,
0100
0010
1000
1000
,
0000
0000
0100
0010
0000
0010
0000
1000
,
0000
0010
1000
0010
0000
0100
0000
0100
,
0000
0110
1001
0001
,
0010
0001
0100
0100
,
0010
0010
0000
1000
0000
0001
0000
1000
,
0000
0010
0000
1000
0000
1000
0000
0110
,
0000
0000
0000
0010
0000
0010
0000
0110
,
0000
0000
0000
0100
0000
0100
0000
0110
,
0000
0000
0000
1000
0000
0001
0000
0010
,
0100
0010
0000
1000
0000
0100
0000
0011
,
0000
0011
0000
0100
0000
1000
0000
0110
,
0000
0110
0000
0100
0000
0010
0000
1001
,
0000
1001
0000
0010
0000
0100
0000
0010
,
0000
0010
0010
0000
1000
0000
0100
0000
,
0010
1001
0000
0000
,
0000
0000
0000
0000
,
0000
0000
0000
0000
,
0000
0200
0000
0000
,
0300
0001
0100
1000
,
0100
0001
0010
0100
,
1000
0110
1001
0110
,
1001
0000
1000
0000
0010
0100
0010
0000
,
0001
0100
1000
0100
,
0001
0100
1000
0100
,
0000
1000
1000
0100
,
0001
0000
0002
0000
0000
0003
0000
0000
,
0000
0000
0100
0000
0010
0000
1000
0010
,
1000
0010
0100
0000
1000
0000
0100
0010
,
0100
0010
1000
0000
0001
0000
0010
0001
,
0010
0001
1000
0000
0010
0000
0010
0000
,
0000
1100
0010
0100
,
0010
0001
0010
0001
,
0100
0011
0001
0010
,
0100
0001
0100
1000
,
0010
0100
0000
0000
0000
0000
0000
0000
;

//---------------dance-single - ----------------
#NOTES:
     dance-single:
     :
     Easy:
     3:
     0.183459,0.286384,0.107917,0.129500,0.000000,119.000000,109.000000,10.000000,12.000000,0.000000,0.000000,0.183459,0.286384,0.107917,0.129500,0.000000,119.000000,109.000000,10.000000,12.000000,0.000000,0.000000:
0000
0000
0000
0000
,
0000
0000
0000
0000
,
0000
0000
0000
0000
,
0000
0000
0000
0000
,
0000
0000
0000
0000
,
0000
0000
0000
0000
,
0000
0000
0000
0000
,
0000
0000
0000
0000
,
0000
1000
0001
0000
,
0100
0010
0010
0000
,
0000
1000
0001
0000
,
0100
0020
0030
0000
,
0000
1000
0010
1000
,
0000
0100
0010
0100
,
0000
0000
0000
1000
0000
0010
0000
1000
,
0000
0000
0000
0001
0000
0100
0000
0001
,
0000
0010
0001
0010
,
0000
0001
0100
0001
,
0000
0100
0000
0001
0000
0100
0000
0001
,
0000
0100
0000
0001
0000
0100
0000
0010
,
0000
0000
0000
0010
0000
1000
0000
0010
,
0000
0000
0000
0100
0000
0001
0000
0100
,
0000
0000
0000
1000
0000
0001
0000
1000
,
0000
1000
0000
0010
0000
0100
0000
0001
,
0000
0000
0000
0100
0000
0010
0000
0001
,
0000
0000
0000
1000
0000
0100
0000
0010
,
0000
0000
0000
0001
0000
0010
0000
0100
,
0000
0020
0000
0000
,
0000
0200
0000
0000
,
0000
0000
0000
0000
,
0000
0000
0000
0000
,
0330
0220
0000
0000
,
0330
1001
0000
0020
,
0030
1010
0000
0200
,
0300
0010
0001
0010
,
0001
1000
0110
0110
,
0000
1100
0000
0020
,
0030
1100
0000
0200
,
0300
0110
0000
1001
,
0000
0020
0000
0030
,
0000
0100
0100
0010
,
1000
0100
0100
0001
,
1000
0010
0010
0100
,
0001
1000
1000
1000
,
0000
0100
0010
0100
,
0010
0001
1000
0001
,
1000
0010
0100
0010
,
0100
0001
1000
0001
,
2002
3003
0000
0000
;

//---------------dance-single - ----------------
#NOTES:
     dance-single:
     :
     Beginner:
     1:
     0.115625,0.181300,0.043167,0.000000,0.000000,75.000000,71.000000,4.000000,0.000000,0.000000,0.000000,0.115625,0.181300,0.043167,0.000000,0.000000,75.000000,71.000000,4.000000,0.000000,0.000000,0.000000:
// measure 0
0000
0000
0000
0000
,  // measure 1
0000
0000
0000
0000
,  // measure 2
0000
0000
0000
0000
,  // measure 3
0000
0000
0000
0000
,  // measure 4
0000
0000
0000
0000
,  // measure 5
0000
0000
0000
0000
,  // measure 6
0000
0000
0000
0000
,  // measure 7
0000
0000
0000
0000
,  // measure 8
0000
1000
0000
0100
,  // measure 9
0000
0010
0000
0000
,  // measure 10
0000
0100
0000
0010
,  // measure 11
0000
1000
0000
0000
,  // measure 12
0000
1000
0000
0010
,  // measure 13
0000
0100
0000
1000
,  // measure 14
0000
0001
0000
0001
,  // measure 15
0000
0100
0000
0100
,  // measure 16
0000
0010
0000
0100
,  // measure 17
0000
0010
0000
1000
,  // measure 18
0000
0110
0000
0100
,  // measure 19
0000
0010
0000
0110
,  // measure 20
0000
0000
0000
0010
0000
0010
0000
0000
,  // measure 21
0000
0000
0000
0100
0000
0100
0000
0000
,  // measure 22
0000
0000
0000
0001
0000
0001
0000
0000
,  // measure 23
0000
0000
0000
1000
0000
1000
0000
0000
,  // measure 24
0000
0000
0000
0100
0000
0010
0000
0000
,  // measure 25
0000
0000
0000
0010
0000
0100
0000
0000
,  // measure 26
0000
0000
0000
1000
0000
0010
0000
0000
,  // measure 27
0000
0010
0000
0000
,  // measure 28
0000
0110
0000
0000
,  // measure 29
0000
0000
0000
0000
,  // measure 30
0000
0000
0000
0000
,  // measure 31
0000
0100
0000
0000
,  // measure 32
0000
0001
0000
1000
,  // measure 33
0000
0001
0000
1000
,  // measure 34
0000
0010
0000
0010
,  // measure 35
0000
0100
0000
0100
,  // measure 36
0000
1000
0000
0010
,  // measure 37
0000
1000
0000
0010
,  // measure 38
0000
0010
0000
0000
,  // measure 39
0000
0110
0000
0000
,  // measure 40
0000
0100
0000
0010
,  // measure 41
0100
0000
0000
0010
,  // measure 42
0100
0000
0000
1000
,  // measure 43
0001
1000
0000
0001
,  // measure 44
0000
1000
0000
0010
,  // measure 45
0000
0100
0000
1000
,  // measure 46
0000
0010
0000
0100
,  // measure 47
0000
0010
0000
0010
,  // measure 48
0100
0000
0000
0000
;
