#TITLE:Impulse;
#SUBTITLE:;
#ARTIST:An Endless Sporadic;
#TITLETRANSLIT:;
#SUBTITLETRANSLIT:;
#ARTISTTRANSLIT:;
#GENRE:;
#CREDIT:;
#BANNER:Impulse.png;
#BACKGROUND:Impulse-bg.png;
#LYRICSPATH:;
#CDTITLE:;
#MUSIC:Impulse.ogg;
#OFFSET:0.000000;
#SAMPLESTART:19.219955;
#SAMPLELENGTH:14.999995;
#SELECTABLE:YES;
#DISPLAYBPM:100.000000:400.000000;
#BPMS:0.000000=199.220001
,4.000000=200.000000
,187.000000=300.000000
,193.000000=350.000000
,195.000000=400.000000
,197.000000=450.000000
,199.000000=499.999969
,202.000000=550.000000
,210.000000=300.000000
,211.000000=200.000000
,211.500000=100.000000
,212.000000=50.000000
,212.500000=100.000000
,244.500000=200.000000
,261.000000=100.000000
,269.000000=200.000000
,285.000000=100.000000
,293.000000=200.000000
,325.000000=100.000000
,384.500000=112.500000
,385.500000=124.999992
,386.000000=137.500000
,386.500000=150.000000
,387.000000=162.500000
,387.500000=175.000000
,388.000000=187.500000
,388.500000=200.000000
,389.000000=212.500000
,389.500000=225.000000
,390.000000=237.500000
,390.500000=249.999985
,391.000000=262.500000
,391.500000=275.000000
,392.000000=287.500000
,392.500000=300.000000
,393.000000=312.500000
,393.500000=325.000000
,394.000000=337.500000
,394.500000=350.000000
,395.000000=362.500000
,395.500000=375.000000
,396.000000=387.500000
,396.500000=400.000000
,649.000000=200.000000
;
#STOPS:212.500000=0.360000,
649.000000=5.260000
;
#BGCHANGES:;
#KEYSOUNDS:;
#ATTACKS:;

//---------------dance-single - ----------------
#NOTES:
     dance-single:
     :
     Challenge:
     17:
     0.692862,1.290167,0.485794,0.414702,0.631926,1228.000000,1105.000000,123.000000,105.000000,0.000000,0.000000,0.692862,1.290167,0.485794,0.414702,0.631926,1228.000000,1105.000000,123.000000,105.000000,0.000000,0.000000:
// measure 0
0000
0000
0000
0000
,  // measure 1
0000
0000
0000
0000
,  // measure 2
1000
0100
0001
0100
,  // measure 3
1000
0100
0001
0100
,  // measure 4
1000
0010
0100
0000
0001
0000
0100
0000
,  // measure 5
1000
0001
0100
0000
0001
0000
0010
0000
,  // measure 6
1000
0100
0010
0000
0001
0000
0010
0000
,  // measure 7
2000
3200
0320
0032
,  // measure 8
1003
0100
0010
0000
0001
0000
0010
0000
,  // measure 9
1000
0010
0001
0010
,  // measure 10
1000
0001
0010
0000
0001
0000
0010
0000
,  // measure 11
1000
0010
0001
0010
,  // measure 12
1000
0100
0010
0000
0001
0000
0010
0000
,  // measure 13
1000
0010
0010
0000
0001
0000
1000
0000
,  // measure 14
0100
1000
0001
0000
0100
0000
0010
0000
,  // measure 15
0200
1000
0010
0301
,  // measure 16
2002
0000
0003
0000
3001
0010
0100
0200
,  // measure 17
0000
0010
1300
0100
0010
0000
1000
0001
,  // measure 18
1000
0000
0001
1000
0001
0000
0001
1200
,  // measure 19
0000
0310
0001
0201
0000
1300
0100
0210
,  // measure 20
0000
0300
1000
0010
0001
0000
0010
0200
,  // measure 21
0000
1300
0020
0100
1030
0100
0010
0100
,  // measure 22
0001
0000
1200
0010
0310
0000
1000
0100
,  // measure 23
0000
0001
0100
0000
1100
0100
0001
0000
,  // measure 24
0100
1000
1100
0000
0010
0100
0101
0000
,  // measure 25
0100
0001
1100
0000
0010
0001
1010
0000
,  // measure 26
0010
0000
1000
0000
0001
0000
0010
2100
,  // measure 27
0000
3010
0010
0201
0000
1300
1000
0120
,  // measure 28
0000
0030
1100
0000
0010
0000
1010
0000
,  // measure 29
0010
0100
0110
0000
0010
0010
1001
0000
,  // measure 30
1000
0010
1100
0000
0010
1000
0011
0000
,  // measure 31
1000
0100
0010
0001
0010
0220
0330
0000
,  // measure 32
0010
0100
0010
0100
0101
0000
1100
0000
,  // measure 33
0101
0000
1100
0000
0001
0001
0001
1000
,  // measure 34
0000
1100
0000
0100
0000
0101
0000
0001
,  // measure 35
0000
0011
0000
0100
0000
0110
0010
1000
,  // measure 36
0100
0010
0011
0000
1001
0000
1100
0000
,  // measure 37
1001
0000
0011
0000
1000
1000
0001
0000
,  // measure 38
0100
0100
0001
0001
,  // measure 39
0100
0000
0001
0010
0100
1000
0100
0010
,  // measure 40
0100
0100
1000
0000
1100
0000
0110
0000
,  // measure 41
0010
0100
0010
2000
0000
3010
0100
1000
,  // measure 42
0110
0001
0010
2000
0000
3100
0010
1000
,  // measure 43
0100
0000
0100
0000
0010
0000
0001
0000
0010
0100
0010
0000
1000
0000
0100
0000
,  // measure 44
0010
1000
1000
0000
0011
0000
0110
0000
,  // measure 45
0001
1000
0001
0020
0000
0130
0001
0010
,  // measure 46
0110
0001
1000
0110
0000
0000
0100
1000
,  // measure 47
0000
0100
0000
0000
0001
0000
0000
0100
0000
0000
1000
0000
0000
0100
0000
0000
,  // measure 48
0001
0000
0000
0010
0000
0000
1000
0000
0000
0000
0000
0000
0100
0000
0000
0000
,  // measure 49
0000
0001
0000
0000
0010
0000
0000
0100
,  // measure 50
0000
0000
0010
0000
0000
1000
0000
0000
,  // measure 51
0000
0200
0000
0000
0000
0000
0000
0000
,  // measure 52
0000
0000
0000
0000
,  // measure 53
0000
0000
0000
0010
0310
1100
0010
0101
0000
1000
1000
0000
0100
0010
0100
0000
,  // measure 54
1000
0100
0010
0001
0000
0010
0010
0000
1000
0000
0110
0000
0001
0010
0200
0000
,  // measure 55
0010
0001
0310
0001
0010
1100
0010
0011
0000
1000
2000
0000
0010
0001
3010
0000
,  // measure 56
0110
0000
0110
0000
0001
0020
0100
0000
0100
1000
0100
1000
1030
0100
2000
0000
,  // measure 57
0100
0010
3001
0100
0100
1010
0010
1100
0000
0010
0010
0000
1000
0100
1000
0000
,  // measure 58
1000
0100
0001
0100
0000
0001
0001
0000
0010
0000
0110
0000
0100
0001
0001
0000
,  // measure 59
0001
0100
0001
0100
0001
1100
0001
0101
0000
0010
0010
0000
0001
0100
0010
0000
,  // measure 60
1000
1000
0110
0001
0000
0100
1000
0000
0010
0000
0101
0000
1000
0010
0001
0000
,  // measure 61
1000
0100
0001
0000
1100
0000
0010
0000
0100
0000
2000
0000
0100
0000
0010
0000
,  // measure 62
0100
3002
0000
0000
0100
0103
0000
0000
,  // measure 63
0002
0100
0100
1003
0010
0010
2000
0000
,  // measure 64
0000
0000
0000
0000
0000
0000
3010
0000
0100
0000
0010
0000
1000
0001
1000
0000
,  // measure 65
0100
0000
0010
0000
0001
0001
0010
0100
0100
0000
1000
1000
0000
0010
0010
0001
,  // measure 66
0000
0100
0100
0010
0001
0000
1000
1000
0000
0110
0000
0110
0000
0001
1000
0001
,  // measure 67
0000
0010
0100
0010
0011
0000
0100
0000
0010
0000
0002
0000
0010
0000
0100
0000
,  // measure 68
0010
2003
0000
0000
0010
3010
0000
0000
,  // measure 69
2000
0010
0010
3001
0100
0100
0002
0000
,  // measure 70
0000
0000
0000
0000
0000
0000
0103
0000
0010
0000
0100
0000
0001
1000
0001
0000
,  // measure 71
0010
0000
0100
0000
1000
1000
0100
0010
0010
0000
0001
0001
0000
0100
0100
1000
,  // measure 72
0000
0010
0010
0100
1000
0000
0001
0001
0000
0110
0000
0110
0000
1000
0001
1000
,  // measure 73
0000
0000
0100
0000
0010
0001
0010
0000
0001
0000
0000
0000
0000
0000
0000
0000
0000
0000
0000
0000
1000
0000
0000
0000
0000
0000
0000
0000
0000
0000
0000
0000
,  // measure 74
0020
0000
0002
0000
,  // measure 75
0000
0000
0000
0033
,  // measure 76
0000
0100
0000
0100
1000
0000
1000
0000
,  // measure 77
0000
0010
0000
0000
0000
1000
0000
0000
,  // measure 78
0000
0002
0000
0000
0000
0100
0000
0000
,  // measure 79
0000
0100
0000
0100
0000
0000
0000
0003
,  // measure 80
0010
0100
1000
0100
1000
0100
0010
0100
,  // measure 81
0001
0000
0000
0000
0200
0000
0000
2300
0000
0000
0000
3020
0000
0000
0000
0032
,  // measure 82
0000
0000
0000
0000
0103
0000
0000
0020
0000
0000
0000
1030
0000
0000
0000
0200
,  // measure 83
0000
0000
0000
0000
0310
0000
0000
0100
0000
0000
0000
1000
0000
0000
0000
1001
,  // measure 84
0000
0000
0000
0000
0100
0000
0000
0010
0000
0000
0000
0002
0000
0000
0003
0000
,  // measure 85
0010
0000
0000
0000
1020
0000
0000
0100
0000
0000
0000
0100
0000
0000
0000
0001
,  // measure 86
0000
0000
0000
0000
1030
0000
0000
0010
0000
0000
0000
0100
0000
0000
0000
0100
,  // measure 87
0000
0000
0000
0000
2001
0000
0000
0001
0000
0000
0000
0010
0000
0000
0000
0010
,  // measure 88
0000
0000
0000
0000
0100
0000
0000
0100
0000
0000
0000
0200
0000
0000
0000
0000
,  // measure 89
3300
0000
0210
0000
0301
0000
1000
0100
,  // measure 90
0201
0000
2300
0000
3001
0000
0010
1000
,  // measure 91
0120
0000
0032
0000
1003
0000
0010
0001
,  // measure 92
1200
0300
0021
1030
0001
0102
0103
0010
,  // measure 93
1200
0300
0102
0003
1000
0000
1000
0010
,  // measure 94
0210
0300
2010
3010
0100
0000
0001
0100
,  // measure 95
0012
0103
0120
1000
0130
0000
0010
0100
,  // measure 96
1000
0000
0000
0001
0000
0010
0000
0100
0000
1000
0000
0100
0000
0001
0000
1000
,  // measure 97
0000
0001
0000
0100
0000
0010
0000
0100
0000
0010
0000
0100
0000
0010
0000
0001
,  // measure 98
0000
0100
0000
0001
0000
0010
0000
0001
0000
0010
0000
0001
0000
0010
0000
0001
,  // measure 99
0000
0010
0000
0100
0000
0010
0000
0100
0000
0010
0000
1000
0000
0001
0000
0000
,  // measure 100
1001
0000
0000
1001
0000
0000
1001
0000
,  // measure 101
0000
0000
0000
0000
0000
0000
0000
0000
0000
0000
1000
0000
0000
0100
0000
0000
,  // measure 102
1000
0000
0000
0000
0000
0000
0000
0000
0000
0000
0011
0000
0000
0000
0000
0000
0000
0000
0000
0000
0000
0001
0000
0000
,  // measure 103
0000
0000
0000
0100
0000
0000
0000
0000
0000
0000
0000
0000
0001
0000
0000
0000
0000
0000
0000
0000
0000
0000
0000
0000
0000
0000
0000
0000
0000
0000
0000
0000
0101
0000
0000
0000
0000
0000
0000
0000
0000
0000
0000
0000
0000
0000
0000
0000
,  // measure 104
0000
0000
0000
0000
0000
0000
1000
0000
0000
0000
0000
0000
0000
0000
0000
0010
0000
0000
0000
0000
0000
0000
0000
0000
0100
0000
0000
0000
0000
0000
0000
0000
0000
0000
0000
0000
0000
0000
0000
0000
0000
0000
0000
0000
1100
0000
0000
0000
,  // measure 105
0000
0000
0000
0000
0000
0000
0010
0000
0000
1000
0000
0000
0010
0000
0000
0000
,  // measure 106
0000
0000
1001
0000
0000
0000
0000
1100
0000
0000
0000
0000
,  // measure 107
1001
0000
0000
0000
0000
0011
0000
0000
0000
0000
0110
0000
,  // measure 108
0000
0000
0000
1100
0000
0000
0000
0000
1000
0000
0000
0100
,  // measure 109
0000
0000
0010
0000
0000
0001
0000
0000
0010
0000
0000
0101
,  // measure 110
0000
0000
0000
0000
0000
0000
0000
0000
1000
0000
0000
0010
,  // measure 111
0000
0000
1100
0000
0000
0000
0000
0000
0000
0000
0000
0010
,  // measure 112
0000
0000
1000
0000
0000
0101
0000
0000
0000
0000
0000
0000
,  // measure 113
0000
0000
1000
0000
0000
0010
0000
0000
0011
0000
0000
0000
,  // measure 114
0000
0110
0000
0000
0000
0000
1100
0000
0000
0000
0000
0110
,  // measure 115
0000
0000
0000
0000
0011
0000
0000
0000
0000
0110
0000
0000
,  // measure 116
0000
0000
1100
0000
0000
0000
0000
0101
0000
0000
0000
0000
,  // measure 117
0110
0000
0000
0000
,  // measure 118
0000
0000
0000
0000
0010
0000
0100
0000
0020
0000
0000
0000
,  // measure 119
0000
0000
0000
0000
0000
0000
0000
1000
0000
0100
0000
2030
,  // measure 120
0000
0000
0000
0000
0000
0000
0000
0000
0000
0000
0010
0000
,  // measure 121
0001
0000
3020
0000
0000
0000
0000
0000
0000
0000
0000
0000
,  // measure 122
0000
1000
0000
0100
0000
2030
0000
0000
0000
0000
0001
0000
,  // measure 123
0000
0000
0000
0001
0000
0000
0000
0000
3001
0000
0000
0000
,  // measure 124
0010
0100
1000
0100
,  // measure 125
0020
0001
1030
0001
,  // measure 126
0010
1000
0001
1000
,  // measure 127
0200
0010
1300
0010
,  // measure 128
1000
0000
0100
0000
0100
0000
1000
0001
,  // measure 129
0100
1000
0001
1000
0100
0010
0001
0000
,  // measure 130
0010
1000
0002
1000
,  // measure 131
0013
1000
0200
0010
,  // measure 132
1300
0000
0000
0010
0000
0000
1000
0000
0000
0000
0010
0000
,  // measure 133
0000
0100
0000
0000
0000
0100
0000
0000
1000
0000
0000
0000
,  // measure 134
0000
1000
0000
0000
0100
0000
0000
0000
0100
0000
0000
0001
,  // measure 135
0000
0001
0100
1000
,  // measure 136
0000
0010
0000
0000
1001
0000
0000
0000
0001
0000
0000
0010
,  // measure 137
0000
0000
0000
0000
0100
0000
0000
0000
0000
0000
0001
0000
0000
0000
0000
0000
0010
0000
0000
1000
0000
0000
0100
0000
,  // measure 138
0000
1000
0000
0000
0010
0000
0000
1000
0000
0000
0100
0000
0000
0000
0000
0000
1000
0000
0000
0000
0000
0000
0001
0000
,  // measure 139
0000
0000
0000
0000
0100
0000
0000
0000
0000
0000
1000
0000
0000
0000
0000
0000
0010
0000
0000
0001
0000
0000
0100
0000
,  // measure 140
0000
0001
0000
0000
1000
0000
0000
0001
0000
0000
0100
0000
0000
0000
0000
0000
1000
0000
0000
0000
0000
0000
1000
0000
,  // measure 141
0000
0000
0000
0000
0100
0000
0000
0000
0000
0000
1000
0000
0000
0000
0000
0000
0100
0000
0000
1000
0000
0000
0100
0000
,  // measure 142
0000
1000
0000
0000
0100
0000
0000
0010
0000
0000
0001
0000
0000
0100
0000
0000
0020
0000
0000
0000
0000
0000
0000
0000
,  // measure 143
0000
0000
0000
0000
0200
0000
0030
0000
0000
0000
0000
2000
,  // measure 144
0000
0300
0000
0000
0000
0000
0002
0000
3000
0000
0000
0000
,  // measure 145
0000
0000
0000
0000
0000
0000
0003
0000
0000
0000
0000
1000
,  // measure 146
0000
0001
0000
0000
0100
0000
0000
0000
0000
0000
0010
0000
0000
0000
0000
0000
0001
0000
0000
0000
0000
0000
1000
0000
,  // measure 147
0000
0001
0000
0000
0100
0000
0000
0000
0000
0000
0010
0000
0000
0000
0000
0000
0001
0000
0000
0000
0000
0000
0000
0000
,  // measure 148
0000
0000
0000
0000
0010
0000
0000
0000
0000
0000
0100
0000
0000
1000
0000
0000
0010
0000
0000
0000
0000
0000
0100
0000
,  // measure 149
0000
0000
0000
0000
0001
0000
0000
0100
0000
0000
1000
0000
0000
0000
0000
0000
0001
0000
0000
0000
0000
0000
1000
0000
,  // measure 150
0000
0001
0000
0000
0100
0000
0000
0000
0000
0000
0010
0000
0000
0000
0000
0000
0001
0000
0000
0000
0000
0000
1000
0000
,  // measure 151
0000
0001
0000
0000
0100
0000
0000
0000
0000
0000
0010
0000
0000
0000
0000
0000
0001
0000
0000
0000
0000
0000
0000
0000
,  // measure 152
0000
0000
0000
0000
0010
0000
0000
0000
0000
0000
0100
0000
0000
1000
0000
0000
0010
0000
0000
0000
0000
0000
0100
0000
,  // measure 153
0000
0000
0000
0000
0001
0000
0000
0100
0000
0000
1000
0000
0000
0000
0000
0000
0001
0000
0000
0000
0000
0000
1000
0000
,  // measure 154
0000
0001
0000
0000
0100
0000
0000
0000
0000
0000
0010
0000
0000
0000
0000
0000
0001
0000
0000
0000
0000
0000
1000
0000
,  // measure 155
0000
0001
0000
0000
0100
0000
0000
0000
0000
0000
0010
0000
0000
0000
0000
0000
0001
0000
0000
0000
0000
0000
0000
0000
,  // measure 156
0000
0000
0000
0000
0010
0000
0000
0000
0000
0000
0100
0000
0000
1000
0000
0000
0010
0000
0000
0000
0000
0000
0100
0000
,  // measure 157
0000
0000
0000
0000
0001
0000
0000
0100
0000
0000
1000
0000
0000
0000
0000
0000
0001
0000
0000
0000
0000
0000
1000
0000
,  // measure 158
0000
0001
0000
0000
0100
0000
0000
0000
0000
0000
0010
0000
0000
0000
0000
0000
0001
0000
0000
0000
0000
0000
1000
0000
,  // measure 159
0000
0001
0000
0000
0100
0000
0000
0000
0000
0000
0010
0000
0000
0000
0000
0000
0001
0000
0000
0000
0000
0000
0000
0000
,  // measure 160
0000
0000
0000
0000
0010
0000
0000
0010
0000
0000
0100
0000
0000
0000
0000
0000
0001
0000
0000
0000
0000
0000
0100
0000
,  // measure 161
0000
0000
0000
0000
0001
0000
0000
0100
0000
0000
0010
0000
0000
0000
0000
0000
0200
0000
0000
0000
0000
0000
0000
0000
,  // measure 162
0000
0000
0300
0000
0000
0000
2002
0000
0000
0000
0000
0000
3003
0000
0000
0000
0000
0000
0100
0000
0000
1000
0000
0000
,  // measure 163
0100
0000
0010
0000
0000
0100
2000
0100
,  // measure 164
0000
3200
0010
0000
0320
0001
0000
0032
,  // measure 165
0000
0010
0000
0013
0000
1000
0000
0000
,  // measure 166
0001
0010
0100
1000
0000
0000
0000
0000
,  // measure 167
0010
0100
0010
2000
0000
0000
0001
3002
,  // measure 168
0000
0203
0000
0320
0000
1000
0000
1030
,  // measure 169
0000
0100
0010
0001
0100
0000
0000
0100
,  // measure 170
1000
0100
0002
0000
0000
0000
0000
0000
,  // measure 171
0203
0010
0010
0000
0000
2300
0000
0000
,  // measure 172
0100
0000
0000
3200
0000
0000
0000
0000
,  // measure 173
1000
0300
1000
0010
0001
0100
0020
0000
,  // measure 174
0000
0000
0000
0000
0100
0100
0100
0000
,  // measure 175
0000
1000
0000
0000
1000
0000
0000
0000
,  // measure 176
0000
0000
0000
0000
0001
0001
0001
0001
,  // measure 177
0000
0030
1000
0100
0010
0001
0010
0000
,  // measure 178
1000
0000
0100
0010
0000
0000
0010
0001
,  // measure 179
0000
0000
1000
0000
0000
0100
0000
0000
0010
0000
0100
0001
1000
0000
0100
0000
,  // measure 180
0010
0010
0000
0100
0100
0000
0000
0010
,  // measure 181
0100
0000
1000
0000
0001
0000
0100
0000
1000
0000
0100
0001
0100
0000
1000
0000
,  // measure 182
0100
0000
0010
1000
0010
0000
0100
0000
0010
0000
0001
1000
0010
0000
0100
1000
,  // measure 183
0100
0000
0010
0001
0010
0100
1000
0000
0000
0000
0200
0000
0010
0000
0001
0000
,  // measure 184
1300
0001
1000
0010
0001
0000
1000
1000
,  // measure 185
0100
0001
0010
1000
0100
0200
0000
1300
,  // measure 186
0000
0000
0000
0000
1000
0000
0000
1000
0000
0000
1000
0000
0000
0000
0100
0000
,  // measure 187
0000
0000
0000
0000
0010
0000
0000
0010
0000
0000
0010
0001
0010
0000
0100
0000
,  // measure 188
1000
0200
0000
0010
0310
0000
0000
0000
,  // measure 189
0000
0000
1001
0000
0000
0000
0000
0000
0000
0000
1000
0010
0100
0000
0001
0000
,  // measure 190
1000
0100
0010
0000
0010
0000
1000
0010
0001
0000
0010
0000
0100
0010
0001
0000
,  // measure 191
0010
0000
1000
0100
0010
0000
1001
0000
0100
0000
1000
0000
0100
0000
1000
0000
,  // measure 192
0100
0000
1000
0000
0100
0000
1000
0000
0100
0000
1000
0010
0001
0100
0001
0100
,  // measure 193
0001
0100
0001
0100
0001
0100
0001
0000
0000
0000
2002
0000
0000
0000
0003
0000
,  // measure 194
0000
3001
0010
0100
0200
0000
0010
1300
,  // measure 195
0100
0010
0000
1000
0001
1000
0000
0001
,  // measure 196
1000
0001
0000
0001
1200
0000
0310
0001
,  // measure 197
0201
0000
1300
0100
0210
0000
0300
1000
,  // measure 198
0010
0001
0000
0010
0200
0000
1300
0020
,  // measure 199
0100
1030
0100
0010
0100
0001
0000
1200
,  // measure 200
0010
0310
0000
1000
0100
0000
0001
0100
,  // measure 201
0000
1100
0100
0001
0000
0100
1000
1100
,  // measure 202
0000
0010
0100
0101
0000
0100
0001
1100
,  // measure 203
0000
0010
0001
1010
0100
0010
0100
1000
,  // measure 204
0100
0001
0100
0010
2100
0000
3010
0010
,  // measure 205
0201
0000
1300
1000
0120
0000
0030
1100
,  // measure 206
0100
0010
0100
1010
1000
0010
0100
0110
,  // measure 207
0001
0010
0010
1001
0010
1000
0010
1100
,  // measure 208
1000
0000
0010
0000
1000
0000
0011
0000
0100
0000
1000
0010
1000
0000
0100
0000
,  // measure 209
0100
0000
1000
0001
1000
0000
0100
1000
0100
0000
0001
0000
0010
1000
0010
0000
,  // measure 210
0001
0000
0100
0001
0100
0001
0100
0000
0010
0000
0001
0000
1001
0000
0000
0000
;
