#TITLE:Dopamine;
#SUBTITLE:;
#ARTIST:U1 overground;
#TITLETRANSLIT:;
#SUBTITLETRANSLIT:;
#ARTISTTRANSLIT:;
#GENRE:;
#CREDIT:;
#BANNER:Dopamine.png;
#BACKGROUND:Dopamine-bg.png;
#LYRICSPATH:;
#CDTITLE:;
#MUSIC:Dopamine.mp3;
#OFFSET:4.360000;
#SAMPLESTART:17.479784;
#SAMPLELENGTH:14.999987;
#LASTBEATHINT:5.567520;
#SELECTABLE:YES;
#BPMS:0.000000=99.419998
,24.000000=102.879997
,25.000000=400.000000
,217.000000=800.000000
,221.000000=400.000000
,223.000000=200.000000
,229.000000=400.000000
,237.000000=600.000000
,242.000000=800.000000
,251.000000=400.000000
,307.000000=50.000000
,308.000000=100.000000
,324.000000=200.000000
,364.000000=100.000000
,372.000000=200.000000
,380.000000=100.000000
,388.000000=200.000000
,420.000000=400.000000
;
#STOPS:
;
#BGCHANGES:;
#KEYSOUNDS:;
#ATTACKS:;

//---------------dance-single - ----------------
#NOTES:
     dance-single:
     :
     Challenge:
     19:
     1.136803,2.673377,0.649111,0.144247,0.813393,993.000000,912.000000,81.000000,18.000000,0.000000,0.000000,1.136803,2.673377,0.649111,0.144247,0.813393,993.000000,912.000000,81.000000,18.000000,0.000000,0.000000:
// measure 0
0000
0000
0000
0000
,  // measure 1
0000
0000
0000
0000
,  // measure 2
0000
0000
0000
0000
0000
0000
0000
0000
0010
0000
0000
0000
1000
0100
1000
0000
0000
0000
0100
0010
0100
0000
0000
0000
0010
0001
0010
0001
0010
0000
1000
0100
,  // measure 3
0010
0100
1000
0100
0010
0000
0000
0000
0010
0000
0000
0000
0100
0010
0001
0000
0000
0000
1000
0100
0010
0000
0000
0000
0001
0010
0001
0010
0001
0000
1000
0000
,  // measure 4
0010
0000
1000
0000
0010
0000
0000
0000
0001
0000
0000
0000
1000
0010
1000
0000
0000
0000
0100
1000
0100
0000
0000
0000
0001
0100
0001
0000
0010
0000
1000
0000
,  // measure 5
0010
0000
0001
0000
1000
0000
0001
0000
1000
0000
0001
0000
0010
0000
0001
0000
0100
0000
0001
0000
0100
0000
0001
0000
1000
0100
1000
0100
1000
0100
1000
0100
,  // measure 6
0001
0010
0001
0010
0001
0010
0001
0010
0001
0000
0000
0000
0100
0000
0000
0000
0001
0000
0000
0000
0000
0000
0000
0000
0010
0000
0000
0000
1000
0000
0000
0000
,  // measure 7
0010
0100
1000
0001
,  // measure 8
1000
0000
0001
1000
0001
0000
0100
1000
,  // measure 9
0100
0010
0001
0100
,  // measure 10
0010
0000
0001
1000
0001
0000
0100
1000
,  // measure 11
0100
0000
1000
0001
0010
0000
0100
0001
,  // measure 12
1000
0000
1000
0100
0000
0100
0001
0000
,  // measure 13
0100
0000
1000
0100
1000
0100
1000
0100
,  // measure 14
0010
0001
0010
0001
0010
0000
1000
0010
,  // measure 15
1000
1000
0001
0100
,  // measure 16
1000
0000
0010
0100
0010
0000
0001
1000
,  // measure 17
0001
1000
0010
1000
,  // measure 18
0100
0000
0010
1000
0100
0000
0010
0100
,  // measure 19
0001
0000
0100
0001
1000
0000
0100
1000
,  // measure 20
0010
0000
0000
0100
0000
1000
0000
0010
0000
1000
0000
0100
,  // measure 21
0000
0001
0000
0100
0000
1000
0000
0010
0000
0100
0000
0002
,  // measure 22
0000
0000
0003
0000
0000
0000
0100
0000
0000
1000
0000
0000
0100
0000
0000
0000
0000
0000
0100
0000
0000
0010
0000
0000
,  // measure 23
0100
1100
0010
0101
,  // measure 24
0000
0000
0100
1000
0100
0000
0100
0001
,  // measure 25
0100
0000
0000
0000
0000
0000
0001
0000
0000
0000
1000
0000
0000
0000
0010
0000
0000
0000
1000
0000
0000
0001
0000
0000
,  // measure 26
0100
0000
0001
0100
0001
0000
0100
1000
,  // measure 27
0100
0000
0000
0010
0000
0000
1000
0000
0000
0010
0000
1000
,  // measure 28
0000
0000
0010
0000
0000
0000
0100
0000
0000
0001
0000
0000
0100
0000
0000
0000
0000
0000
0001
0000
0000
1000
0000
0000
,  // measure 29
0001
0000
0100
1000
0100
1000
0100
0001
,  // measure 30
0100
0001
0100
0010
0100
0000
1000
0001
,  // measure 31
1000
0110
1000
0110
,  // measure 32
0000
0000
0010
0001
0010
0000
0100
1000
,  // measure 33
0100
0000
0000
0000
0000
0000
0010
0000
0000
0000
1000
0000
0000
0000
0001
0000
0000
0000
0100
0000
0000
1000
0000
0000
,  // measure 34
0010
0000
0010
1000
0010
0000
0100
0001
,  // measure 35
0100
0000
0000
0010
0000
0000
0100
0000
0000
0010
0000
0100
,  // measure 36
0000
0000
0001
0000
0000
0000
1000
0000
0000
0001
0000
0000
1000
0000
0000
0000
0000
0000
0100
0000
0000
1000
0000
0000
,  // measure 37
0100
0000
0010
0001
0010
1000
0100
1000
,  // measure 38
0100
0000
0010
0100
1000
0100
0010
0000
,  // measure 39
0010
1000
0010
0001
0010
1000
0000
0100
,  // measure 40
0010
0100
0010
0000
1000
0000
0010
0000
,  // measure 41
1000
0010
0100
0010
,  // measure 42
1000
0000
0010
1000
0000
0100
0010
0000
,  // measure 43
1001
0100
1000
0001
,  // measure 44
0010
1000
0001
1000
,  // measure 45
0100
1100
0100
0101
,  // measure 46
0100
0000
0010
1000
0000
1000
0010
0000
,  // measure 47
0100
0000
0001
0000
0010
0000
1000
0100
,  // measure 48
0001
0000
0100
0010
0001
0000
0100
1000
,  // measure 49
0100
0010
0100
0000
0010
0000
1000
0000
,  // measure 50
0010
0000
1000
0010
0000
0010
0001
0000
,  // measure 51
0010
0000
1000
0000
0010
0001
0010
0001
,  // measure 52
0010
0001
0010
0000
1000
0100
1000
0000
,  // measure 53
0100
0001
0100
0000
1000
0000
0100
0000
,  // measure 54
0001
0200
0000
0000
,  // measure 55
0000
0000
0000
0000
0000
0000
0320
0000
0000
0000
0000
0000
0000
0000
0000
0000
0000
0000
2030
0000
0000
3000
0100
0000
,  // measure 56
0001
0000
0000
0000
0001
0000
0100
0000
0000
1100
0000
0000
0000
0000
0000
0000
0000
0000
1000
0000
0000
0100
0000
0000
,  // measure 57
0001
0000
0010
1000
0010
0000
0100
0000
,  // measure 58
0010
0000
0001
0010
0001
0000
1000
0000
,  // measure 59
0100
0000
0000
0000
1000
0000
0000
0100
0000
0000
0001
0000
0000
0000
0000
0000
,  // measure 60
1000
0000
0000
0000
0000
0000
0010
0000
0000
0000
0000
0000
0001
0000
0000
0000
0000
0000
0000
0000
0000
0000
0000
0000
0000
0010
0000
0000
0000
0000
0000
0000
,  // measure 61
0000
1000
0000
0000
0000
0000
0000
0000
0000
0010
0000
0000
0000
0000
0000
0000
0000
1000
0000
0000
0000
0000
0000
0000
0000
0001
0000
0000
0000
0000
0000
0000
,  // measure 62
0000
0100
0000
0000
0000
0000
0000
0000
0000
0010
0000
0000
0000
0000
0000
0000
0000
1000
0000
0000
0000
0000
0000
0000
0000
0100
0000
0000
0000
0000
0000
0000
,  // measure 63
0001
1100
1000
0011
,  // measure 64
0001
0000
1100
0000
1000
0000
0010
0001
,  // measure 65
0200
0000
1000
0001
0320
0000
0100
0001
,  // measure 66
2030
0002
3000
0103
,  // measure 67
1000
0010
0100
0001
,  // measure 68
0010
0000
1000
0000
0010
0000
0001
0010
,  // measure 69
0100
0001
0100
1000
0010
0100
1000
0010
,  // measure 70
0001
0010
1000
0010
0001
0000
0110
0000
,  // measure 71
1000
0110
0001
0110
,  // measure 72
1000
0000
0110
0000
0001
0000
0100
0010
,  // measure 73
0200
0000
0010
0001
0320
0000
0001
0100
,  // measure 74
0032
0000
2000
0000
0003
0000
3010
0100
,  // measure 75
0010
0000
0100
1000
0100
0000
0010
0100
,  // measure 76
1000
0100
1000
0100
0010
0000
0200
0000
,  // measure 77
0310
0000
0010
0000
0000
0000
1000
0100
0010
0001
0000
0000
0001
0010
0100
1000
0000
0010
0100
0000
0010
0100
0010
0100
,  // measure 78
0001
0000
1000
0000
0100
0000
1000
0000
0100
0000
1000
0000
0100
0000
0010
0000
0001
0000
0010
0000
0001
0000
0010
0000
0100
0000
1000
0000
0001
0000
0100
1000
0100
0000
0001
0000
1000
0000
0001
0000
0010
0000
1000
0100
0010
0000
0001
0000
,  // measure 79
0100
0000
0000
0000
0100
0000
0000
0000
0000
0000
0000
0000
0001
0000
1000
0000
0001
0000
1000
0000
0001
0000
1000
0000
0010
0000
0100
0000
0010
0000
1000
0001
1000
0000
0010
0000
1000
0000
0010
0000
1000
0000
0100
0000
0000
0000
0000
0000
,  // measure 80
1001
0000
1000
0100
0000
0100
0010
0000
0010
0001
0000
0001
0100
0010
0100
1000
0100
0001
0100
1000
0100
0001
0100
0001
,  // measure 81
1000
0000
0000
0110
0000
0000
1000
0100
0010
0001
0000
0000
,  // measure 82
1100
0000
0000
0110
0000
0000
0100
0010
0001
1000
0000
0000
,  // measure 83
0010
0100
0001
0100
0000
0000
1000
0100
0010
0001
0000
1000
,  // measure 84
1100
0000
0010
0110
0000
1000
0011
0000
0010
1001
0000
0000
,  // measure 85
0010
1000
0010
1000
0010
1000
0010
0100
1000
0100
0000
1000
,  // measure 86
0100
0000
0001
1000
0000
0010
0100
0000
1000
0001
0000
0000
,  // measure 87
1010
0000
0000
0101
0000
0000
0011
0000
0000
1010
0000
0001
,  // measure 88
0010
0000
0000
0000
1000
0000
0010
0000
0000
0000
0001
0000
0100
0000
0000
0000
1000
0000
0100
0000
0000
0001
0000
0000
,  // measure 89
0010
0000
0000
0000
0000
0000
0110
0000
0000
0001
0000
0000
1000
0000
0100
0000
0010
0000
0001
0000
0000
0000
0000
0000
,  // measure 90
1100
0000
0000
0000
0000
0000
0110
0000
0000
1000
0000
0000
0100
0000
0010
0000
0001
0000
1000
0000
0000
0001
0000
0000
,  // measure 91
0010
0000
0100
0000
0001
0000
0110
0000
0000
1000
0100
1000
0100
1000
0100
0000
0010
0000
0001
0000
0010
0000
0100
0000
,  // measure 92
1000
0000
0000
0001
0100
0001
0100
0000
0000
0010
0000
0000
1000
0000
0001
0000
1000
0000
0001
0000
0000
0000
1000
0100
,  // measure 93
0010
0100
1010
0100
0010
0001
0110
1000
,  // measure 94
0100
0010
0101
0010
0100
0010
1010
0001
,  // measure 95
1000
0000
0001
0000
0010
0000
1001
0000
0000
0100
0001
0100
0001
0100
0001
0000
1000
0000
0010
0000
1000
0000
0001
0000
,  // measure 96
0100
0000
0000
0010
0001
0010
0001
0000
0000
1000
0000
0000
0100
0000
0010
0000
0100
0000
0010
0000
0000
0000
0001
0100
,  // measure 97
1000
0000
0000
0000
0010
1000
0010
0000
0000
0000
0001
0010
0001
0000
0100
0000
,  // measure 98
0110
1000
1010
0000
0011
0010
1010
0000
,  // measure 99
0002
0000
0000
0000
0013
0100
1000
0000
0000
0000
1000
0100
0010
0000
0000
0000
,  // measure 100
0200
0000
0000
0000
1300
0100
0002
0000
0000
0000
0103
0010
0001
0000
0000
0000
,  // measure 101
0100
1000
0000
1000
0100
0000
0010
0000
1000
0000
1100
0000
0101
0000
0000
0000
,  // measure 102
0100
0010
0000
1000
0010
0000
0100
0000
0010
0000
0101
0000
1100
0000
0000
0000
,  // measure 103
0010
1000
0010
0000
0100
0001
0100
0000
1100
0000
0110
0000
0011
0000
0000
0000
,  // measure 104
0100
0001
0100
0000
0100
1000
0100
0000
0001
0010
0100
1000
0100
0010
0001
0010
,  // measure 105
0100
1000
0100
1000
0100
0001
0010
0001
,  // measure 106
0010
0001
0010
0001
0100
1000
0100
1000
,  // measure 107
0100
0010
0100
0001
0100
0001
0100
1000
,  // measure 108
0100
0000
0110
0000
,  // measure 109
1010
0000
0000
0000
0001
0010
1000
0010
,  // measure 110
1000
0010
1000
0010
0001
0010
0001
0010
,  // measure 111
0001
0010
0100
1000
0100
0000
0001
0000
,  // measure 112
1100
0000
0101
0000
0011
0000
0100
1000
,  // measure 113
0100
0000
0110
0000
0001
0000
1000
0001
,  // measure 114
1000
0000
0011
0000
0100
0000
0010
0001
,  // measure 115
0010
0000
0101
0000
0010
0000
0100
1000
,  // measure 116
0100
0000
1001
0000
0100
0000
0001
0100
,  // measure 117
0001
0000
0100
1000
0100
0000
1000
0010
,  // measure 118
1000
0000
0100
0010
0100
0000
1000
0010
,  // measure 119
1000
0010
1000
0010
0001
0010
0001
0010
,  // measure 120
0001
0010
0100
1000
0100
0010
0001
0000
,  // measure 121
0110
1000
1010
0100
,  // measure 122
1001
0010
0110
0001
,  // measure 123
1010
0100
0011
0100
,  // measure 124
0101
1000
0110
0001
,  // measure 125
0110
1000
1001
0100
,  // measure 126
0011
0001
1010
0100
,  // measure 127
0110
1000
1010
0100
,  // measure 128
1001
0010
0110
0001
,  // measure 129
1010
0100
0011
0100
,  // measure 130
0101
1000
0110
0001
,  // measure 131
0110
1000
1001
0100
,  // measure 132
0011
0001
1010
0100
,  // measure 133
0010
0001
0010
0001
0010
1000
0100
1000
,  // measure 134
0100
1000
0100
1000
0010
0001
0010
0001
,  // measure 135
0010
0100
0010
1000
0010
1000
0010
0100
,  // measure 136
0010
0001
0010
0100
0010
0100
1000
0100
,  // measure 137
2002
0000
0000
0000
,  // measure 138
0000
0000
0000
0000
,  // measure 139
3003
0000
0000
0000
;
