#TITLE:cliffs of dover;
#SUBTITLE:;
#ARTIST:eric johnson;
#TITLETRANSLIT:;
#SUBTITLETRANSLIT:;
#ARTISTTRANSLIT:;
#GENRE:;
#CREDIT:;
#BANNER:cliffs of dover.png;
#BACKGROUND:cliffs of dover-bg.png;
#LYRICSPATH:;
#CDTITLE:;
#MUSIC:cliffs of dover.ogg;
#OFFSET:0.000000;
#SAMPLESTART:54.659916;
#SAMPLELENGTH:14.999986;
#SELECTABLE:YES;
#BPMS:0.000000=188.839996
,426.666656=93.440002
,446.833344=188.839996
,454.833344=93.269997
,477.916656=188.839996
,694.500000=188.000000
;
#STOPS:
;
#BGCHANGES:;
#KEYSOUNDS:;
#ATTACKS:;

//---------------dance-single - ----------------
#NOTES:
     dance-single:
     :
     Challenge:
     17:
     0.676046,1.197758,0.416508,0.424441,1.382410,1193.000000,1088.000000,105.000000,107.000000,0.000000,0.000000,0.676046,1.197758,0.416508,0.424441,1.382410,1193.000000,1088.000000,105.000000,107.000000,0.000000,0.000000:
// measure 0
0000
0000
0000
0000
,  // measure 1
0000
0000
0000
0000
,  // measure 2
0000
0000
0000
0000
,  // measure 3
0000
0000
0000
0000
,  // measure 4
0000
0000
0000
0000
,  // measure 5
0000
0000
0000
0000
,  // measure 6
0000
0000
0000
0000
,  // measure 7
0000
0000
0000
0000
,  // measure 8
0000
0000
0000
0000
,  // measure 9
0000
0000
0000
0000
,  // measure 10
0000
0000
0000
0000
,  // measure 11
0000
0000
0000
0000
,  // measure 12
0000
0000
0000
0000
,  // measure 13
0000
0000
0000
0000
,  // measure 14
0000
0000
0000
0000
,  // measure 15
0000
0000
0000
0000
,  // measure 16
0000
0000
0000
0000
,  // measure 17
0000
0000
0000
0000
,  // measure 18
0000
0000
0000
0000
,  // measure 19
0000
0000
0000
0000
,  // measure 20
0000
0000
0000
0000
0000
0000
0000
0000
0000
0000
0000
0010
,  // measure 21
0100
0000
0100
1000
0000
1000
0100
0000
0100
0001
0000
0001
,  // measure 22
0010
0000
0010
0100
0000
0100
1000
0000
1000
0010
0000
0010
,  // measure 23
0001
0000
0001
0010
0000
0010
1000
0000
0100
1000
0000
1000
,  // measure 24
0001
0000
0100
0001
0000
0010
0001
0000
0001
0010
0000
0100
,  // measure 25
0110
0000
0100
1000
0000
0001
0010
0000
0010
0100
0000
0100
,  // measure 26
1000
0000
1000
0100
0000
0100
0010
0000
0010
0001
0000
0010
,  // measure 27
0100
0000
0110
0000
0000
0100
1000
0000
0110
0000
0000
0010
,  // measure 28
0001
0000
0110
0000
0000
0010
0100
0000
0001
1000
0100
0010
,  // measure 29
0001
0000
1000
0100
0000
0010
0000
0000
0100
1000
0000
0010
,  // measure 30
0001
0000
1000
0100
0000
0001
0000
0000
1000
0100
0000
0100
,  // measure 31
0001
0000
0010
0001
0000
0100
0000
0000
1000
0100
0000
0001
,  // measure 32
0010
0000
0000
0000
1000
0000
0100
0000
0010
0000
0002
0000
0000
0000
0000
0000
0000
0000
0003
0000
0000
0010
0000
0100
,  // measure 33
0000
0000
0000
0100
0000
0010
0000
0000
0000
1000
0000
0100
0000
0000
0000
0100
0000
1000
0000
0000
0000
0100
0000
0001
,  // measure 34
0000
0000
0000
0001
0000
0100
0000
0000
0000
1000
0000
2002
0000
0000
0000
3003
0000
0000
0000
0000
0000
0010
0000
0100
,  // measure 35
0000
0000
0000
1000
0000
0100
0000
0000
0000
0100
0000
0010
0000
0000
0000
0010
0000
0001
0000
0000
0000
0100
0000
0010
,  // measure 36
0000
0000
0000
0010
0000
0100
0000
0000
0000
1000
0000
2002
0000
0000
0000
0000
0000
3003
0000
0000
0000
1000
0000
0001
,  // measure 37
0000
0000
0000
0000
0000
0100
0000
0000
0000
0000
0000
0000
0000
0000
0000
0010
0000
0001
0000
0000
0000
1000
0000
0100
,  // measure 38
0000
0000
0000
0001
0000
0010
0000
0100
0000
2000
0000
0000
0000
0000
0000
3000
0000
0000
0000
0000
0000
1000
0000
0100
,  // measure 39
0000
0000
0000
0001
0000
0100
0000
0000
0000
0010
0000
0000
0000
0000
0000
0010
0000
0000
0000
0000
0000
0100
0000
0001
,  // measure 40
0000
0000
0000
1000
0000
0100
0000
0010
0000
0002
0000
0000
0000
0000
0000
0003
0000
0000
0000
0000
1000
0000
0001
0000
,  // measure 41
0000
0001
1000
0000
1000
0100
0000
0100
0010
0000
0010
0001
,  // measure 42
0000
1000
0100
0000
0010
0001
0000
0000
0000
0000
1000
1002
,  // measure 43
0000
0000
0203
0000
0000
0300
0000
1000
0002
0000
0000
0203
,  // measure 44
0000
0000
0000
0000
0000
0000
0000
0000
1300
0000
0000
0000
0000
1000
0000
0100
0000
0010
0000
1000
0000
0100
0000
0000
,  // measure 45
0000
0100
0000
0010
0000
0000
0000
0010
0000
0100
0000
0000
0000
1000
0000
0100
0000
0000
0000
0010
0000
0100
0000
0000
,  // measure 46
0000
0001
0000
0010
0000
0000
0000
1000
0000
0000
0000
0000
0000
0001
0000
0010
0000
0000
0000
0010
0000
0100
0000
0000
,  // measure 47
0000
0100
0000
1000
0000
0000
0000
1000
0000
0001
0000
0000
0000
0001
0000
0010
0000
0000
0000
0000
0000
1001
0000
0000
,  // measure 48
0000
1000
0000
0100
0000
0000
0000
0100
0000
0002
0000
0000
0000
0000
0000
0003
0000
0000
0000
0000
1010
0000
0000
0000
,  // measure 49
1000
0100
0000
0100
0010
0000
0010
0001
0000
0010
1000
0000
,  // measure 50
0100
0001
0100
0010
1000
0000
0100
0010
0000
1000
0010
0000
,  // measure 51
0010
0001
0000
0100
0010
0000
1000
0100
0000
0000
0001
1000
,  // measure 52
0001
1000
0000
1000
0002
0000
0000
0000
0003
0000
0010
0000
,  // measure 53
0100
1000
0000
0100
1000
0000
0100
0001
0000
0001
0100
0000
,  // measure 54
0100
0001
0000
1000
0000
0000
0010
1000
0000
0100
0010
0000
,  // measure 55
0100
1000
0000
0010
0001
0000
0100
1000
0000
0000
1001
0000
,  // measure 56
1000
0100
0000
0100
0010
0000
0000
1001
0000
0000
0001
0000
,  // measure 57
0001
0100
0000
0100
0001
0000
0010
0100
0000
0100
0010
0000
,  // measure 58
1000
0100
0000
0100
1000
0000
1000
0100
0000
0100
0010
0000
,  // measure 59
0010
0001
0000
0001
0010
0000
0010
1000
0000
0000
1001
0000
,  // measure 60
1000
0001
0000
0000
1001
0000
0001
1000
0000
0100
0010
0000
,  // measure 61
0001
1000
0000
0100
0010
0000
0001
1000
0000
0010
0100
0000
,  // measure 62
1000
0000
0001
0000
0000
0000
0100
0000
0020
0000
0000
0000
0000
0000
0030
0000
0000
0000
0000
0001
0000
2002
0000
0000
,  // measure 63
0000
0000
3003
0000
0000
0000
0000
0100
0000
0000
0000
0000
0000
0001
0000
0220
0000
0000
0000
0000
0330
0000
0000
0000
,  // measure 64
0000
0001
0000
1000
0000
0001
0000
0000
0000
0000
0000
0000
0000
0001
0000
0100
0000
1000
0000
0100
0000
0001
0000
0000
,  // measure 65
0000
0001
0000
0100
0000
0000
0000
1000
0000
0010
0000
0000
0000
0100
0000
0010
0000
0000
0000
0001
0000
0100
0000
0000
,  // measure 66
0000
0001
0000
0010
0000
0000
0000
1000
0000
0220
0000
0000
0000
0000
0000
0330
0000
0000
0000
0000
0000
0010
0000
0000
,  // measure 67
0000
0001
0000
1000
0000
0000
0000
0220
0000
0000
0000
0000
0000
0000
0000
0330
0000
0000
0000
1000
0000
0200
0000
0000
,  // measure 68
0000
0010
0000
0000
0000
0000
0300
0010
0000
0002
0000
0000
0000
0100
0000
1000
0000
0100
0003
0010
0000
0001
0000
0000
,  // measure 69
0000
1000
0000
0100
0000
0000
0000
0010
0000
0000
0000
0000
0000
0001
0000
0010
0000
0000
0000
1000
0000
0100
0000
0000
,  // measure 70
0000
0100
0000
0010
0000
0000
0000
0010
0000
1001
0000
0000
0000
0000
0000
0100
0000
0000
0000
0000
0010
0000
0000
0000
,  // measure 71
0100
0000
1000
0000
0000
0000
0100
0000
0000
0000
0000
0000
0001
0000
0000
0000
0000
0000
0010
0000
0000
0000
0000
1000
,  // measure 72
0000
0100
0000
0010
0000
0002
0000
0000
0000
0000
0000
0000
0000
0003
0000
0000
0000
1000
0000
0100
0000
0000
0000
0100
,  // measure 73
0000
1000
0000
0000
0000
0100
0000
0001
0000
0000
0000
0001
0000
0100
0000
0000
0000
0001
0000
0010
0000
0000
0000
0010
,  // measure 74
0000
0001
0000
0000
0000
1001
0000
0000
0000
0000
0000
0010
0000
0100
0000
0010
0000
0100
0000
0001
0000
0000
0000
1001
,  // measure 75
0000
0000
0000
0000
0000
0001
0000
1000
0000
0000
0000
1000
0000
0001
0000
0000
0000
0100
0000
0010
0000
0000
0000
0000
,  // measure 76
0000
0000
0000
0000
0000
0000
0000
1001
0000
0000
1000
0000
0100
0000
0000
0000
0010
0000
0000
0000
0000
0000
0100
0000
,  // measure 77
0001
0000
0000
0000
0010
0000
0000
0000
0000
1000
0000
0001
0000
0000
0000
0010
0000
0000
0000
0000
0000
0001
0000
0010
,  // measure 78
0000
0000
0000
0001
0000
0000
0000
0000
0000
0010
0000
0200
0000
0000
0000
0000
0000
2300
0000
3000
0000
2000
0000
0000
,  // measure 79
0000
3000
0000
0020
0000
0000
0000
0000
0000
0030
0000
0000
0000
0000
0000
0010
0000
0000
0000
0000
0000
1000
0000
0001
,  // measure 80
0000
0000
0000
0200
0000
0000
0000
0000
0000
1300
0000
0001
0000
1000
0000
0001
0000
1000
0000
0000
0000
0100
0000
0010
,  // measure 81
0000
0000
0000
0001
0000
0010
0000
0000
0000
0010
0000
0001
0000
0000
0000
1000
0000
0100
0000
0000
0000
0100
0000
0001
,  // measure 82
0000
0000
0000
0010
0000
0001
0000
0000
0000
0000
0000
0000
0000
0000
0000
0000
2002
0000
0000
0000
0000
0000
0000
0000
,  // measure 83
0000
0000
0000
0000
0000
0003
0000
0000
0200
0000
0000
0000
,  // measure 84
0000
0000
3300
0000
0000
0000
0000
0001
0000
1000
0000
0001
0000
1000
0000
0001
0000
0000
0000
0100
0000
1000
0000
0000
,  // measure 85
0000
0010
0000
0100
0000
0000
0000
0001
0000
0010
0000
0000
0000
0001
0000
0100
0000
0000
0000
0010
0000
1000
0000
0000
,  // measure 86
0000
0001
0000
0000
0000
0000
0000
0001
0000
0100
0000
0001
0000
0100
0000
0001
0000
0000
0000
1000
0000
0100
0000
0000
,  // measure 87
0000
0100
0000
1000
0000
0000
0000
0100
0000
0010
0000
0000
0000
0000
0000
1001
0000
0000
0000
0001
0000
0110
0000
0000
,  // measure 88
0000
1000
0000
0220
0000
0000
0000
0000
0330
0000
0000
0000
0000
0000
0001
0000
0000
0000
0100
0000
1000
0000
0000
0000
,  // measure 89
1000
0100
0000
0100
0001
0000
0001
0100
0000
1000
0001
0000
,  // measure 90
0001
1000
0000
0010
0100
0000
0100
0010
0000
0001
1100
0000
,  // measure 91
1000
0011
0000
0000
1000
0100
1000
0100
0010
0100
0010
1000
,  // measure 92
0001
0000
2000
0000
0000
0000
0000
0000
0000
0000
3000
0000
0000
0100
0000
0000
0000
0001
0000
0100
0000
0000
0000
1000
,  // measure 93
0000
0100
0000
0000
0000
0001
0000
0100
0000
0000
0000
1000
0000
0100
0000
0000
0000
0001
0000
0100
0000
0000
0000
0110
,  // measure 94
0000
0000
0000
0000
0000
0010
0000
1000
0000
0000
0000
0010
0000
0001
0000
0000
0000
0010
0000
1000
0000
0000
0000
0010
,  // measure 95
0000
0001
0000
0000
0000
0010
0000
1000
0000
0000
0000
0000
0000
0110
0000
0000
0000
1001
0000
0010
0000
0000
0000
0100
,  // measure 96
0000
1001
0000
0000
0000
0000
0000
0110
0000
0000
0000
0000
0000
0100
0000
0000
0000
0010
0000
1000
0000
0000
0000
1000
,  // measure 97
0000
0100
0000
0000
0000
0100
0000
0010
0000
0000
0000
0010
0000
0001
0000
0000
0000
1000
0000
0100
0000
0000
0000
0100
,  // measure 98
0000
1000
0000
0000
0000
0100
0000
0010
0000
0000
0000
0010
0000
0001
0000
0000
0000
0001
0000
0010
0000
0000
0000
0010
,  // measure 99
0000
0100
0000
0000
0000
0100
0000
1000
0000
0000
0000
0000
0000
0001
0000
0000
0000
0110
0000
0110
0000
0000
0000
0000
,  // measure 100
0000
0100
0000
0000
0000
1001
0000
1001
0000
0000
0000
0100
0000
2010
0000
0000
0000
0000
0000
0010
0000
0000
0000
0010
,  // measure 101
0000
0000
0000
0000
0000
0000
0000
0000
0000
0000
0000
0000
0000
0000
0000
0000
0100
0000
0000
0000
0000
0000
0000
0000
0000
0000
0000
0000
0000
0001
0000
0000
0000
0000
0000
0000
0000
0000
0000
0000
0000
0000
0001
0000
0000
0000
0000
0000
,  // measure 102
0000
3001
0000
0000
0000
0000
0000
0000
0000
0000
0000
0000
0000
0001
0000
0201
0000
0000
0000
0000
0000
1000
0000
0000
,  // measure 103
0000
0000
1000
0000
0000
0000
0000
0000
0000
0000
0000
0000
0000
0000
0000
0000
0000
0000
0000
0000
0001
0000
0000
0000
0000
0000
0000
0000
0000
0000
0000
0000
0000
0010
0000
0000
0000
0000
0000
0000
0000
0000
0000
0000
0000
0000
0010
0000
,  // measure 104
0000
0000
0000
0310
0000
0000
0000
0000
0000
0000
0000
0000
0000
0000
0000
0000
0000
0000
1000
0000
0100
0000
1000
0000
,  // measure 105
0100
1000
0100
0010
0001
0010
0001
0010
0001
0010
0100
0010
,  // measure 106
0100
0000
0000
0000
0010
0000
0000
0000
0100
0000
0000
0000
0010
0000
0000
0000
1000
0000
0000
0000
0000
0000
0000
0000
0001
0000
0000
0000
1000
0000
0000
0000
0000
0000
0000
0000
2002
0000
0000
0000
0000
3003
0000
0000
0000
0000
0100
0000
,  // measure 107
1000
0000
0000
0000
0000
0000
0010
0000
0000
0000
0000
0000
0202
0000
0000
0000
0000
0303
0000
0000
0000
0000
0010
0000
0100
0000
0000
0000
0000
0000
0000
0000
0000
0000
0000
0000
1000
0000
0000
0000
0010
0000
0100
0000
0000
0000
0001
0000
,  // measure 108
0000
0000
0011
0000
0000
0100
0000
0000
1010
0000
0000
1100
0000
0000
0110
0000
0000
0000
2002
0000
0000
3003
0000
0001
,  // measure 109
1000
0000
0000
0000
0000
0000
0010
0000
0000
0000
0100
0000
0001
0000
0000
0000
0000
0000
0000
0000
0000
0000
0000
0001
0000
0100
0000
0000
0000
0000
0000
0000
0000
0000
0000
0000
0010
0000
0000
0000
0100
0000
1000
0000
0000
0000
0110
0000
,  // measure 110
0000
0000
1010
0001
0010
0100
1000
0000
0000
0000
1000
0100
0010
0000
0000
0110
0000
1000
0001
0000
0000
0000
0000
0010
,  // measure 111
2002
0000
0000
3003
0000
0000
0100
0000
0000
0000
0000
0100
0101
0000
0000
0000
0000
0000
0110
0000
0000
0000
1000
0000
,  // measure 112
0001
0000
0110
0000
0000
0010
1000
0000
0110
0000
0000
0010
,  // measure 113
0001
0000
0000
0000
0110
0000
0000
0000
0000
0000
1000
0000
0001
0000
0000
0000
0000
0101
0000
0000
0000
0000
1000
0001
,  // measure 114
0000
0000
0010
0000
0001
1100
0000
0000
0000
0000
0010
0100
0000
0000
0000
0000
0000
1020
0000
0000
0000
0030
0100
0010
,  // measure 115
0000
0000
0000
0000
0000
0000
0000
1001
0000
0000
0000
0000
0000
0001
0000
1000
0000
0000
0000
0010
0000
0000
0000
0000
0000
1000
0000
0001
0000
0000
0000
0201
0000
0000
0000
0000
0000
0000
0010
0000
0000
0000
0000
0000
0010
0000
0000
0000
,  // measure 116
0000
0000
1000
0000
0000
0000
0000
0000
1300
0000
0000
0010
0000
0001
0000
0000
0000
1000
0000
0000
0000
0000
0000
0100
0000
0001
0000
0000
0000
0210
0000
0000
0000
0000
0000
0000
1000
0000
0000
0000
0000
0000
1000
0000
0000
0000
0000
0000
,  // measure 117
0001
0000
0000
0000
0000
0000
0000
0000
0000
0000
0000
0000
0000
0000
0000
0000
0000
0000
0000
0000
0000
0000
0000
0000
0301
0000
0000
0000
0000
0000
0000
0000
0000
0000
0000
0000
0000
0000
0000
0000
1000
0000
0000
0000
0000
0000
0000
0000
0010
0000
0000
0000
0000
0000
0000
0000
0000
0000
0000
0000
0000
0000
0000
0000
1100
0000
0000
0000
0000
0000
0000
0000
0000
0000
0000
0000
0000
0000
0000
0000
0000
0000
0000
0000
0000
0000
0000
0101
0000
0000
0000
0000
0000
0000
0000
0000
0000
0000
0000
0000
0000
0000
0000
0000
0000
0000
0000
0000
1002
0000
0000
0000
0000
0000
0000
0000
0000
0000
0000
0000
0000
0000
0000
0000
0003
0000
0000
0000
1000
0000
0000
0000
0000
0000
0000
0000
0001
0000
0000
0000
0000
0000
0000
0000
0000
0000
0000
0000
0000
0000
0000
0000
2001
0000
0000
0000
0000
0000
0000
0000
0000
0000
0000
0000
0000
0000
0000
0000
3000
0000
0000
0000
0000
0000
0000
0000
0001
0000
0000
0000
0000
0000
0000
0000
1000
0000
0000
0000
0000
0000
0000
0000
,  // measure 118
0000
0000
0120
0000
0000
0000
0030
0000
1000
0000
0001
0000
0000
0000
0210
0000
0000
0000
0300
0001
0000
1000
0000
0000
0000
0000
0000
1001
0000
0000
0000
0000
0000
0000
0000
0000
0100
0000
0000
0000
0000
0000
0100
0000
1000
0000
0000
0000
,  // measure 119
1000
0000
0100
0000
0000
0100
0000
0010
0000
0000
0000
0010
0000
0001
0000
1000
0000
0001
0000
1000
0000
0001
0000
0100
0000
0000
0000
0000
0000
0000
0000
0000
0000
0000
0000
0000
1100
0000
0000
0000
0000
0000
0000
0000
0000
0000
0000
0000
,  // measure 120
0100
0000
0000
0110
0000
0001
0010
0000
0010
0100
0000
0100
,  // measure 121
1000
0000
0000
0011
0000
0100
1000
0000
0100
0001
0000
0100
,  // measure 122
1000
0000
0100
0001
0010
0100
1000
0001
1000
0001
0000
0000
,  // measure 123
0000
0110
0000
0000
0000
0002
0000
0000
0000
2003
0000
0000
0000
3020
0000
0000
0000
2030
0000
0000
0000
3200
0000
0000
,  // measure 124
0000
0320
0000
0000
0000
2030
0000
0000
0000
3020
0000
0000
0000
0230
0000
0000
0000
0302
0000
0000
0000
2003
0000
0000
,  // measure 125
0000
3020
0000
0000
0000
2030
0000
0000
0000
3002
0000
0000
0000
0000
0000
0000
0000
0000
0000
0000
0000
0000
0000
0000
,  // measure 126
0003
0100
0010
0000
0000
2002
0000
0000
3003
0000
0000
0010
,  // measure 127
1000
0010
1000
0100
0010
0002
0000
0000
0010
0000
0000
0003
,  // measure 128
0000
0001
0000
0000
0000
2000
0000
0000
0000
3200
0000
0000
0000
0000
0000
0010
0300
0000
0000
0001
0000
0020
0000
0000
,  // measure 129
0000
0000
0000
0100
0000
0030
0000
0001
0000
0200
0000
0000
0000
0000
0000
0010
0300
0000
0000
0001
0000
2000
0000
0000
,  // measure 130
0000
0000
0000
3001
0000
0000
0000
0001
0000
0100
0000
0000
0000
1000
0000
0110
0000
0000
0000
0001
0000
0000
0000
0000
,  // measure 131
0000
0000
0000
1001
0000
0000
0000
0000
0000
1001
0000
0000
0000
0000
0000
0010
0000
0000
0000
0100
0000
0000
0000
0000
,  // measure 132
0000
0010
0000
1100
0000
0000
0000
0000
0010
0000
0000
0000
0001
0000
0010
0000
0000
0000
2002
0000
0000
0000
0000
0000
,  // measure 133
0000
0000
0000
3003
0100
0000
1000
0010
0000
0202
0000
0000
,  // measure 134
0000
0000
0000
0303
0010
0100
1000
0100
0010
0001
1100
0000
,  // measure 135
0000
1001
0000
0000
0000
0000
0000
0100
0000
0001
0000
0100
0000
0001
0000
0100
0000
0010
0000
0001
0000
0010
0000
0100
,  // measure 136
0000
0010
0000
0100
0000
1000
0000
0100
0000
1000
0000
0100
0000
0010
0000
0001
0000
0010
0000
0100
0000
1000
0000
0100
,  // measure 137
0000
0010
0000
0001
0000
0010
0000
0001
0000
0100
0000
0010
0000
0100
0000
1000
0000
0100
0000
0010
0000
0001
0000
0100
,  // measure 138
0000
0001
0000
0010
0000
0100
0000
1000
0000
0000
0000
0001
0000
0100
0000
0000
0000
0220
0000
0000
0000
0000
0000
0000
,  // measure 139
0000
0330
0000
0000
0000
0000
0010
0000
0000
0000
0100
0000
1000
0000
0000
0000
0020
0000
0000
0000
0000
0000
0130
0000
,  // measure 140
0001
0000
0000
0000
0000
0000
0100
0000
0000
0000
0010
0000
0001
0000
0000
0000
0100
0000
0000
0000
0000
1000
0000
0000
,  // measure 141
0000
1000
0000
0001
0000
0002
0000
0103
0000
0200
0000
0310
,  // measure 142
0000
0020
0000
1030
0000
2000
0020
3000
0200
0030
0000
0000
,  // measure 143
0301
0000
0000
0000
0000
0000
0000
0000
0000
0000
0000
0000
0000
0000
0000
0000
0000
0000
0000
0000
0000
0000
0000
0000
0000
0000
0000
0000
0000
0000
0000
0000
0000
0000
0000
0000
0000
0000
0000
0000
0000
0000
1000
0000
0000
0000
0000
0000
0000
0000
0000
0000
0000
0000
0000
0000
0000
0000
0000
0000
0000
0000
0000
0000
0000
0000
0000
0000
0000
0000
0000
0000
0000
0000
0000
0000
0000
0000
0000
0000
0000
0000
0000
0000
0000
0000
0000
0000
0000
0000
0220
0000
0000
0000
0000
0000
0000
0000
0000
0000
0000
0000
0000
0000
0000
0000
0000
0000
0000
0000
0000
0000
0000
0000
0000
0000
0000
0000
0000
0000
0000
0000
0000
0000
0000
0000
0000
0000
0000
0000
0000
0000
0000
0000
0000
0000
0000
0000
0000
0000
0000
0000
0000
0000
0000
0000
0000
0000
0000
0000
0000
0000
0000
0000
0000
0000
0300
0000
0000
0000
0000
0000
0000
0000
0000
0000
0000
0000
0000
0000
0000
0000
0000
0000
0000
0000
0000
0000
0000
0000
0000
0000
0000
0000
0130
0000
0000
0000
0000
0000
0000
0000
,  // measure 144
0000
0000
0000
0000
1000
0000
0000
0000
0000
0100
0000
0000
0000
0001
0000
0000
0000
0100
0000
0000
0000
1000
0000
0000
,  // measure 145
0000
0100
0000
0000
0000
0001
0000
0000
0000
0100
0000
0000
0000
1000
0000
0000
0000
0100
0000
0000
0000
0001
0000
0000
,  // measure 146
0000
0100
0000
0000
0000
1000
0000
0000
0000
0001
0000
0200
0000
0000
0000
0320
0000
0000
0000
0030
0000
0000
0000
1001
,  // measure 147
0000
0000
0000
1000
0000
0100
0000
0000
0000
0100
0000
0001
0000
0000
0000
1000
0000
0001
0000
0000
0000
0110
0000
0000
,  // measure 148
0000
0000
0000
0001
0000
0010
0000
0000
0000
0010
0000
1000
0000
0000
0000
0001
0000
1000
0000
0000
0000
0100
0000
1000
,  // measure 149
0000
0000
0000
0000
0000
0202
0000
0000
0000
0000
0000
0000
0000
0000
0000
0000
0000
0000
0303
0000
0000
0000
0000
2000
,  // measure 150
0000
0000
0000
0000
0000
0002
0000
0000
0000
0000
0000
0000
0000
3003
0000
0000
0010
0000
1000
0000
0001
0000
1000
0000
,  // measure 151
0100
0010
0001
0000
1000
0100
0000
0010
1000
0000
0100
0010
,  // measure 152
0000
0001
1000
0000
0010
0001
0000
0110
0000
0000
1100
0001
,  // measure 153
0000
0010
0100
0000
0001
1000
0000
0100
0010
0000
0010
0100
,  // measure 154
0000
0000
1001
0000
1000
0110
0000
0001
0220
0000
0330
0001
,  // measure 155
0000
0000
1001
0000
1000
0100
0000
0100
1000
0000
0001
0100
,  // measure 156
0000
0100
0001
0000
0100
2000
0000
0000
0000
0000
0000
0000
,  // measure 157
0000
3100
0000
0001
0000
0010
0000
1000
0010
0000
1000
0001
,  // measure 158
0000
0001
0010
0000
0010
0100
0000
2000
0002
0000
3003
0000
,  // measure 159
0000
0000
0000
0010
0000
0000
0000
1000
0000
0100
0000
0000
0000
0010
0000
1000
0000
0000
0000
0100
0000
0001
0000
0000
,  // measure 160
0000
0010
0000
0001
0000
1000
0000
0010
0000
1000
0000
0000
0000
0110
0000
0000
0000
0000
0000
0001
0000
1000
0000
0010
,  // measure 161
0000
1000
0000
0010
0000
0000
0000
0100
0000
0010
0000
0000
0000
0010
0000
0100
0000
0000
0000
1000
0000
0010
0000
0000
,  // measure 162
0000
0000
0000
0100
0000
1000
0000
0100
0000
0010
0000
0000
0000
0001
0000
1001
0000
0000
0000
0000
0000
0000
0000
0000
,  // measure 163
0000
0110
0000
1000
0101
0000
0100
1100
0000
0001
0110
0000
,  // measure 164
0000
1000
0001
1000
0001
0010
0100
0010
0000
0000
0000
0000
,  // measure 165
0000
1001
0000
0001
0110
0000
1000
0110
0000
0001
0110
0000
,  // measure 166
0000
1001
0000
1000
0100
0000
0000
1001
0000
0010
0001
0000
,  // measure 167
0010
1000
0000
1000
0010
0000
0010
1000
0000
1000
0001
0000
,  // measure 168
0010
0100
0000
0001
1000
0000
0100
0001
0000
0001
0100
0000
,  // measure 169
0100
0000
0001
0000
0000
0000
0001
0000
1000
0000
0000
0000
0100
0000
0020
0000
0000
0000
0000
0030
0000
0000
0000
0000
,  // measure 170
0000
0010
0000
0001
0000
1000
0000
0001
0000
1000
0000
0000
0000
0100
0000
0010
0000
0000
0000
0000
0000
0000
0000
0000
,  // measure 171
0000
0010
0000
1000
0000
0000
0000
0100
0000
0001
0000
0000
0000
0100
0000
1000
0000
0000
0000
0001
0000
0100
0000
0000
,  // measure 172
0000
0100
0000
0010
0000
0000
0000
0001
0000
1000
0000
0000
0000
1000
0000
0001
0000
0000
0000
0010
0000
1000
0000
0000
,  // measure 173
0000
0000
0000
2002
0000
0000
0000
0000
0000
0000
0000
0000
3003
0000
0000
0000
0100
0000
1000
0000
0100
0000
1000
0000
,  // measure 174
0100
0001
0100
0001
0010
0100
1000
0001
0010
0100
1000
0100
,  // measure 175
0010
0001
0010
0100
1000
0001
0100
1000
0001
0010
0200
0000
,  // measure 176
0000
0300
1000
0100
0010
0001
1000
0100
0001
1000
0100
0010
,  // measure 177
0001
2002
0000
0000
,  // measure 178
0000
0000
0000
0000
,  // measure 179
0000
0000
0000
0000
,  // measure 180
0000
0000
0000
0000
,  // measure 181
0000
0000
0000
0000
,  // measure 182
0000
0000
0000
0000
,  // measure 183
3003
0000
0000
0000
;
