#TITLE:more deep (ver.2.1);
#ARTIST:Togo project feat. Sana;
#BANNER:more deep (ver.2.1).png;
#BACKGROUND:more deep (ver.2.1)-bg.png;
#CDTITLE:./CDTitles/DDRMAX2 US PS2.png;
#MUSIC:more deep (ver.2.1).ogg;
#SAMPLESTART:44.347;
#SAMPLELENGTH:15;
#DISPLAYBPM:133;
#BPMS:0=130.3,4=133;

//---------------dance-single - ----------------
#NOTES:
     dance-single:
     :
     Beginner:
     1:
     :
0000
0000
0000
0000
,
0000
0000
0000
0000
,
0000
0000
0000
0000
,
0000
0000
0000
0000
,
0000
0000
0000
0000
,
1000
0000
0000
0000
,
1000
0000
0000
0000
,
0001
0000
0000
0000
,
0001
0000
0000
0000
,
1000
0000
0001
0000
,
1000
0000
0100
0000
,
0001
0000
0010
0000
,
1000
0000
0100
0000
,
0001
0000
1000
0000
,
0001
0000
0100
0000
,
1000
0000
0010
0000
,
0001
0000
0100
0000
,
1001
0000
0000
0000
,
0010
0010
0010
0000
,
0110
0000
0000
0000
,
0100
0100
0100
0000
,
1000
1000
1000
0000
,
1000
0000
0001
0000
,
0001
0001
0001
0000
,
0010
0000
0000
0000
,
0000
0000
0001
0001
,
0000
0000
1000
1000
,
0000
0000
0001
0001
,
0000
0000
1000
1000
,
1000
0000
0001
0000
,
0001
0000
1000
0000
,
0100
0000
0000
0000
,
0010
0000
0000
0000
,
1000
0000
0100
0000
,
0001
0000
0010
0000
,
0001
0000
0100
0000
,
1000
0000
0010
0000
,
0000
0000
0000
0000
,
0010
0000
0010
0000
,
1000
0000
1000
1000
,
1000
0000
0000
0000
,
0010
0000
1000
0000
,
0001
0000
0001
0000
,
0010
0000
0000
0000
,
0010
0000
0100
0000
,
0100
0000
1000
0000
,
0010
0000
0001
0000
,
1000
0000
0100
0000
,
0001
0000
0000
0100
,
0100
0000
0000
0000
;

//---------------dance-single - ----------------
#NOTES:
     dance-single:
     :
     Easy:
     3:
     :
0000
0000
0000
0000
,
0000
0000
0000
0000
,
0000
0000
0000
0000
,
0000
0000
0000
0000
,
0000
0000
0000
0000
,
0200
0300
1000
0000
,
1000
0000
0000
0000
,
0020
0030
0001
0000
,
0001
0000
0000
0000
,
1000
0000
0001
0000
,
1000
0000
0100
0000
,
0002
0003
0010
0000
,
2000
3000
0100
0000
,
0001
0000
0001
0100
,
0001
0000
1000
0000
,
0020
0030
0001
0000
,
2000
3000
0100
0000
,
1001
0000
0000
0000
,
0020
0030
0000
0000
,
0110
0000
0000
0000
,
0200
0300
0000
0000
,
1000
1000
0100
0000
,
1000
0000
0001
0000
,
0001
0001
0100
0000
,
0010
0000
0000
0000
,
0000
0000
0100
0001
,
0000
0000
0001
1000
,
0000
0000
1000
0100
,
0000
0000
1000
0001
,
0100
0000
0010
0000
,
0001
0000
1000
0000
,
0200
0000
0300
0000
,
0020
0000
0030
0000
,
1000
0000
0100
0000
,
0001
0000
0010
0000
,
1000
0001
1000
0000
,
0001
0000
0200
0300
,
0000
0000
0000
0000
,
0010
0000
0010
0000
,
1000
0000
0001
1000
,
1001
0000
0000
0000
,
0010
0000
1000
0000
,
0002
0003
0001
0000
,
0010
0000
0000
0000
,
0010
0000
0100
0000
,
0100
0000
1000
0000
,
0020
0030
0001
0000
,
2000
3000
0100
0000
,
0002
0000
0003
0100
,
0010
0000
0000
0000
;

//---------------dance-single - ----------------
#NOTES:
     dance-single:
     :
     Medium:
     5:
     :
0000
0000
0000
0000
,
0000
0000
0000
0000
,
0000
0000
0000
0000
,
0000
0000
0000
0000
,
0000
0000
0000
0000
,
0200
0000
0300
0002
0000
0003
0000
1000
,
0000
0000
0000
0000
,
0020
0000
0030
2000
0000
3000
0000
0001
,
0000
0000
1000
0000
1000
0001
0100
0000
,
0020
1030
0200
0301
,
2000
0000
3000
0100
,
0001
0010
0001
0000
1000
0100
1000
0000
,
0010
0001
1000
1000
,
0002
0103
2000
3010
,
0002
0000
0003
0010
,
1000
0100
1000
0000
0001
0100
0001
0000
,
0010
1000
0001
0100
,
1001
0000
0020
0030
,
0100
0000
0100
0010
2000
0000
3000
0000
,
0001
0000
1000
0000
,
0100
0000
0100
0001
0020
0000
0030
0000
,
1000
0001
1000
0000
0002
0000
0103
0000
,
0010
0000
0010
0000
0001
1000
0100
0000
,
0002
0000
0013
0000
0010
1000
0100
0000
,
0001
1000
0010
0000
0000
0000
0100
0000
,
0010
0000
0001
0000
1000
0010
0100
0000
,
0001
0100
1000
0100
,
0001
0010
0100
0000
2000
0000
3000
0000
,
0001
0010
0000
0100
0000
1000
0010
0000
,
0200
0000
0301
0000
0010
1000
0100
0000
,
0001
0100
1000
0010
,
0020
0030
0002
0103
,
0200
0300
2000
3100
,
0002
0000
1000
0103
,
2000
0000
0001
3100
,
0001
1000
0001
0000
0200
0000
0301
0000
,
0010
1000
0100
0001
,
0020
0030
0200
0300
,
0001
0010
1000
0000
,
0020
0000
0200
0330
,
2002
0000
3003
0100
,
0001
0000
0001
0000
0100
0001
1000
0000
,
0020
0000
0030
2000
0000
3000
0000
0100
,
0000
0000
0010
1000
,
0200
0301
0020
1030
,
0002
0000
0003
0010
,
1000
0100
1000
0000
0001
0010
0001
0000
,
0100
0000
1000
0000
0001
1000
0001
0000
,
2000
3010
0002
0013
,
0200
0000
0300
0000
;

//---------------dance-single - ----------------
#NOTES:
     dance-single:
     :
     Hard:
     6:
     :
0000
0000
0000
0000
,
0000
0000
0000
0000
,
0000
0000
0000
0000
,
0000
0000
0000
0000
,
0000
0000
0000
0000
,
1000
0010
0100
0002
0000
0000
0003
1000
,
0000
0000
0010
0000
1000
0001
0100
0000
,
0001
0010
0100
2000
0000
0000
3000
0100
,
0000
0000
1000
0000
0001
1000
0100
0000
,
0002
0000
0103
0000
1000
0010
0100
0000
,
2000
0000
3100
0000
0001
1000
0100
0000
,
0002
0103
2000
3010
,
0010
1000
0100
0000
0001
0100
0001
0000
,
0002
0000
0013
0000
1000
0100
0010
0000
,
2000
0000
3010
0000
0001
1000
0010
0000
,
0002
0003
2000
3000
,
0002
1003
0020
0031
,
0101
0000
0000
0000
0010
1000
0100
0000
,
2000
0000
3001
0000
0010
1000
0000
0000
,
0101
0000
0002
0103
,
1000
0000
0001
0000
1000
0001
0000
0000
,
0200
0000
0310
0000
1000
0001
0010
0000
,
0002
0000
1003
0000
0010
0100
0000
0000
,
1000
0001
0010
0000
0100
1000
0010
0100
,
0010
1000
0100
0000
0000
0010
0001
1000
,
0002
0000
0003
2000
0000
3200
0000
0300
,
0010
0100
0000
0000
1000
0000
0100
0000
,
0001
0010
0100
0000
2000
0000
3100
0000
,
0001
0010
0100
0000
0000
0000
0100
0000
0000
0000
1000
0000
0010
0000
0000
0000
,
0200
0000
0300
0002
0000
2003
0000
3010
,
0000
0100
0000
0000
1000
0010
0100
0000
,
2000
0010
3001
0100
,
0001
0010
0000
0010
0100
0000
0100
1000
0000
1000
0100
0000
1000
0001
0000
0000
,
0000
2000
3001
0100
,
0000
0002
1003
0100
,
0010
0001
0100
0000
0010
1000
0100
0000
,
1002
0000
0000
1000
0000
0000
0200
0000
0003
0000
0000
0000
0000
0000
0000
0000
,
0300
0000
0000
0000
0010
1000
0100
0000
,
0001
1000
0010
0000
0100
0000
0001
0000
,
2000
0000
3002
0103
,
0220
0000
0330
1001
,
0000
0000
1000
0000
0010
0001
1000
0000
,
1000
0100
0010
0002
0000
0000
0003
0010
,
0000
0000
0001
0000
1000
0001
0010
0000
,
2000
0000
3010
0000
0001
0100
0010
0000
,
0002
0000
0013
0000
1000
0001
0010
0000
,
2000
3010
0002
0103
,
1100
0000
0101
0000
0001
1000
0100
0000
,
0002
0000
2003
3100
,
0020
0000
0030
0000
;

//---------------dance-double - ----------------
#NOTES:
     dance-double:
     :
     Beginner:
     1:
     :
00000000
00000000
00000000
00000000
,
00000000
00000000
00000000
00000000
,
00000000
00000000
00000000
00000000
,
00000000
00000000
00000000
00000000
,
00000000
00000000
00000000
00000000
,
00010000
00000000
00000000
00000000
,
00000000
10000000
00000000
10000000
,
00000000
00000000
00000000
00000000
,
00000000
01000000
00000000
00001000
,
00000000
00000000
00000000
00010000
,
00000000
00000000
00000000
00001000
,
00000000
00000000
00000000
00000000
,
00000000
00000000
00000000
00000000
,
00000001
00000000
00000000
00000001
,
00000000
00000000
00000000
00001000
,
00000000
00000000
00000000
00000000
,
00000000
00000000
00000000
00000000
,
00000010
00000000
00000010
00000000
,
00000000
00000100
00000000
00000100
,
00000000
00000000
00000010
00000000
,
00000001
00000000
00001000
00000000
,
00010000
00000000
00010000
00000000
,
01000000
00000000
10000000
00000000
,
00100000
00000000
00100000
00000000
,
01000000
00000000
00010000
00000000
,
10010000
00000000
00000000
00000000
,
01000000
00000000
01000000
00000000
,
00001000
00000000
00001000
00000000
,
00001000
00000000
00000001
00000000
,
00000010
00000000
00000010
00000000
,
00000100
00000000
00001000
00000000
,
00000001
00000000
00000000
00000000
,
00000100
00000000
00001000
00000000
,
00011000
00000000
00010000
00000000
,
00100000
00000000
00100000
00000000
,
01000000
00000000
01000000
00000000
,
00010000
00000000
10000000
00000000
,
00000000
00000000
01000000
00000000
,
00010000
00000000
10000000
00000000
,
00010000
00000000
00000000
00000000
,
00011000
00000000
00000000
00000100
,
00000000
00000000
00000000
00000000
,
00000010
00000000
00000000
00000000
,
00000000
00000001
00000000
00001000
,
00000000
00000000
00000000
00001000
,
00000000
00000000
00000000
00100000
,
00000000
00000000
00000000
00000000
,
00000000
00010000
00000000
00100000
,
00000000
00000000
00000000
00010000
,
00000000
00000000
01000000
00000000
;

//---------------dance-double - ----------------
#NOTES:
     dance-double:
     :
     Easy:
     2:
     :
00000000
00000000
00000000
00000000
,
00000000
00000000
00000000
00000000
,
00000000
00000000
00000000
00000000
,
00000000
00000000
00000000
00000000
,
00000000
00000000
00000000
00000000
,
00010000
00000000
00000000
00000000
,
00000000
10000000
10000000
10000000
,
10000000
00000000
00000000
00000000
,
00000000
01000000
00010000
00001000
,
00001000
00000000
00000000
00010000
,
00010000
00000000
00000000
00001000
,
00000020
00000000
00000000
00000030
,
00000000
00000000
00000000
00000000
,
00000001
00000000
00000000
00000001
,
00001000
00000000
00000000
00001000
,
00000200
00000000
00000000
00000300
,
00000000
00000000
00000000
00000000
,
00000010
00000000
00000010
00000000
,
00000000
00000100
00000100
00000100
,
00001000
00000000
00000010
00000000
,
00000001
00000100
00001000
00001000
,
00010000
00000000
00010000
00000000
,
01000000
10000000
10000000
00010000
,
00100000
00000000
00100000
00000000
,
01000000
10000000
00010000
00000000
,
10010000
00000000
00000000
00000000
,
01000000
00000000
01000000
00010000
,
00001000
00000000
00001000
00000000
,
00001000
00000100
00000001
00000001
,
00000010
00000000
00000010
00000000
,
00000100
00000000
00001000
00000000
,
00000002
00000000
00000000
00000003
,
00000100
00000100
00001000
00001000
,
00011000
00000000
00010000
00000000
,
00100000
00100000
00100000
00000000
,
01000000
00000000
01000000
00000000
,
00010000
00010000
10000000
00000000
,
00000000
00000000
01000000
00100000
,
00010000
00000000
10000000
01000000
,
00020000
00000000
00000000
00030000
,
00011000
00000000
00000000
00000100
,
00000000
00000000
00000000
00000000
,
00000010
00000000
00000000
00000000
,
00000000
00000001
00000100
00001000
,
00020000
00000000
00000000
00031000
,
00002000
00000000
00000000
00103000
,
00200000
00000000
00000000
00300000
,
00000000
00010000
01000000
00100000
,
20000000
00000000
00000000
30010000
,
00200000
00000000
01300000
00000000
;

//---------------dance-double - ----------------
#NOTES:
     dance-double:
     :
     Medium:
     5:
     :
00000000
00000000
00000000
00000000
,
00000000
00000000
00000000
00000000
,
00000000
00000000
00000000
00000000
,
00000000
00000000
00000000
00000000
,
00000000
00000000
00000000
00000000
,
00000001
00000100
00001000
00000100
,
00000002
00000000
00000003
00000001
,
00001000
00000100
00000001
00000100
,
00002000
00000000
00003000
00001000
,
00000110
00000001
00000000
00000010
,
00001000
00010000
00000000
00100000
,
02000000
00000000
00010000
03000000
,
00000000
00010000
10000000
01000000
,
00110000
10000000
00000000
01000000
,
00010000
00001000
00000000
00000100
,
00000002
00000000
00002000
00000003
,
00000000
00003010
00000100
00000001
,
00002200
00003300
00000002
00000003
,
00000020
00000000
00000130
00001000
,
00000002
00000000
00000203
00000000
,
00002300
00000000
00013000
01000000
,
10000000
10000000
00010000
00010000
,
00100000
00000000
01000000
00000000
10000000
00100000
00010000
00000000
,
00001000
00001000
00000010
00000001
,
00000100
00000100
00000100
00000100
,
00000020
00000000
00002000
00003030
,
00000100
00000010
00000001
00000100
,
00002000
00000000
00023000
00000000
,
02030000
00000000
10000000
13000000
,
00010000
00010000
01000000
00100000
,
10000000
10000000
00010000
00010000
,
00200000
00000000
01300000
10000000
,
00100000
00010000
00000100
00000010
,
00001001
00000000
00000100
00000000
,
00000010
00000001
00000100
00000100
,
00000010
00001000
00000100
00000100
,
00000010
00000000
00000000
00000001
00000000
00000000
00000100
00000000
00000200
00000000
00000000
00000000
00000300
00000000
00000000
00000000
,
00000010
00010000
00001000
01000000
,
00100000
10000000
00010000
00010000
,
02000000
00000000
00000000
03000000
,
10010000
01000000
01000000
01000000
,
00000000
00010000
00000000
00010000
,
00000010
00000100
00000100
00000100
,
00000001
00000000
00000010
00000100
,
00001002
00000023
00000230
00002300
,
00003002
00000000
00000000
00000013
,
00000200
00000000
00000000
00000000
,
00000000
00000000
00000000
00000300
,
00020000
00000000
00000000
00130000
,
02000000
00000000
03000000
00000000
;

//---------------dance-double - ----------------
#NOTES:
     dance-double:
     :
     Hard:
     6:
     :
00000000
00000000
00000000
00000000
,
00000000
00000000
00000000
00000000
,
00000000
00000000
00000000
00000000
,
00000000
00000000
00000000
00000000
,
00000000
00000000
00000000
00000000
,
00000001
00000100
00000001
00001000
00000000
00000100
00000000
00000100
,
00000000
00000000
00000000
00000000
00000001
00000100
00001000
00000000
,
00010000
00001000
00010000
01000000
00000000
10000000
00000000
10000000
,
00000000
00000000
00000000
00000000
00010000
10000000
01000000
00000000
,
00110000
00000000
10000000
01000000
00100000
00000000
00010000
00000000
,
00010000
00000000
10000000
00000000
00100000
00010000
00001000
00000000
,
00000010
00000200
00000000
00000000
00000000
00000000
00000300
00000000
,
00000001
00000000
00001000
00000000
00000010
00000100
00000010
00000000
,
00001001
00000000
00000010
00000000
00000100
00001000
00000010
00000000
,
00000100
00000001
00000010
00001000
,
01000000
00200000
00000000
00000000
00000000
00000000
00000000
00000000
,
00000000
00000000
00000000
00310000
,
01100000
10000000
00100000
00010000
,
00001000
00000000
00000010
00000001
00000100
00000010
00001000
00000000
,
00000100
00000001
00000010
00000100
,
00001000
00000001
00000100
00001000
00010000
00001000
01000000
00000000
,
00110000
00000000
01000000
00000000
00100000
10000000
01000000
00000000
,
00100000
00010000
10000000
00000000
01100000
00000000
10010000
00000000
,
00100000
01000000
10000000
00100000
,
00010000
00001000
00000010
00000001
00001000
00000010
00000100
00000000
,
00002001
00000000
00000100
00003200
,
00000000
00000000
00000000
00000000
00000000
00000000
00000310
00000001
,
00000100
00000010
00001000
00000001
,
00000010
00001000
00000000
00010000
00000000
00100000
01000000
00000000
,
10010000
00000000
00100000
01000000
00000000
10000000
00200000
00000000
,
00000000
00000000
00000000
00000000
00300000
01000000
00010000
00100000
,
02000000
10000000
10000000
13000000
,
00100000
00010000
00000000
01000000
00100000
00000000
10000000
01000000
00000000
00010000
00001000
00000000
00000010
00000100
00000000
00000000
,
00001001
00000000
00000010
00000100
00000000
00000100
00000000
00000001
,
00000010
00000000
00000100
00002000
00000000
00000001
00003000
00000000
,
00000100
00000000
00000000
00000100
00000000
00000000
00000100
00000000
00000000
00000000
00000000
00000000
00000000
00000000
00000000
00000000
,
00001100
00000000
00000000
00010000
00000000
00000000
00001000
00000000
02000000
00000000
00000000
00000000
00000000
00000000
00000000
00000000
,
00000000
00000000
00000000
00000000
03000000
00000000
00000000
00000000
00100000
00000000
00000000
00100000
00000000
00000000
10000000
00000000
,
01000000
00000000
01000000
00100000
00010000
10000000
00100000
02000000
,
00020000
00000000
00000000
03030000
,
10100000
01000000
00100000
00010000
,
10000000
01000000
00010000
00001000
,
00000100
00000000
00000001
00000000
00000010
00000000
00000100
00000100
,
00000000
00001000
00001000
00001000
,
00000101
00000000
00000010
00000000
00000100
00001000
00000001
00000000
,
00000110
00000000
00000001
00000000
00000010
00001000
00010000
00000000
,
00100000
02000000
00020000
00000000
00000000
00000000
00000000
00000000
,
00000000
00000000
00000000
03030000
,
20020000
00000000
00030000
30200000
,
02000000
00000000
00000000
03300000
;
