
//----- mcode: getd -----//
#TITLE:Get Down Tonight;
#ARTIST:K.C. & The Sunshine Band;
#BANNER:Get Down Tonight.png;
#BACKGROUND:Get Down Tonight-bg.png;
#CDTITLE:./CDTitles/DDRMAX2 US PS2.png;
#MUSIC:Get Down Tonight.ogg;
#SAMPLESTART:27.914;
#SAMPLELENGTH:15;
#DISPLAYBPM:106:120;
#BPMS:0=109.756,4=107.784,8=110.092,12=111.455,16=116.505,20=105.882,21=111.111,22=112.5,24=112.266,42=109.756,43=111.111,44=112.033,50=115.385,51=116.883,52=111.111,54=109.756,55=111.111,58=113.924,60=111.901,67=116.883,68=112.5,84=112.853,92=111.111,97=114.65,99=123.288,100=110.915,107=120,108=111.94,113=116.883,114=112.5,116=112.853,120=113.924,124=112.903,131=120,132=109.756,133=113.025;
#NOTES:
     dance-single:
     :
     Beginner:
     1:
     :
0000
0000
0000
0000
,
0000
0000
0000
0000
,
0010
0000
0000
0000
,
0100
0000
0000
0000
,
0001
0000
0010
0000
,
1000
1000
0000
0000
,
0001
0001
0001
0000
,
0001
0001
0000
0000
,
1000
0000
1000
0000
,
0001
0001
0000
0000
,
1000
1000
1000
0000
,
1000
1000
0000
0000
,
0001
0000
0001
0000
,
0010
0000
0010
0000
,
0100
0000
0100
0000
,
1000
0000
0001
0000
,
1000
0000
0001
0000
,
0001
0001
0000
0000
,
1000
1000
1000
0000
,
1000
1000
0000
0000
,
0001
0000
0001
0000
,
1000
1000
0000
0000
,
0001
0001
0001
0000
,
0001
0001
0000
0000
,
1000
0000
1000
0000
,
0010
0000
0010
0000
,
0100
0000
0100
0000
,
1000
0000
0001
0000
,
1000
0000
0001
0000
,
0010
0010
0010
0000
,
0001
0001
0001
0000
,
0001
0000
1000
0000
,
0001
0000
1000
0000
,
0010
0010
0010
0000
,
1000
1000
1000
0000
,
1000
0000
0001
0000
,
1000
0000
0001
0000
,
0010
0010
0010
0000
,
0001
0001
0001
0000
,
0001
0000
1000
0000
,
0001
0000
1000
0000
;
#NOTES:
     dance-single:
     :
     Easy:
     3:
     :
0000
0000
0000
0000
,
0000
0000
0000
0000
,
0010
0000
0000
0000
,
0100
0000
0000
0000
,
0001
0000
0010
0000
,
0010
1000
0000
1000
,
0010
0001
0000
0001
,
0100
0010
0100
0000
,
0001
0001
1000
0001
,
0010
0001
0000
0001
,
0010
1000
0000
1000
,
0100
0000
0100
0000
,
1000
1000
0001
1001
,
1000
0200
0300
0000
,
0001
0200
0300
0000
,
0010
0010
0000
0000
,
0100
0100
0000
0000
,
0010
0001
0000
0001
,
0010
1000
0000
1000
,
0100
0010
0100
0000
,
1000
1000
0001
1000
,
0010
1000
0000
1000
,
0010
0001
0000
0001
,
0100
0000
0100
0000
,
0001
0001
1000
1001
,
0001
0020
0030
1000
,
1000
0020
0030
0100
,
0100
0100
0000
0000
,
0010
0010
0000
0000
,
0001
0020
0030
0000
,
1000
0200
0300
0000
,
0001
0000
1000
0000
,
0001
0001
1000
0100
,
1000
0200
0300
0000
,
0001
0020
0030
0000
,
1000
0000
0001
0000
,
1000
1000
0001
0010
,
1000
0020
0030
0000
,
0001
0200
0300
0000
,
2000
3000
0001
1000
,
0002
0003
1001
0000
;
#NOTES:
     dance-single:
     :
     Medium:
     5:
     :
0000
0000
0000
0000
,
0000
0000
0000
0000
,
0001
0000
1000
0100
,
1000
1000
0001
0100
,
0010
0000
0100
0100
,
0020
1030
0200
0301
,
2000
3010
0002
0103
,
0010
0100
0010
0000
0100
0000
1000
0000
,
0001
0100
0001
0000
1000
0000
1001
0000
,
2000
3100
0002
0013
,
0020
0031
0200
1300
,
0010
0100
0000
0110
,
1000
0100
1000
0000
0001
0000
1001
0000
,
1000
0100
0020
0000
0031
0000
0100
0000
,
0001
1000
0020
0000
1030
0000
0100
0000
,
0010
0100
0001
0000
0010
0000
0100
0000
,
1000
0010
0100
0000
0001
0000
1000
0000
,
2000
3010
0020
0130
,
0200
0001
0302
1003
,
0100
0010
0100
0000
0010
0000
0001
0000
,
0001
0100
1000
0000
0001
0000
1001
0000
,
0002
1003
2000
3100
,
0200
0010
0320
0031
,
0100
0010
0000
0110
,
0001
0010
0001
0000
1000
0000
1001
0000
,
0001
0100
0020
0000
1030
0000
0100
0000
,
1000
0001
0020
0000
0031
0000
0100
0000
,
0010
0100
1000
0000
0010
0000
0100
0000
,
0001
0010
0100
0000
1000
0000
0001
0000
,
0001
0001
0010
0000
0010
0010
1000
0000
,
1000
1000
0100
0000
0100
0100
0001
0000
,
0001
0001
1000
0100
,
0010
0001
0100
1000
,
1000
1000
0010
0000
0010
0010
0001
0000
,
0001
0001
0100
0000
0100
0100
1000
0000
,
1000
1000
0001
0100
,
0010
1000
0100
0001
,
1000
1000
0100
0000
0100
0100
0001
0000
,
0001
0001
0010
0000
0010
0010
1000
0000
,
2000
0000
0001
3010
,
0200
0000
0310
0110
;
#NOTES:
     dance-single:
     :
     Hard:
     6:
     :
0000
0000
0000
0000
,
0000
0000
0000
0000
,
0020
0000
1030
0100
,
0002
0103
2000
3100
,
0010
0000
0010
0000
0001
0100
0010
0000
,
0010
1000
0200
0000
0310
0000
0110
0000
,
0010
0001
0200
0000
0310
0000
0110
0000
,
1000
0010
0100
0010
1000
0000
0001
0000
,
0100
0001
0010
0000
0001
0010
0100
0000
,
0010
0001
0200
0000
0310
1000
0110
0000
,
0010
1000
0200
0000
0310
0001
0110
0000
,
0000
0000
0100
1000
0010
0100
0010
0000
,
0010
1000
0001
0000
0220
0000
0330
0000
,
0001
0100
0020
0000
1030
0100
1000
0000
,
1000
0100
0020
0000
0031
0100
0001
0000
,
0200
0000
0000
0000
0310
0001
0100
0000
,
0002
0000
0000
0000
0013
1000
0100
0000
,
0010
0001
0200
0000
0310
0000
0110
0000
,
0010
1000
0200
0000
0310
0000
0110
0000
,
0001
0010
0100
0010
0001
0000
1000
0000
,
0100
1000
0010
0000
1000
0010
0100
0000
,
0010
0000
0200
0000
0310
0001
0110
0000
,
0010
0001
0200
0000
0310
1000
0110
0000
,
0000
0000
0100
0001
0010
0100
0010
0000
,
0010
0001
1000
0000
0020
0000
0030
0000
,
1000
0010
0200
0000
0301
0010
0001
0000
,
0001
0010
0200
0000
1300
0010
1000
0000
,
0200
0000
0000
0000
0310
1000
0100
0000
,
2000
0000
0000
0000
3010
0001
0100
0000
,
0010
1000
0100
0010
0002
0000
1003
0000
,
1000
0001
0010
0100
2000
0000
3001
0000
,
0010
1000
1000
0000
0100
0001
0001
0000
,
0010
1000
0100
0001
,
0010
0001
0100
0010
2000
0000
3001
0000
,
0001
1000
0010
0100
0002
0000
1003
0000
,
0010
0001
0001
0000
0100
1000
1000
0000
,
0010
0001
0100
1000
,
1000
0001
0010
0100
1000
0100
0001
1000
,
0001
1000
0100
0010
0001
0100
1000
0000
,
0002
0000
0013
0000
1000
0100
0010
0000
,
0200
0000
0301
0110
;
#NOTES:
     dance-double:
     :
     Easy:
     2:
     :
00000000
00000000
00000000
00000000
,
00000000
00000000
00000000
00000000
,
00000000
00000000
00000000
00000000
,
00000000
00000000
00000000
00000000
,
00000000
00000000
00000000
00000000
,
00000001
00000000
00001000
00000000
,
00000001
00000001
00000001
00000000
,
00000100
00000000
00000100
00000000
,
00001000
00010000
00010000
00000000
,
00100000
00000000
01000000
00000000
,
00010000
00010000
00010000
00000000
,
10000000
00000000
10000000
00000000
,
01000000
00010000
00010000
00000000
,
00011000
00002000
00003000
00000000
,
00000110
00000020
00000030
00000000
,
00001000
00000001
00000000
00000000
,
00001000
00000001
00000000
00000000
,
00001000
00000000
00001000
00000000
,
00000001
00000001
00000001
00000000
,
00000100
00000000
00000000
00000100
,
00001000
00010000
00010000
00000000
,
00100000
00100000
01000000
00000000
,
00010000
00010000
00010000
00000000
,
10000000
00000000
00000000
01000000
,
01000000
00010000
00010000
00000000
,
00011000
00020000
00030000
00000000
,
00000110
00000200
00000300
00000000
,
00000001
00001000
00000000
00000000
,
00000001
00001000
00000000
00000000
,
00001001
00000000
00000100
00000000
,
00001000
00001000
00010000
00010000
,
00010000
00000000
01000000
00000000
,
10000000
10000000
10000000
10000000
,
10010000
00000000
01000000
00000000
,
00010000
00010000
00001000
00001000
,
00001000
00000000
00000010
00000000
,
00000001
00000001
00000001
00000001
,
00000110
00000000
00000001
00000000
,
00000100
00000100
00001000
00001000
,
00001000
00000000
00010000
00000000
,
00100000
00100000
00100000
00100000
;
#NOTES:
     dance-double:
     :
     Medium:
     5:
     :
00000000
00000000
00000000
00000000
,
00000000
00000000
00000000
00000000
,
00000000
00000000
00000000
00000000
,
00000000
00000000
00000000
00000000
,
00000000
00000000
00000000
00000000
,
10010000
01000000
00000000
00000000
,
00010000
00010000
10000000
10000000
,
11000000
00010000
00000000
00000000
,
00001000
00001000
00000010
00000100
,
00001001
00000000
00000001
00000000
00000000
00000100
00000000
00000000
,
00001000
00001000
00001000
00000000
,
00001000
00000001
00000100
00000000
00000000
00000000
00001000
00000000
,
00010000
00000000
01000000
00000000
00000000
10000000
00000000
00000000
,
10020000
01000000
00000000
01030000
,
20010000
01000000
00000000
31000000
,
10010000
01000000
00010000
00001000
,
00011000
00000100
00000001
00000001
,
00001001
00000010
00000000
00000000
,
00001000
00001000
00000001
00000001
,
00000101
00001000
00000000
00000000
,
00010000
00010000
00100000
01000000
,
10010000
00000000
10000000
00000000
00010000
01000000
00010000
00000000
,
10000000
00000000
10000000
00000000
10000000
01000000
10000000
00000000
,
10000000
00100000
00100000
00010000
,
00001000
00000000
00000100
00000000
00000001
00000000
00000001
00001000
,
00000002
00000010
00000000
00000013
,
00002001
00000010
00000000
00003010
,
00001000
00000001
00000100
00000000
00001000
00000000
00010000
00000000
,
00010000
01000000
10000000
00000000
00010000
10000000
00010000
00000000
,
00100000
01000000
10000000
00010000
,
00010000
00000000
00010000
00000000
10000000
01000000
00010000
00001000
,
00010000
00001000
00000100
00000001
,
00001000
00000010
00000100
00000000
00000010
00001000
00000100
00000000
,
00000100
00000010
00000001
00001000
,
00000100
00000000
00000010
00000000
00000001
00000100
00001000
00010000
,
00001000
00010000
01000000
10000000
,
00010000
01000000
00100000
00000000
01000000
00010000
00100000
00000000
,
00100000
01000000
10000000
00010000
,
00010000
00000000
00010000
00000000
10000000
01000000
00010000
00000000
,
00001000
00000100
00000001
00000001
,
00001000
00001000
00001000
00001000
;
#NOTES:
     dance-double:
     :
     Hard:
     6:
     :
00000000
00000000
00000000
00000000
,
00000000
00000000
00000000
00000000
,
00000000
00000000
00000000
00000000
,
00000000
00000000
00000000
00000000
,
00000000
00000000
00000000
00000000
,
10010000
01000000
01000000
01000000
,
00100000
00010000
01000000
00000000
01000000
00000000
01000000
00000000
,
00100000
10000000
01000000
00000000
00010000
00000000
00001000
00000100
,
00000001
00000000
00000001
00000000
00000001
00000000
00000001
00001000
,
00000100
00000000
00000020
00000000
00000000
00000001
00000030
00000000
,
00000100
00001000
00000100
00000000
00000010
00000000
00000010
00000000
,
00000001
00000000
00000100
00001000
00010000
00000000
00010000
00100000
,
10000000
00000000
10000000
00000000
10000000
00010000
10000000
00100000
,
01000000
10010000
01000000
01000000
,
00100000
00000000
10010000
00000000
01000000
00000000
01000000
00100000
,
00010000
10000000
00100000
00000000
00010000
00000000
00001000
00010000
,
00000100
00000010
00000001
00000000
00000100
00000000
00000100
00000000
,
00001001
00000010
00000010
00000010
,
00000100
00001000
00000010
00000000
00000010
00000000
00000010
00000000
,
00000100
00000001
00000010
00000000
00001000
00000000
00010000
00100000
,
10000000
00000000
10000000
00000000
10000000
00000000
10000000
00010000
,
00100000
00000000
02000000
00000000
00000000
10000000
03000000
00000000
,
00100000
00010000
00100000
00000000
01000000
00000000
01000000
00000000
,
10000000
00100000
00010000
00000000
00001000
00000000
00001000
00000100
,
00000001
00000000
00000001
00000000
00000001
00001000
00000001
00000100
,
00000010
00001001
00000010
00000010
,
00000100
00000000
00001001
00000000
00000010
00000000
00000010
00000100
,
00001000
00000001
00000100
00000000
00001000
00000000
00010000
00001000
,
01000000
00100000
10000000
00000000
01000000
00000000
01000000
00000000
,
00120000
01030000
20100000
31000000
,
10000000
01000000
00010000
00000000
00001000
00000100
00000001
00000010
,
00000100
00001000
00000001
00000001
,
00000010
00000100
00000010
00000100
00001000
00000010
00000100
00000000
,
00002100
00003010
00000102
00000013
,
00000001
00000100
00001000
00000000
00010000
01000000
10000000
01000000
,
00100000
00010000
10000000
10000000
,
00100000
01000000
00100000
01000000
00010000
00100000
01000000
00000000
,
10020000
01030000
20010000
31000000
,
10000000
00100000
00010000
00000000
00001000
00000010
00000100
00001000
,
00000001
00000100
00000010
00000010
,
00001000
00000001
00000100
00000000
00000100
00000000
00000100
00000000
;
