
//----- mcode: days -----//
#TITLE:Days Go By;
#ARTIST:Dirty Vegas;
#BANNER:Days Go By.png;
#BACKGROUND:Days Go By-bg.png;
#CDTITLE:./CDTitles/DDRMAX2 US PS2.png;
#MUSIC:Days Go By.ogg;
#SAMPLESTART:70.887;
#SAMPLELENGTH:15;
#DISPLAYBPM:127;
#BPMS:0=105.85,20=127;
#BGCHANGES:0=Days Go By-bg.png=1=0=0=0,
4=Days Go By.avi=1.2=0=0=0===CrossFade,
184=Days Go By-bg.png=1=0=0=0;
#NOTES:
     dance-single:
     :
     Beginner:
     1:
     :
0000
0000
0000
0000
,
0000
0000
0000
0000
,
0000
0000
0000
0000
,
0000
0000
0000
0000
,
0000
0000
0000
0000
,
0000
0000
0000
0000
,
0000
0000
0000
0000
,
0010
0000
0000
0000
,
0010
0000
0000
0000
,
0001
0001
0001
0000
,
1000
1000
1000
0000
,
0010
0010
0010
0000
,
0100
0100
0100
0000
,
1000
0000
0000
0000
,
0000
0000
0001
0001
,
0001
0000
0001
0000
,
0100
0100
0100
0000
,
0001
0000
0100
0000
,
0010
0000
1000
0000
,
0001
0000
0100
0000
,
1000
0000
0100
0000
,
0001
0000
0000
0000
,
0000
0000
1000
1000
,
1000
0000
1000
0000
,
0100
0100
0100
0000
,
1000
0000
0100
0000
,
0010
0000
0001
0000
,
1000
0000
0100
0000
,
0001
0000
0100
0000
,
1000
1000
1000
0000
,
0001
0001
0001
0000
,
0100
0000
0100
0000
,
0100
0000
0100
0000
,
0001
0001
0001
0000
,
1000
1000
1000
0000
,
0100
0000
0100
0000
,
0100
0000
0100
0000
,
1001
0000
0000
0000
,
1000
1000
1000
0000
,
1001
0000
0000
0000
,
0100
0100
0100
0000
,
1001
0000
0000
0000
,
0001
0001
0001
0000
,
1001
0000
0000
0000
,
0010
0010
0010
0000
,
1001
0000
0000
0000
;
#NOTES:
     dance-single:
     :
     Easy:
     4:
     :
0000
0000
0000
0000
,
0000
0000
0000
0000
,
0000
0000
0000
0000
,
0000
0000
0000
0000
,
0000
0000
0000
0000
,
0000
0000
0000
0000
,
0000
0000
0000
0000
,
0010
0000
0001
1000
,
0100
0000
1000
0001
,
0100
0100
1000
0001
,
1000
1000
0001
0010
,
1000
0000
0001
0000
,
0100
0100
0010
0010
,
2000
3000
1000
0001
,
0002
0003
0001
0100
,
0001
0001
1000
0000
,
0100
0100
0001
0000
,
0010
0010
0000
0000
,
0100
0100
0000
0000
,
0001
0000
0100
0000
,
1000
0000
0100
0000
,
0020
0030
0001
1000
,
0200
0300
1000
0100
,
1000
0100
0001
0000
,
0001
0100
1000
0000
,
0010
0010
0000
0000
,
0100
0100
0000
0000
,
1000
0000
0110
0000
,
0001
0000
0110
0000
,
2000
3000
0001
0100
,
0002
0003
1000
0100
,
0001
0100
1000
0100
,
0001
0001
1000
1000
,
0002
0000
1003
0100
,
2000
0000
3001
0100
,
1000
0110
0100
0001
,
0001
0110
0010
1000
,
0010
0010
1000
0001
,
1000
1000
0001
0100
,
2000
3000
0002
0003
,
0010
0010
0100
0100
,
0010
0010
0001
1000
,
0001
0001
1000
0100
,
0002
0003
2000
3001
,
0020
0030
0100
0010
,
0110
0000
0000
0000
;
#NOTES:
     dance-single:
     :
     Medium:
     5:
     :
0000
0000
0000
0000
,
0000
0000
0000
0000
,
0000
0000
0000
0000
,
0000
0000
0000
0000
,
0000
0000
0000
0000
,
0000
0000
0000
0000
,
0000
0000
0000
0000
,
0001
1000
0001
0010
,
1000
0001
1000
0100
,
0001
0000
1000
0000
0001
0010
0001
0000
,
1000
0000
0001
0000
1000
0100
1000
0000
,
0200
0301
0010
0100
,
0020
1030
0100
0010
,
0100
0001
0100
1000
,
0001
0000
1000
0000
0001
0010
0100
0000
,
0001
0100
0001
0000
1000
0100
1000
0000
,
0010
0000
0001
0000
1000
0010
0100
0000
,
1000
0100
0010
0000
0001
0100
0001
0000
,
0010
0000
1000
0000
0001
1000
0001
0000
,
1000
0100
0001
0010
,
2000
3100
0002
0103
,
0010
0001
0010
1000
,
0001
0000
1000
0000
0001
0100
0010
0000
,
0001
0010
0001
0000
1000
0010
1000
0000
,
0100
0000
0001
0000
1000
0100
0010
0000
,
1000
0010
0100
0000
0001
0010
0001
0000
,
0100
0000
1000
0000
0001
1000
0001
0000
,
1000
0010
0001
0100
,
2000
3010
0002
0013
,
0001
0100
1001
0100
,
1000
0100
0110
1000
,
0001
1000
0100
0000
1000
0010
0100
0000
,
0200
0001
0010
0301
,
1000
0100
1001
0100
,
0001
0100
0110
0001
,
1000
0001
0100
0000
0001
0010
0100
0000
,
0200
1000
0010
1300
,
0001
0000
1000
0000
0001
0100
0001
0000
,
1000
0000
0001
0000
1000
0100
1000
0000
,
0200
0001
0310
0100
,
0020
1000
0130
0010
,
1000
0000
0001
0000
1000
0100
1000
0000
,
0001
0000
1000
0000
0001
0100
0001
0000
,
0200
1000
0310
0100
,
0020
0001
0130
0010
,
2002
0000
3003
0000
;
#NOTES:
     dance-single:
     :
     Hard:
     6:
     :
0000
0000
0000
0000
,
0000
0000
0000
0000
,
0000
0000
0000
0000
,
0000
0000
0000
0000
,
0000
0000
0000
0000
,
0000
0000
0000
0000
,
0000
0000
0000
0000
,
0010
0000
0001
0000
1000
0010
0100
0000
,
0001
0000
1001
0000
0100
1000
0010
0000
,
0001
0000
0110
0000
0001
0100
0010
0000
,
0001
0000
0010
0000
1000
0010
0100
0000
,
1010
0000
0001
0000
1000
0010
0100
0000
,
0101
0100
0010
0110
,
0002
0000
1003
0000
0100
0010
0100
0000
,
2000
0000
3100
0000
0001
1000
0001
0000
,
0010
0110
1000
0001
,
1000
1001
0010
0110
,
1000
0001
0100
0010
0200
0000
0310
0000
,
0100
0010
0100
0001
2000
0000
3010
0000
,
0002
0103
2000
3010
,
0001
0001
1000
1001
,
0002
0000
1003
0000
0010
0100
0010
0000
,
0002
0000
0013
0000
1000
0001
1000
0100
,
0010
0110
0001
1001
,
0010
0000
1001
0000
0010
0001
0100
0000
,
0001
1000
0001
0100
2000
0000
3010
0000
,
0100
0010
0100
0000
0002
0000
0013
0100
,
1000
0001
0100
0000
0002
0000
1003
0000
,
2000
3001
0110
1001
,
2000
0001
0100
3001
,
0020
1000
0100
1030
,
0001
1000
0001
0000
0010
0100
0010
0000
,
1000
0001
1000
0000
0100
0010
0100
0000
,
0002
1000
0100
1003
,
0020
0001
1000
0031
,
1000
0001
1000
0100
0010
0100
0010
0000
,
0001
1000
0001
0010
0100
0000
0100
0000
,
1001
0000
1000
0000
0001
0100
0010
0000
,
0001
0000
0010
0000
1000
0010
0100
0001
,
1000
0000
0001
0000
1000
0010
0100
0000
,
0001
0010
0100
0000
0010
0100
0010
1000
,
0100
0000
1001
0000
1000
0100
0010
0000
,
1000
0000
0110
0000
0001
0010
0100
1000
,
0001
0100
1000
0000
0001
0010
0100
0000
,
1000
0010
0100
0001
0010
0100
0010
0000
,
2002
0000
3003
0000
;
#NOTES:
     dance-double:
     :
     Easy:
     2:
     :
00000000
00000000
00000000
00000000
,
00000000
00000000
00000000
00000000
,
00000000
00000000
00000000
00000000
,
00000000
00000000
00000000
00000000
,
00000000
00000000
00000000
00000000
,
00000000
00000000
00000000
00000000
,
00000000
00000000
00000000
00000000
,
00000000
00000000
00000000
00000000
,
00000000
00000000
00000000
00000000
,
10000000
00000000
00000000
00000000
,
00010000
00000000
00000000
00000000
,
00100000
00000000
01000000
00000000
,
10000000
01000000
00010000
00001000
,
00011000
00000000
00000000
00000000
,
00000000
00000000
00001000
00000010
,
00000001
00000000
00000001
00000000
,
00001000
00000000
00001000
00000001
,
00001000
00000000
00001000
00000000
,
00000010
00000000
00000010
00000010
,
00000100
00000000
00000100
00000000
,
00000001
00000100
00001000
00010000
,
00011000
00000000
00000000
00000000
,
00000000
00000000
00010000
00100000
,
10000000
00000000
10000000
00000000
,
00010000
00000000
00010000
10000000
,
00010000
00000000
00010000
00000000
,
00100000
00000000
00100000
00100000
,
01000000
00000000
01000000
00000000
,
10000000
01000000
00010000
00001000
,
00022000
00000000
00000000
00033000
,
00001000
00000000
00000010
00000000
,
00000002
00000000
00000000
00000003
,
00002000
00000000
00000001
00003000
,
00000220
00000000
00000000
00000330
,
00000010
00000000
00000100
00000000
,
00000002
00000000
00001000
00000003
,
00000000
00000000
00000001
00000100
,
00001000
00000000
00010000
00000000
,
00010000
00010000
00100000
00100000
,
10000000
00000000
00010000
00000000
,
00100000
00100000
00010000
10000000
,
10010000
00000000
01000000
00000000
,
00010000
00010000
00001000
00001000
,
00000010
00000000
00000100
00000000
,
00001000
00000001
00000010
00000100
,
00001001
00000000
00000000
00000000
;
#NOTES:
     dance-double:
     :
     Medium:
     5:
     :
00000000
00000000
00000000
00000000
,
00000000
00000000
00000000
00000000
,
00000000
00000000
00000000
00000000
,
00000000
00000000
00000000
00000000
,
00000000
00000000
00000000
00000000
,
00000000
00000000
00000000
00000000
,
00000000
00000000
00000000
00000000
,
00000000
00000000
00000000
00000000
,
00000000
00000000
00000000
00000000
,
10000000
00010000
00100000
01000000
,
10000000
00100000
00010000
00001000
,
00000010
00000100
00001000
00000001
,
00000100
00001000
00010000
01000000
,
10010000
00000000
01000000
00000000
,
00100000
00000000
00010000
10000000
,
01000000
00000000
01000000
00000000
,
01000000
01000000
00010000
00001000
,
00000020
00000000
00000001
00000000
,
00000130
00001000
00000001
00000100
,
00000010
00002000
00000000
00000001
,
00000000
00000001
00000000
00003001
,
00000110
00000000
00001000
00000000
,
00000001
00000000
00000010
00000100
,
00001000
00000000
00001000
00000000
,
00001000
00001000
00000001
00000100
,
00002000
00010000
00000000
00010000
,
00003000
00100000
10000000
00010000
,
00100000
02000000
00000000
10000000
,
00000000
10000000
00000000
13000000
,
00010000
00100000
01000000
00000000
01000000
00000000
01000000
00000000
,
10000000
00100000
00010000
00002000
,
00010000
00010000
00000000
00013000
,
00001000
00000100
00000001
00000001
,
00001000
00000010
00000100
00000000
00000100
00000000
00000100
00000000
,
00000001
00000010
00001000
00020000
,
00001000
00001000
00000000
00031000
,
00010000
00000000
01000000
00000000
10000000
00000000
10000000
00010000
,
01000000
01000000
00100000
00100000
,
10000000
01000000
00010000
00001000
,
00000110
00000100
00001000
00001000
,
00000001
00000000
00000010
00000000
00000100
00000000
00001000
00000001
,
00000100
00000100
00001000
00001000
,
00010000
00000000
01000000
00000000
10000000
00010000
01000000
00000000
,
11000000
01000000
00100000
00100000
,
00010000
00000000
10000000
00000000
00100000
00010000
00001000
00000000
,
00011000
00000000
00000000
00000000
;
#NOTES:
     dance-double:
     :
     Hard:
     6:
     :
00000000
00000000
00000000
00000000
,
00000000
00000000
00000000
00000000
,
00000000
00000000
00000000
00000000
,
00000000
00000000
00000000
00000000
,
00000000
00000000
00000000
00000000
,
00000000
00000000
00000000
00000000
,
00000000
00000000
00000000
00000000
,
00000000
00000000
00000000
00000000
,
00000000
00000000
00000000
00000000
,
00000001
00000000
00000001
00000000
00001000
00000001
00001000
00000010
,
00000100
00000000
00000100
00000000
00000001
00000100
00001000
00010000
,
00001000
00000000
00001000
00000000
00010000
00100000
10000000
00010000
,
01000000
00000000
01000000
00000000
00100000
10000000
00010000
00000000
,
02200000
03300000
00010000
00010000
,
10000000
00000000
10000000
00000000
00100000
00010000
00001000
00000000
,
00001000
00000010
00000001
00000001
,
00001000
00000000
00001000
00000000
00000010
00000100
00000010
00000000
,
00001000
00000001
00000100
00001000
,
00010000
00010000
01000000
01000000
,
10000000
10000000
00010000
00010000
,
00100000
01000000
00100000
00010000
10000000
00000000
00100000
00000000
,
20020000
30030000
00100000
00100000
,
01000000
00000000
01000000
00000000
00010000
10000000
01000000
00000000
,
00010000
00001000
00000100
00000001
,
00000010
00000000
00000100
00000000
00001000
00000001
00001000
00000000
,
00000010
00000010
00000100
00000001
,
00000010
00001000
00010000
01000000
,
10000000
10000000
00010000
00010000
,
00100000
01000000
00100000
00010000
10000000
00100000
01000000
00000000
,
20020000
00000000
00000000
30030000
,
02000000
00000000
03020000
00000000
,
00032000
00000000
00003200
00000000
,
00000301
00000000
00000001
00000000
00000001
00000100
00001000
00000000
,
00000202
00000000
00000000
00000303
,
00000020
00000000
00002030
00000000
,
00023000
00000000
00230000
00000000
,
10300000
00000000
10000000
00000000
10000000
00010000
01000000
00100000
,
01000000
00000000
00010000
00000000
10000000
00100000
00010000
00001000
,
00010000
00000000
00000010
00000000
00000100
00000001
00000010
00000100
,
00001000
00000000
00000001
00000000
00001000
00000100
00000010
00000100
,
00000010
00000000
00000001
00000000
00000100
00001000
00010000
00000000
,
01100000
00000000
00010000
00000000
10000000
00100000
01000000
00100000
,
01000000
00000000
00010000
00000000
10000000
01000000
00010000
00001000
,
00000100
00000000
00000001
00000000
00000001
00000100
00000010
00000100
,
00000001
00000000
00001000
00000000
00000001
00000100
00001000
00000000
,
00011000
00000000
00000000
00000000
;
