
//----- mcode: getb -----//
#TITLE:Busy Child;
#ARTIST:The Crystal Method;
#BANNER:Busy Child.png;
#BACKGROUND:Busy Child-bg.png;
#CDTITLE:./CDTitles/DDRMAX2 US PS2.png;
#MUSIC:Busy Child.ogg;
#SAMPLESTART:78.706;
#SAMPLELENGTH:15;
#DISPLAYBPM:125;
#BPMS:0=124.6,4=125,116=125.2,132=124.9,160=125.5,164=124.95;
#NOTES:
     dance-single:
     :
     Beginner:
     1:
     :
0000
0000
0000
0000
,
0000
0000
0000
0000
,
0000
0001
0000
0000
,
0000
1000
0000
0000
,
0000
0001
0000
0000
,
1000
0000
1000
0000
,
1000
0000
1000
0000
,
0001
0000
0100
0000
,
0100
0000
0000
0000
,
1000
1000
0000
0000
,
0001
0001
0000
0000
,
1000
1000
0000
0000
,
0001
0001
0000
0000
,
1001
0000
0001
0001
,
0000
0000
0000
1000
,
0000
0000
0010
0010
,
0000
0000
0100
0000
,
1000
0000
1000
1000
,
0000
0100
0100
0000
,
0010
0000
0000
0000
,
0000
0000
0000
0000
,
0001
0000
0001
0001
,
0000
0100
0100
0000
,
0010
0000
0000
0000
,
0000
0000
0000
0000
,
0010
0000
0010
0000
,
0010
0000
0010
0000
,
1000
0000
1000
0000
,
1000
0000
1000
0000
,
0100
0000
0100
0000
,
0100
0000
0100
0000
,
0001
0000
0001
0000
,
0001
0000
0001
0000
,
0010
0000
1000
0000
,
0010
0000
1000
0000
,
0010
0000
1000
0000
,
1000
0000
1000
0000
,
1000
1000
1000
1000
,
1000
1000
1000
0000
,
0001
0000
1000
0000
,
0000
0000
0000
1001
,
0000
0000
0000
0000
,
1000
0000
0001
0000
,
0010
0000
0100
0000
,
0100
0000
0010
0000
,
0001
0000
1000
0000
,
0001
0000
1000
0000
,
0010
0000
0100
0000
,
0100
0000
0010
0000
,
0000
0000
0000
0000
,
1000
0000
0001
0000
,
0010
0000
0100
0000
,
0100
0000
0010
0000
;
#NOTES:
     dance-single:
     :
     Easy:
     5:
     :
0000
0000
0000
0000
,
0000
0000
0000
0000
,
0000
0000
0000
0000
,
0200
0300
0010
0001
,
0000
0000
0020
0030
,
0100
0001
0000
0001
,
0100
1000
0001
1000
,
1000
0002
0003
1000
,
0020
0000
0130
0110
,
0100
1000
0000
1000
,
0100
0001
1000
1001
,
0001
2000
3001
0001
,
0020
0100
0130
0110
,
0000
0010
0100
0110
,
0000
0001
0000
1001
,
0000
0010
0100
0110
,
0000
1000
0000
1001
,
0200
0000
0300
1000
,
2000
3002
0013
0100
,
0020
0000
0031
0100
,
0010
0001
1000
1001
,
0200
0000
0300
0001
,
0002
2003
3010
0100
,
0020
0000
1030
0100
,
0010
1000
0001
1001
,
0010
0010
0200
0300
,
0100
1000
0100
0002
,
0103
2000
3001
0100
,
0010
0000
0100
0100
,
0110
0000
1001
0000
,
1000
0010
0200
0301
,
0100
1000
0200
0310
,
0001
1000
1001
0000
,
0110
0000
1001
0000
,
1000
0010
0200
0301
,
0100
1000
0200
0310
,
0001
1000
1001
0000
,
0010
0100
0010
1000
,
0001
1000
0001
1000
,
0100
0100
0100
0100
,
0010
0010
0100
0110
,
0200
0000
0300
1000
,
2001
3002
0013
0100
,
0020
0000
1030
0100
,
0010
0001
1000
0001
,
0200
0000
0300
0001
,
1002
2003
3010
0100
,
0020
0000
0031
0100
,
0010
1000
0001
1000
,
0200
0000
0300
1000
,
2001
3002
0013
0100
,
0020
0000
1030
0100
,
0010
0001
1000
1001
;
#NOTES:
     dance-single:
     :
     Medium:
     7:
     :
0000
0000
0000
0000
,
0000
0000
0000
0000
,
0000
0000
0000
0000
,
0200
0000
1300
0100
,
0010
0020
0031
0010
,
0010
0001
0100
0000
2000
0000
3100
0000
,
0020
0000
0031
0000
0001
1000
0100
0000
,
0100
0001
2000
3100
,
0002
2003
3001
1001
,
0010
1000
0100
0000
0002
0000
0103
0000
,
0020
0000
1030
0000
1000
0001
0100
0010
,
1000
1000
0002
0103
,
2000
0100
3001
1100
,
0001
0000
0200
0000
0310
1000
0001
0100
,
0010
0010
2000
3001
,
1000
0000
0200
0000
0310
0001
1000
0100
,
0010
0010
0002
1003
,
0020
0000
0230
0000
0300
0001
0100
0000
,
0001
1000
0002
0000
0013
1000
0100
0000
,
1010
0200
0300
0101
,
0001
0010
0100
0000
1000
0000
0001
0000
,
0020
0000
0230
0000
0300
1000
0100
0000
,
1000
0001
2000
0000
3010
0001
0100
0000
,
0011
0200
0300
1100
,
1000
0010
0100
0000
0001
0000
1000
0000
,
0010
0010
1000
0000
1000
1000
0100
0000
,
0001
0000
1000
0000
0001
1000
0001
0000
,
0100
0100
0001
0000
0010
0010
1000
0000
,
0001
0100
0001
0010
0001
1000
0100
0000
,
0001
0010
0200
0000
0300
0010
0100
0000
,
1000
0001
1000
0001
2000
0000
3100
0000
,
0010
0001
0010
0000
1000
0000
0101
0000
,
2000
0000
3100
0000
0010
1000
0100
0000
,
0001
0010
0200
0000
0300
0010
0100
0000
,
1000
0001
1000
0001
2000
0000
3100
0000
,
0010
0001
0010
0000
1000
0000
0101
0000
,
2000
0000
3100
0000
0010
1000
0100
0000
,
0001
0011
0110
1100
,
1000
0101
0001
0110
,
0010
0100
0010
1000
0001
0100
0010
0000
,
0001
1000
0001
0000
0011
0000
1100
0000
,
0002
1000
0013
1010
,
0010
0100
0001
0010
0200
0000
0310
0000
,
1000
1000
0100
0000
0001
0001
0100
0000
,
0001
1100
1000
0110
,
2000
0001
3010
0011
,
0010
0100
1000
0010
0200
0000
0310
0000
,
0001
0001
0100
0000
1000
1000
0100
0000
,
1000
0101
0001
0110
,
0002
1000
0013
1010
,
0010
0100
0001
0010
0200
0000
0310
0000
,
1000
1000
0100
0000
0001
0001
0100
0000
,
0001
1100
1000
0110
;
#NOTES:
     dance-single:
     :
     Hard:
     7:
     :
0000
0000
0000
0000
,
0000
0000
0000
0000
,
0000
0000
0000
0000
,
2000
0000
3010
0000
0010
0100
0010
0000
,
0002
0013
2000
3100
,
0010
0000
0002
0000
1003
0001
0100
0000
,
0100
0000
2000
0000
3001
1000
0010
0000
,
0010
1000
0001
0000
0100
0001
1000
0000
,
0010
1010
0001
0101
,
0100
0000
1020
0000
1030
0001
0100
0000
,
0001
0010
0001
0000
0010
1000
0100
0000
,
1000
0000
0210
0000
0301
0100
0010
0000
,
0010
0001
0010
0100
1000
0010
0100
0000
,
0100
0000
0021
0000
0031
1000
0100
0000
,
1000
0010
1000
0000
0010
0001
0100
0010
,
0001
0000
0120
0000
1030
0100
0010
0000
,
1000
0100
1000
0000
0001
0010
0001
0000
,
0001
0100
0001
0000
0100
0000
0000
0000
2000
0000
0000
0000
3100
0000
0000
0000
,
0100
0010
0100
0000
0010
0000
0000
0000
0200
0000
0000
0000
1300
0000
0000
0000
,
0010
0100
0010
0000
0100
0000
0000
0000
0100
0010
0100
0000
0010
0000
0000
0000
,
0220
0330
1001
0100
,
0010
0010
2000
0000
3002
0000
0103
0000
,
0100
0100
0002
0000
0013
0010
0200
0000
,
1300
0100
2000
0000
3100
0010
0100
0000
,
0001
1000
0001
0100
0010
0010
0100
0000
,
1000
0100
1000
0000
0100
0000
0000
0000
0002
0000
0000
0000
0103
0000
0000
0000
,
0100
0010
0100
0000
0010
0000
0000
0000
0200
0000
0000
0000
0301
0000
0000
0000
,
0010
0100
0010
0000
0100
0000
0000
0000
0100
0010
0100
0000
0010
0000
0000
0000
,
0220
0330
1001
0100
,
0010
0010
0002
0000
2003
0000
3100
0000
,
0100
0100
2000
0000
3010
0010
0200
0000
,
0301
0100
0002
0000
0103
0010
0100
0000
,
1000
0001
1000
0100
0010
0010
0100
0000
,
0010
0100
0002
0000
1003
0010
0200
0000
,
0302
0000
1003
0000
0100
1000
0010
0000
,
0020
1000
0230
0010
,
0302
0100
2003
0001
,
3100
0001
0010
1000
,
0100
0001
0010
1000
,
0001
0010
0100
0010
0100
1000
0001
0100
,
0010
1000
0001
0000
1001
0000
0110
0000
,
2000
0000
0001
3100
,
0010
1000
0200
0000
0310
0001
0100
0000
,
0020
0000
0000
0000
0130
0000
0000
0000
0001
0100
0001
0000
0100
0000
0000
0000
,
1000
1000
0100
0000
0001
0001
0100
0000
,
0020
0000
2030
0100
,
3002
0000
0103
0000
0010
1000
0100
0000
,
0200
0000
0000
0000
1300
0000
0000
0000
1000
0100
1000
0000
0100
0000
0000
0000
,
0020
0031
0200
1300
,
0002
0000
1000
0103
,
0010
0001
0200
0000
0310
1000
0100
0000
,
0020
0000
0000
0000
0130
0000
0000
0000
1000
0100
1000
0000
0100
0000
0000
0000
,
1000
0001
0200
0000
0301
1000
2002
3003
;
#NOTES:
     dance-double:
     :
     Easy:
     3:
     :
00000000
00000000
00000000
00000000
,
00000000
00000000
00000000
00000000
,
00000000
00000000
00000000
00000000
,
10000000
00000000
00000000
00000000
,
00010000
00000000
00020000
00000000
,
10030000
00000000
00000000
00000000
,
01000000
00000000
00000000
00000000
,
00010000
00000000
00000000
00000000
,
00001000
00000000
00020000
00030000
,
00011000
00000000
00001000
00000000
,
00000010
00000000
00000001
00001000
,
00000001
00000000
00001000
00000000
,
00010000
00000000
00100000
01000000
,
01100000
00000000
10000000
00000000
,
00100000
00000000
10000000
00010000
,
10000000
00000000
00010000
00000000
,
00001000
00000000
00000010
00000100
,
00000020
00000000
00000000
00000030
,
00000200
00000000
00000000
00000300
,
00000002
00000000
00000000
00000003
,
00002000
00000000
00000000
00003000
,
00000002
00000000
00000000
00000003
,
00000200
00000000
00000000
00000300
,
00002000
00000000
00000000
00003000
,
00020000
00000000
00100000
00030000
,
02200000
00000000
00000000
03300000
,
00020000
00000000
10000000
10030000
,
20000000
00000000
01000000
31000000
,
02000000
00000000
00010000
03010000
,
00010000
00000000
00010000
00000000
,
00001000
00000000
00001000
00000000
,
00000010
00000000
00000010
00000010
,
00000010
00000000
00000001
00000001
,
00000001
00000000
00000100
00000100
,
00000100
00000000
00001000
00001000
,
00001000
00000000
00010000
00010000
,
00010000
00000000
00100000
00000000
,
10000000
00010000
10000000
10000000
,
00010000
10000000
00010000
00010000
,
10000000
10000000
01000000
00010000
,
00010000
00010000
00001000
00010000
,
00011000
00000000
00001000
00000000
,
00000010
00000000
00000100
00000000
,
00001000
00000000
00000001
00000000
,
00000100
00000000
00001000
00000000
,
00020000
00000000
00031000
00000000
,
00002000
00000000
00013000
00000000
,
00200000
00000000
01300000
00000000
,
20000000
00000000
30010000
00000000
,
00100000
00100000
01000000
00000000
,
10000000
10000000
00100000
00000000
,
00010000
00010000
00001000
00000000
,
00000010
00000010
00000002
00001003
;
#NOTES:
     dance-double:
     :
     Medium:
     6:
     :
00000000
00000000
00000000
00000000
,
00000000
00000000
00000000
00000000
,
00000000
00000000
00000000
00000000
,
10000000
10000000
00000000
00000000
,
00010000
00010000
00000000
00000000
,
20000000
00000000
00000000
30000000
,
02000000
00000000
00000000
03000000
,
00020000
00000000
00000000
00030000
,
00002000
00000000
00000000
00003000
,
00011000
00000000
00001000
00000000
00010000
00001000
00000010
00000000
,
00001100
00000000
00000001
00000000
00000010
00000100
00000100
00000000
,
00001000
00000001
00000100
00001000
,
00010000
01000000
10000000
00000000
00100000
00000000
10010000
00000000
,
01100000
00000000
10000000
00000000
00100000
00010000
00001000
00000000
,
00001100
00000000
00000001
00000000
00000010
00000100
00000100
00000000
,
00001000
00000001
00000100
00001000
,
00010000
01000000
10000000
00000000
00100000
00000000
10010000
00000000
,
02200000
00000000
00000000
03300000
,
20000000
00000000
00000000
00000000
,
30200000
00000000
00000000
00000000
,
00320000
00000000
00001000
00031000
,
00000200
00000000
00000000
00000000
,
00000320
00000000
00000000
00000000
,
00000032
00000000
00000000
00000000
,
00002003
00000000
00000000
00003010
,
00000101
00000000
00001000
00000000
00000001
00000100
00001000
00000000
,
00000011
00000000
00001000
00000000
00010000
00001000
00010000
00000000
,
01001000
00000000
00100000
00000000
10000000
00010000
00100000
00000000
,
11000000
00000000
00010000
00000000
00100000
01000000
00100000
00010000
,
10000000
00000000
01100000
00000000
00010000
10000000
01000000
00000000
,
00100000
00000000
00101000
00000000
00010000
00001000
00000100
00000000
,
00000101
00000000
00001000
00000000
00000010
00001000
00000100
00000000
,
00000001
00000000
00000001
00000000
00000010
00000100
00001000
00000000
,
00001000
00000000
00001000
00000000
00001000
00000000
00001000
00000001
,
00000001
00000000
00000001
00000000
00000001
00000001
00000001
00000000
,
00000001
00000100
00001000
00010000
,
00010000
01000000
10000000
00000000
10000000
00000000
10000000
00000000
,
00010000
10000000
00010000
00000000
00100000
00000000
01000000
00000000
,
10000000
00010000
01000000
00000000
00100000
00000000
10000000
00000000
,
00010000
10000000
00010000
00000000
10000000
00010000
10000000
00000000
,
01000000
00010000
00001000
00010000
00001000
00000000
00000100
00000000
,
00000012
00000103
00000010
00001000
,
00000001
00000000
00000001
00000000
00000001
00001000
00000001
00000000
,
00002010
00003100
00000010
00000001
,
00000100
00001000
00010000
01000000
,
20100000
31000000
00100000
00010000
,
10000000
00000000
10000000
00000000
10000000
00010000
10000000
00000000
,
00120000
01030000
00100000
10000000
,
01000000
00010000
00001000
00000100
,
00000012
00000103
00000010
00001000
,
00000001
00000000
00000001
00000000
00000001
00001000
00000001
00000000
,
00002010
00003100
00000010
00000001
,
00000100
00000000
00001000
00000000
00010000
00000000
00010000
00001000
;
#NOTES:
     dance-double:
     :
     Hard:
     8:
     :
00000000
00000000
00000000
00000000
,
00000000
00000000
00000000
00000000
,
00000000
00000000
00000000
00000000
,
00000001
00002000
00000000
00000000
00003010
00000100
00000010
00000000
,
00001000
00000002
00000010
00000000
00000023
00000000
00000000
00000000
,
00000130
00000000
00000100
00000000
00001000
00000001
00001000
00000000
,
00000010
00000000
00010000
00000000
00001000
01000000
00010000
00000000
,
00100000
00000000
01000000
00000000
10000000
00010000
10000000
00000000
,
01200000
01300000
20000000
30010000
,
00100000
01000000
10000000
00010000
00100000
00000000
00100000
00000000
,
00010000
10000000
00100000
00010000
00001000
00000000
00001000
00000000
,
00001000
00000100
00000001
00001000
00000001
00000000
00000001
00000000
,
00000010
00000100
00000010
00000100
00001000
00000000
00001001
00000000
,
00000010
00000100
00000001
00001000
00000010
00000000
00000010
00000000
,
00001000
00000001
00000010
00001000
00010000
00000000
00010000
00000000
,
00010000
01000000
10000000
00010000
10000000
00000000
10000000
00000000
,
00100000
01000000
00100000
01000000
00010000
00000000
10010000
00000000
,
00200000
00000000
01300000
00000000
10000000
00010000
10000000
00000000
,
20000000
00000000
30010000
00000000
00100000
01000000
10000000
00000000
,
00200000
00000000
00310000
00000000
00001000
00010000
00001000
00000000
,
00000020
00000000
00000031
00000000
00001000
00000010
00000100
00000000
,
00000020
00000000
00000130
00000000
00000001
00001000
00000001
00000000
,
00000002
00000000
00001003
00000000
00000010
00000100
00000001
00000000
,
00000200
00000000
00001300
00000000
00010000
00001000
00010000
00000000
,
00200000
00000000
10300000
00000000
00010000
00100000
01000000
00100000
,
00020000
00000000
10030000
00000000
00010000
00100000
01000000
00100000
,
00020000
00000000
10030000
00000000
00100000
01000000
00010000
10000000
,
02000000
00000000
03010000
00000000
00001000
00010000
00001000
00000010
,
00000200
00000000
00001300
00000000
00000001
00000010
00000100
00001000
,
00001001
00000000
00001000
00000100
00000010
00000100
00001000
00000000
,
00000011
00000000
00000100
00000001
00000010
00000100
00001000
00000000
,
00000101
00000000
00000100
00001000
00010000
00001000
00010000
00000000
,
01000000
00000000
00100000
10000000
00010000
10000000
01000000
00000000
,
10010000
00000000
00100000
01000000
00100000
01000000
00100000
00000000
,
10010000
00000000
01000000
00010000
01000000
00010000
01000000
00000000
,
00110000
00001000
00021000
00030100
,
00000011
00001000
00001200
00000301
,
00001100
00000011
00000110
00001001
,
00000010
00000100
00001000
00000000
00000010
00000100
00001000
00000000
,
00001000
00000001
00000100
00001000
00010000
01000000
10000000
00100000
,
01000000
01000000
01000000
01000000
01000000
00000000
00010000
00000000
,
02100000
00000000
13000000
00000000
00010000
10000000
00010000
01000000
,
02100000
00000000
03010000
00000000
10000000
00010000
10000000
00010000
,
10000000
00000000
01000000
00000000
00010000
00001000
00000100
00000001
,
00000010
00000100
00001000
00000000
00000010
00000000
00001001
00000000
,
00000210
00000000
00000301
00000000
00001000
00000001
00001000
00000100
,
00000210
00000000
00001300
00000000
00000001
00001000
00000001
00001000
,
00000001
00000000
00000100
00000000
00001000
00010000
01000000
10000000
,
00100000
10000000
01000000
00000000
00100000
00000000
10010000
00000000
,
02100000
00000000
13000000
00000000
00010000
10000000
00010000
01000000
,
02100000
00000000
03010000
00000000
10000000
00010000
10000000
00010000
,
10000000
01000000
00010000
00000000
00010000
00001000
00000010
00000000
,
00000001
00000100
00000001
00000010
00000200
00000000
00001300
00000001
;
