#TITLE:Kind Lady (interlude);
#ARTIST:OKUYATOS;
#BANNER:Kind Lady (interlude).png;
#BACKGROUND:Kind Lady (interlude)-bg.png;
#CDTITLE:./CDTITLES/DANCE DANCE REVOLUTION HOME VERSION.PNG;
#MUSIC:Kind Lady (interlude).ogg;
#SAMPLESTART:15.945;
#SAMPLELENGTH:15;
#BPMS:0=135;

//---------------dance-single - ----------------
#NOTES:
     dance-single:
     :
     Beginner:
     2:
     :
0000
0000
0000
0000
,
0000
0000
0000
0000
,
0000
0000
0000
0000
,
0000
0000
0000
0000
,
0000
0000
0000
0000
,
0001
0000
0000
1000
,
0000
0100
0000
1000
,
0000
1000
0000
1000
,
0000
0010
0000
1000
,
0000
1000
0000
0001
,
0000
1000
0000
1000
,
0000
1000
0000
0010
,
0000
1000
0000
0100
,
0000
1000
0000
0000
,
0100
0000
1000
0000
,
0001
0000
1000
0000
,
1000
0000
0001
0000
,
1001
0000
0110
0000
,
0110
0000
1001
0000
,
1000
0000
1000
0000
,
1001
0000
0010
0000
,
0001
0000
1000
0000
,
0010
0000
1000
0000
,
0001
0000
0010
0000
,
0010
0000
1000
0000
,
1001
0000
1001
0000
,
0010
0000
0010
0000
,
0110
0000
1000
0000
,
0110
0000
0110
0000
,
0001
0000
1000
0000
,
0010
0000
0100
0000
,
0001
0000
1000
0000
,
0010
0000
0100
0000
,
0001
0000
0001
0000
,
0001
0000
0001
0000
,
0010
0000
0100
0000
,
0110
0000
1001
0000
,
1000
0000
0001
0000
,
1001
0000
0110
0000
,
1000
0000
0001
0000
,
0010
0000
0100
0000
,
1000
0000
0000
0110
,
0000
0100
0000
1000
,
0000
1000
0000
0001
,
0000
0010
0000
0001
,
0000
0100
0000
1000
,
0000
0100
0000
1000
,
0000
0001
0000
0001
,
0000
0100
0000
1000
;

//---------------dance-single - ----------------
#NOTES:
     dance-single:
     :
     Easy:
     4:
     :
0000
0000
0000
0000
,
0000
0000
0000
0000
,
0000
0000
0000
0000
,
0000
0000
0000
0000
,
0000
0000
0000
0000
,
0001
0100
0000
1000
,
0000
0100
0100
1000
,
0001
1000
1000
1000
,
0010
0010
0001
1000
,
0001
1000
0100
0001
,
1000
1000
0100
1000
,
0001
1000
1000
0010
,
0001
1000
1000
0100
,
0001
1000
0010
0000
,
0100
0000
1000
0000
,
0001
0001
1000
0100
,
1000
1000
0001
0100
,
1001
0100
1100
0100
,
0110
1000
0011
0100
,
1000
1000
1000
1000
,
1001
0100
0010
0010
,
0001
1000
1000
0100
,
0010
0001
1000
0100
,
0001
0001
0010
1000
,
0010
0010
1000
0100
,
1001
0010
1001
0000
,
0010
1000
0010
0100
,
0110
0010
1000
0001
,
1100
0000
0101
0000
,
0001
0010
1000
0100
,
0010
0001
0100
1000
,
0001
1000
1000
1000
,
0010
0010
0100
0100
,
0001
1000
0001
0010
,
0001
0100
0001
1000
,
0010
1000
0100
0001
,
0101
0010
1010
0100
,
1000
1000
0001
0100
,
1001
1000
0110
0100
,
1000
0100
0001
0100
,
0010
1000
0100
0001
,
1000
0100
0000
0101
,
0100
0100
1000
1000
,
0001
1000
1000
0001
,
1000
0010
0100
0001
,
1001
0100
0010
1000
,
0001
0100
1000
1000
,
0001
0001
1000
0001
,
0010
0100
0010
1000
;

//---------------dance-single - ----------------
#NOTES:
     dance-single:
     :
     Medium:
     6:
     :
0000
0000
0000
0000
,
0000
0000
0000
0000
,
0000
0000
0000
0000
,
0000
0000
0000
0000
,
0000
0000
0000
0000
,
0001
0001
0100
1000
,
0010
0002
0100
2003
,
0100
3001
0010
1000
,
0010
0010
1000
0001
,
0200
0000
0300
0000
0001
1000
0100
0000
,
0020
0000
0030
0000
0100
1000
0001
0000
,
0200
0300
0020
0030
,
2000
3000
0002
0003
,
1000
0100
0010
0000
0002
0000
0103
0000
,
0010
1000
0100
0000
1000
0000
0001
0000
,
0100
0100
0001
1000
,
0010
0010
1000
0100
,
0002
0103
0020
1030
,
0200
0310
2000
3001
,
0010
1001
0100
1000
,
0001
0100
0020
0000
1030
0000
0100
0000
,
0001
2000
0000
0000
3010
0200
0000
0000
,
0302
0000
0003
0000
1000
0001
0100
0000
,
0010
1000
0100
0001
,
1000
1000
0001
0100
,
2002
0000
0000
3003
,
0001
0001
0100
0000
1000
1000
0010
0000
,
0220
0330
0110
0110
,
1000
0001
0100
0000
0010
0000
1000
0000
,
0202
0000
0000
0303
,
1000
0100
1000
0000
0002
0000
0013
0000
,
2200
0300
0001
3100
,
0001
1000
0010
0100
,
0020
0000
0000
0000
,
0100
0000
0100
0030
,
0001
0100
0010
0000
1000
0001
0100
0000
,
1001
0100
1001
0000
,
1000
0100
0001
0100
,
0001
0010
0000
0000
1000
0100
0000
0000
,
0010
1000
0000
0000
0001
0100
1000
0000
,
0001
0001
1000
1000
,
0010
1000
0001
0100
,
0002
0000
2000
3003
,
0001
0010
0100
1000
,
0220
0330
1001
0110
,
0001
2000
0000
3000
0001
0100
0010
0000
,
2002
3003
0010
0110
,
0001
1000
0001
0100
,
2020
3030
0001
1000
;

//---------------dance-single - ----------------
#NOTES:
     dance-single:
     :
     Hard:
     7:
     :
0000
0000
0000
0000
,
0000
0000
0000
0000
,
0000
0000
0000
0000
,
0000
0000
0000
0000
,
0000
0000
0000
0000
,
0001
0001
0001
0001
,
1000
1000
1000
1000
,
0010
0010
0100
0100
,
0001
1000
0010
0100
,
0001
0010
1000
0000
0001
0100
0010
0000
,
1000
1000
1000
0001
0100
0010
1000
0000
,
0001
0010
1000
0100
,
0010
1000
0100
0010
0001
0100
1000
0000
,
0010
1000
0100
0001
1000
0000
0100
0000
,
0010
0001
1000
0000
0100
0001
0010
0000
,
0100
0100
0010
0010
,
0001
0010
0100
0000
1000
0000
0001
0000
,
0100
0001
1000
0001
0000
1000
0100
0010
,
0000
1000
0001
0100
0000
0010
0100
0010
,
1000
0100
1000
0100
0001
1000
0001
0010
,
0100
1000
0001
0100
0010
0100
0001
0100
,
0000
1000
0010
0001
0000
0010
1000
0100
,
0000
0010
0001
1000
0000
0010
1000
0001
,
0001
0001
0010
1000
,
0001
1001
0100
1000
,
0101
0101
1010
1010
,
0001
0000
1000
0000
0100
0001
1000
0010
,
0110
0110
1001
1001
,
0011
0000
1100
0000
1000
1000
0001
0010
,
0200
0000
0300
0000
0001
1000
0010
0100
,
0110
0000
1001
0000
0100
0010
0100
0001
,
1010
0000
0101
0000
0010
1000
0100
0001
,
0010
0001
1000
0100
0001
1000
0010
0000
,
0200
0000
0000
0300
,
0001
0100
0001
0100
1000
0100
0001
0000
,
1000
0100
0010
1000
0001
0100
0001
0000
,
1000
0000
0101
0000
0001
1000
0001
1000
,
0100
1000
0001
0010
,
0100
1000
0001
0100
0010
1000
0100
0000
,
0100
0100
0100
0001
1000
0010
0100
0000
,
0011
1001
1100
0110
,
0001
1000
0001
0100
,
0220
0000
0000
0000
,
0000
0000
0000
0330
,
2002
3003
0010
0100
,
0010
1000
0000
0000
0100
0000
0010
0000
0001
0000
1000
0000
0100
0000
0001
0000
,
2000
0001
0001
3100
,
0010
0001
0000
0000
0100
0000
0000
0000
1000
0000
0010
0000
1000
0000
0100
0000
,
0020
0001
1000
1030
,
0001
0000
0000
0000
;

//---------------dance-single - ----------------
#NOTES:
     dance-single:
     :
     Challenge:
     8:
     :
0000
0000
0000
0000
,
0000
0000
0000
0000
,
0000
0000
0000
0000
,
0000
0000
0000
0000
,
0000
0000
0000
0000
,
1001
0100
1001
0010
,
1001
0100
1001
0010
,
1001
0100
1001
0010
,
1001
0110
1001
0110
,
0010
0100
0001
0010
0001
1000
0100
0000
,
0010
0001
1000
0100
0001
0100
1000
0100
,
0001
0010
0100
1000
0100
0010
0001
0100
,
0001
0100
1000
0001
1000
0001
0100
0010
,
0100
0001
1000
0010
1000
0001
0010
0100
,
1000
0001
1000
0100
0010
0001
1000
0100
,
0001
0100
1000
0001
1000
0001
0100
1000
,
0001
0100
0001
1000
0010
0100
0001
0000
,
1001
0000
0000
0000
1000
0001
1000
0100
,
1001
1001
0000
0000
0010
1000
0001
1000
,
1000
0000
0000
0000
1000
0001
1000
0001
,
0000
0010
0000
0010
1000
0001
0100
0000
,
0001
1100
0001
1100
,
0001
0000
1100
0000
0001
1000
0100
1000
,
1000
0000
0101
0000
1000
0001
0100
0001
,
1001
0110
1001
0110
,
1000
0001
0100
0010
0100
0001
1000
0000
,
0002
2003
3200
0310
,
0001
0010
0100
0000
0001
1000
0100
0000
,
0020
0000
0000
1000
0030
0000
0200
0000
0000
0000
0000
0000
0300
0000
0000
0000
,
0010
0100
1000
0001
0100
0010
0100
0000
,
2000
3002
0203
0310
,
2000
0000
3010
0100
0010
1000
0001
0000
,
2000
3200
0320
0030
,
0001
0000
1000
0001
0100
0010
1000
0001
,
0100
0001
0000
1000
0000
0010
0000
0000
,
1000
0000
0100
0010
0001
0100
0001
1000
,
0020
0000
0230
0000
0301
1000
0001
0000
,
2000
0000
3020
0000
1030
0001
1000
0000
,
0200
0320
0032
1003
,
0010
0100
0100
1000
,
0010
0100
0001
0000
1000
0002
0103
0000
,
0010
0100
0010
0000
0001
2000
3100
0000
,
0010
0001
1000
0000
0100
0020
0031
0000
,
1000
0010
0100
0000
0001
2000
3010
0000
,
0100
0001
1000
0000
2020
0000
3030
0000
,
0001
2000
3100
0000
0010
0100
0010
0000
,
0001
1000
0100
0010
0002
0000
0103
0000
,
1000
0001
0100
0000
0010
0100
0010
0000
,
0011
0000
1100
0000
0001
0100
0010
0000
,
2002
0000
0000
0000
,
0000
0000
0000
3003
;

//---------------dance-double - ----------------
#NOTES:
     dance-double:
     :
     Beginner:
     2:
     :
00000000
00000000
00000000
00000000
,
00000000
00000000
00000000
00000000
,
00000000
00000000
00000000
00000000
,
00000000
00000000
00000000
00000000
,
00000000
00000000
00000000
00000000
,
10010000
00000000
00000000
00000000
,
01000000
00000000
00000000
00010000
,
00000000
00000000
00000000
00000000
,
00001000
00000000
00010000
00000000
,
00011000
00000000
00000100
00000000
,
00000010
00000000
00000001
00000000
,
00001000
00000000
00000010
00000000
,
00000100
00000000
00001000
00000000
,
00010000
00000000
01000000
00000000
,
10000000
00000000
00010000
00000000
,
00100000
00000000
01000000
00000000
,
10000000
00000000
00010000
00000000
,
10010000
00000000
01000000
00000000
,
00010000
00000000
00001000
00000000
,
00001000
00000000
00000100
00000000
,
00000001
00000000
00001000
00000000
,
00000010
00000000
00000100
00000000
,
00000001
00000000
00000010
00000000
,
00010000
00000000
00100000
00000000
,
10000000
00000000
00010000
00000000
,
10010000
00000000
00000000
00000000
,
01000000
00000000
00100000
00000000
,
10010000
00000000
00000000
00000000
,
00100000
00000000
00010000
00000000
,
00011000
00000000
00000010
00000000
,
00000001
00000000
00001000
00000000
,
00000100
00000000
00000001
00000000
,
00001000
00000000
00000010
00000000
,
00000100
00000000
00000000
00000000
,
00000001
00000000
00000000
00001000
,
00000000
00000000
00000000
00000001
,
00000000
00000000
00000100
00000000
,
00001000
00000000
00010000
00000000
,
00100000
00000000
01000000
00000000
,
10000000
00000000
00010000
00000000
,
01000000
00000000
00100000
00000000
,
10000000
00000000
00010000
00000000
,
00001000
00000000
00000010
00000000
,
00001000
00000000
00000001
00000000
,
00001001
00000000
00000100
00000000
,
00000010
00000000
00000100
00000000
,
00100000
00000000
01000000
00000000
,
10000000
00000000
00010000
00000000
,
00100000
00000000
10000000
00000000
,
01000000
00000000
00000000
00000000
;

//---------------dance-double - ----------------
#NOTES:
     dance-double:
     :
     Easy:
     4:
     :
00000000
00000000
00000000
00000000
,
00000000
00000000
00000000
00000000
,
00000000
00000000
00000000
00000000
,
00000000
00000000
00000000
00000000
,
00000000
00000000
00000000
00000000
,
20020000
30030000
00000000
00000000
,
02000000
03000000
00000000
00010000
,
00020000
00030000
00000000
00000000
,
00001000
00000000
00010000
00001000
,
00011000
00000000
00000100
00000000
,
00000010
00000000
00000001
00000001
,
00001000
00001000
00000010
00000000
,
00000100
00000000
00001000
00001000
,
00010000
00000000
01000000
00000000
,
10000000
00000000
00010000
00000000
,
00100000
00100000
01000000
01000000
,
10000000
00000000
00010000
00000000
,
10010000
00000000
01000000
00000000
,
00010000
00010000
00001000
00000000
,
00001000
00001000
00000100
00000000
,
00000001
00000001
00001000
00001000
,
00000010
00000000
00000100
00000000
,
00000001
00000000
00000010
00001000
,
00010000
00000000
00100000
00000000
,
10000000
00000000
00010000
10000000
,
20020000
30030000
00000000
00000000
,
02000000
03000000
00200000
00300000
,
20020000
30030000
00000000
00000000
,
00100000
00000000
00010000
00001000
,
00011000
00000000
00000010
00000000
,
00000001
00000000
00001000
00000010
,
00000100
00000000
00000001
00000000
,
00001000
00000000
00000010
00000100
,
00000200
00000000
00000000
00000300
,
00000002
00000000
00000000
00001003
,
00002000
00000000
00000000
00003001
,
00000010
00000000
00000100
00000000
,
00001000
00001000
00010000
00010000
,
00100000
00000000
01000000
00000000
,
10000000
10000000
00010000
00010000
,
01000000
00000000
00100000
00000000
,
10000000
01000000
00010000
00000100
,
00001000
00000000
00000010
00000000
,
00002000
00000000
00000002
00003003
,
00001001
00000000
00000100
00000000
,
00000010
00000001
00000100
00001000
,
00100000
00000000
01000000
00000000
,
10000000
00000000
00010000
01000000
,
00100000
00000000
10000000
00000000
,
01000000
00000000
00000000
00000000
;

//---------------dance-double - ----------------
#NOTES:
     dance-double:
     :
     Medium:
     5:
     :
00000000
00000000
00000000
00000000
,
00000000
00000000
00000000
00000000
,
00000000
00000000
00000000
00000000
,
00000000
00000000
00000000
00000000
,
00000000
00000000
00000000
00000000
,
10010000
00000000
00100000
00000000
,
10000000
00000000
01000000
00010000
,
00001000
00000000
00000100
00000000
,
00000001
00001000
00000010
00000100
,
00001001
00000000
00000100
00000000
,
00000001
00000100
00001000
00010000
,
00100000
00100000
10000000
10000000
,
00010000
01000000
00100000
10000000
,
00010000
00100000
01000000
10000000
,
00100000
00010000
00001000
00000010
,
00000001
00001000
00000100
00000010
,
00000001
00000001
00001000
00000100
,
00001001
00000010
00000100
00000001
,
00000010
00001000
00010000
00100000
,
10000000
00000000
00010000
00000000
,
01000000
00100000
10000000
00010000
,
10000000
10000000
00100000
00100000
,
00010000
00010000
00001000
00001000
,
00000100
00000001
00000010
00000100
,
00002000
00003000
00000002
00000003
,
00001001
00000000
00000010
00000000
,
00000100
00000000
00000001
00001000
,
00000100
00000000
00000010
00000000
,
00000001
00000100
00001000
00010000
,
00011000
00000000
01000000
00000000
,
00100000
10000000
00010000
01000000
,
10010000
00000000
01000000
00000000
,
00100000
00001000
00010000
00000100
,
00022000
00000000
00000000
00000000
,
00000000
00000000
00000000
00033000
,
00001000
00000100
00000001
00001000
,
00000100
00000010
00000001
00000100
,
00001000
00000010
00001002
00000103
,
00000010
00001000
00100000
01000000
,
10000000
10000000
10020000
01030000
,
00100000
10000000
00010000
01000000
,
00100000
10000000
01000000
00100000
,
20020000
00000000
00000000
30030000
,
01000000
00010000
00000010
00000100
,
00001001
00000000
00000100
00000000
,
00000010
00001000
00000100
00000010
,
00001001
00000000
00000100
00000000
,
00010000
00100000
01000000
10000000
,
10010000
00000000
00100000
00000000
,
01000000
00000000
00000000
00000000
;

//---------------dance-double - ----------------
#NOTES:
     dance-double:
     :
     Hard:
     8:
     :
00000000
00000000
00000000
00000000
,
00000000
00000000
00000000
00000000
,
00000000
00000000
00000000
00000000
,
00000000
00000000
00000000
00000000
,
00000000
00000000
00000000
00000000
,
00000002
00000103
00002000
00003100
,
00000002
00000103
00002000
00003100
,
00000001
00000100
00001000
00010000
,
01000000
10000000
00010000
01000000
,
10010000
00000000
01000000
00000000
00100000
00010000
01000000
00000000
,
10000000
00000000
01000000
00000000
00010000
00001000
00000100
00000000
,
00000001
00000100
00001000
00000000
00001000
00000010
00000001
00000000
,
00000010
00001000
00000001
00000010
00000100
00001000
00000001
00000000
,
00000110
00000000
00000001
00000000
00000010
00000100
00001000
00000000
,
00000010
00000000
00000100
00000000
00000001
00000010
00001000
00000000
,
00010000
01000000
10000000
00000000
00100000
01000000
00010000
00000000
,
10000000
00010000
00100000
01000000
10000000
01000000
00010000
00000000
,
01000000
10000000
00100000
00010000
,
00001000
00000001
00000100
00001000
,
00000010
00000100
00000001
00000100
00001000
00000100
00000010
00001000
,
00000100
00000001
00000100
00001000
00010000
10000000
01000000
00000000
,
00100000
00000000
00010000
00000000
10000000
00010000
01000000
00000000
,
00100000
00000000
10000000
00000000
00010000
10000000
01000000
00000000
,
00100000
00001000
00010000
00000100
00000010
00000001
00000100
00001000
,
00010000
00001000
00000001
00000110
,
00002002
00000000
00003003
00000000
00000010
00000100
00000010
00000000
,
00001000
00000001
00000010
00000000
00001000
00010000
00001000
00000000
,
02200000
00000000
03300000
00000000
10000000
00010000
10000000
00000000
,
00100000
00000000
00100000
00000000
10000000
01000000
00010000
00000000
,
02002000
00000000
03003000
00000000
00010000
00000010
00000100
00000000
,
00000001
00001000
00000100
00000000
00000010
00001000
00000010
00000002
,
00002000
00003003
00000010
00001000
,
00010000
00100000
10000000
00010000
,
02000000
00000000
00000000
00000000
,
00100000
03200000
10000000
02300000
,
00010000
10000000
03020000
00230000
,
00302000
00010000
00003200
00000302
,
00000023
00001000
00000001
00000230
,
00002300
00000010
00003002
00000203
,
00002300
00023000
01000000
00001000
,
02030000
10000000
00010000
23000000
,
30200000
00010000
10000000
01300000
,
20020000
00000000
00000000
30030000
,
00100000
00001000
00000100
00000110
,
00001001
00000000
00000100
00000000
00000010
00000001
00001000
00000000
,
00000010
00000100
00000001
00000000
00000010
00001000
00010000
00000000
,
00100000
00000000
10000000
00000000
00100000
00010000
00100000
10000000
,
00010000
00001000
00000010
00000001
,
00000010
00001000
00000100
00000000
00000010
00000001
00001000
00000000
,
00000100
00000000
00000000
00000000
;

//---------------dance-double - ----------------
#NOTES:
     dance-double:
     :
     Challenge:
     8:
     :
00000000
00000000
00000000
00000000
,
00000000
00000000
00000000
00000000
,
00000000
00000000
00000000
00000000
,
00000000
00000000
00000000
00000000
,
00000000
00000000
00000000
00000000
,
10010000
01000000
10010000
00100000
,
10010000
01000000
10010000
00100000
,
10010000
01000000
10010000
00100000
,
10010000
01010000
00011000
00000110
,
00000001
00001000
00000100
00010000
00100000
01000000
00010000
00000000
,
10000000
01000000
00100000
00010000
00000100
00000010
00001000
00000100
,
00000010
00000001
00001000
00000010
00000100
00000001
00001000
00000010
,
00010000
00100000
10000000
01000000
00100000
00010000
01000000
00001000
,
00010000
00000010
00000100
00000001
00001000
00000100
00000010
00001000
,
00000001
00001000
00000010
00000100
00000001
00000100
00000010
00001000
,
00100000
01000000
00010000
10000000
00010000
01000000
00001000
00000100
,
00000010
00000100
00000001
00000100
00000010
00001000
00000001
00000000
,
00001001
00000000
00000000
00000000
00001000
00000010
00010000
00000100
,
00011000
00011000
00000000
00000000
00100000
01000000
00010000
10000000
,
10010000
00000000
00000000
00000000
10000000
00010000
10000000
00010000
,
00000000
01000000
00000000
01000000
00001000
00000100
00000001
00000000
,
00001000
00000101
00001000
00000101
,
00001000
00000000
00000101
00000000
00000001
00001000
00000100
00010000
,
00100000
00000000
11000000
00000000
10000000
00010000
01000000
00010000
,
10010000
01000000
01100000
00000000
00011000
00000000
00000110
00000000
,
00000001
00001000
00000100
00000010
00000001
00001000
00000001
00000000
,
00000200
00000320
00002030
01003000
,
10000000
00010000
01000000
00000000
00100000
10000000
01000000
00000000
,
00200000
00000000
00000000
00010000
00300000
00000000
02000000
00000000
00000000
00000000
00000000
00000000
03000000
00000000
00000000
00000000
,
00100000
01000000
00010000
10000000
01000000
00100000
01000000
00000000
,
00200000
00320000
00030200
00000310
,
00000002
00000000
00000103
00000010
00000100
00000001
00001000
00000000
,
00000020
00002030
02003000
03000000
,
10000000
00000000
00010000
01000000
00100000
10000000
01000000
00100000
,
00010000
00000100
00000000
00000001
00000000
00001000
00000000
00000000
,
00000010
00000000
00001000
00000001
00000100
00000010
00001000
00100000
,
02000000
00000000
03020000
00000000
10030000
00010000
10000000
00000000
,
02000000
00000000
03200000
00000000
00301000
00010000
00001000
00000000
,
00000200
00000320
00002030
00003001
,
00001000
00100000
10000000
01000000
,
00100000
00010000
01000000
00000000
00010000
20000000
31000000
00000000
,
00100000
00001000
00000010
00000000
00000001
00002000
00003010
00000000
,
00000100
00000010
00001000
00000000
00000001
00000200
00001300
00000000
,
00010000
00100000
10000000
00000000
00010000
02000000
03100000
00000000
,
10000000
00010000
01000000
00000000
20020000
00000000
30030000
00000000
,
00100000
20000000
31000000
00000000
00100000
00010000
01000000
00000000
,
00001000
00000010
00000001
00001000
00000020
00000000
00001030
00000000
,
00100000
10000000
01000000
00000000
00100000
00001000
00100000
00000000
,
00011000
00000000
00000110
00000000
00000001
00001000
00000100
00000000
,
00000022
00000000
00000000
00000000
,
00000000
00000000
00000000
00000033
;
