#TITLE:Do It Right (80's Electro Mix);
#ARTIST:SOTA feat.Ebony Fay;
#BANNER:Do It Right (80's Electro Mix).png;
#BACKGROUND:Do It Right (80's Electro Mix)-bg.png;
#CDTITLE:./CDTITLES/DANCE DANCE REVOLUTION HOME VERSION.PNG;
#MUSIC:Do It Right (80's Electro Mix).ogg;
#SAMPLESTART:44.037;
#SAMPLELENGTH:15;
#BPMS:0=135;

//---------------dance-single - ----------------
#NOTES:
     dance-single:
     :
     Challenge:
     7:
     :
0000
0000
0000
0000
,
0000
0000
0000
0000
,
0000
0000
0000
0000
,
0000
0000
0000
0000
,
0000
0000
0000
0000
,
1000
0001
1000
0010
1000
0001
1000
1000
,
0001
1000
0001
0100
0001
1000
0001
0001
,
1000
0001
1000
0010
1000
0001
1000
1000
,
0001
1000
0001
0100
0001
1000
0101
0000
,
0020
1000
0100
0001
,
0100
1030
0001
0001
,
0200
1000
0010
0001
,
0010
1300
0010
0010
,
0001
1000
0100
0000
1000
0001
1000
0100
,
1000
0000
0110
0000
0001
0100
0010
1000
,
0001
0010
0100
1000
0001
1000
0001
0000
,
0010
1000
0001
0000
0100
0001
1100
0000
,
0020
0001
0100
1000
,
0100
0031
1000
1000
,
0200
0001
0010
1000
,
0010
0301
0010
0010
,
1000
0001
0100
0000
0001
1000
0001
0100
,
0001
0000
0110
0000
1000
0100
0010
0001
,
1000
0010
0100
0001
1000
0001
1000
0000
,
0010
0000
0001
0000
1000
0000
0000
0000
0100
0000
0000
0000
1000
0001
0100
0001
,
1000
0000
1001
0000
0001
1000
0001
0000
,
0010
0101
1000
0101
,
1000
0000
0010
0100
0001
1000
0001
0000
,
1000
0101
1000
0101
,
0100
0000
0100
0010
1000
0001
1000
0000
,
1001
0110
1001
0110
,
0010
0000
0010
0100
0001
1000
0010
1000
,
0100
0000
1000
0000
0010
0000
0100
0000
0001
0000
0100
0000
0001
1000
0001
1000
,
0100
0000
1001
0000
0001
1000
0001
0000
,
0010
0001
0100
0000
1000
0001
0100
0000
,
1000
0000
0010
0100
0001
1000
0001
0000
,
1000
0001
0101
0000
0001
1000
1100
0000
,
0100
0000
0100
0010
1000
0001
1000
0000
,
1001
1001
0110
0110
1001
1001
0110
0110
,
0010
0000
0010
0100
1000
0001
0010
0001
,
0100
0001
0010
0100
1000
0100
0010
0100
,
1000
0001
1000
0010
1000
0001
1000
1000
,
0001
1000
0001
0100
0001
1000
0001
0001
,
1000
0001
1000
0010
1000
0001
1000
1000
,
0001
1000
0001
0000
1001
0000
0110
0000
,
1000
0001
1000
0010
1000
0001
1000
1000
,
0001
1000
0001
0100
0001
1000
0001
0001
,
1000
0001
1000
0010
1000
0001
1000
1000
,
0001
1000
0001
0000
0110
0000
0100
0010
,
0120
0000
0200
0300
,
0100
0000
0200
0330
;

//---------------dance-double - ----------------
#NOTES:
     dance-double:
     :
     Challenge:
     7:
     :
00000000
00000000
00000000
00000000
,
00000000
00000000
00000000
00000000
,
00000000
00000000
00000000
00000000
,
00000000
00000000
00000000
00000000
,
00000000
00000000
00000000
00000000
,
00001000
00000001
00001000
00000010
00000100
00000010
00000100
00000100
,
00000001
00001000
00000001
00001000
00000010
00010000
00001000
00001000
,
00010000
01000000
00100000
01000000
10000000
00010000
10000000
10000000
,
00010000
10000000
00010000
01000000
00001000
00000010
00000011
00000000
,
00000200
00000010
00001000
00000001
,
00001000
00000300
00010000
00010000
,
02000000
10000000
00100000
00010000
,
00100000
13000000
00100000
00100000
,
00010000
10000000
01000000
00000000
00100000
00001000
00000100
00000010
,
00001000
00000000
00000101
00000000
00000010
00001000
00000100
00010000
,
00100000
01000000
00100000
10000000
00010000
10000000
00010000
00000000
,
01000000
00001000
01000000
00000000
00000100
00000010
00001001
00000000
,
00000200
00000001
00000010
00001000
,
00000010
00000301
00010000
00010000
,
02000000
10000000
00100000
00010000
,
00100000
13000000
00010000
00010000
,
01000000
00100000
10000000
00000000
00010000
10000000
00010000
01000000
,
00001000
00000000
00000110
00000000
00000001
00001000
00000100
00000010
,
00000001
00001000
00000010
00000100
00000010
00010000
01000000
00000000
,
00100000
00000000
00010000
00000000
01000000
00000000
00000000
00000000
00010000
00000000
00000000
00000000
10000000
00010000
01000000
00010000
,
10000000
00000000
10010000
00000000
01000000
00100000
01000000
00000000
,
00010000
00001100
00000010
00001001
,
00000100
00000000
00000010
00010000
01000000
10000000
00010000
00000000
,
01000000
00011000
00000010
00001001
,
00000100
00000000
00000010
00001000
00000001
00000100
00000010
00000000
,
00001010
00011000
01100000
10010000
,
01000000
00000000
00010000
00001000
00000010
00000100
00000001
00001000
,
00000001
00000000
00000100
00000000
00000010
00000000
00001000
00000000
00000100
00000000
00000010
00000000
00001000
00000001
00001000
00000001
,
00001000
00000000
00001001
00000000
00000010
00010000
00100000
00000000
,
01000000
00100000
01000000
00000000
00010000
00000010
00000001
00000000
,
00000100
00000000
00000010
00000100
00000001
00001000
00000001
00000000
,
00000010
00010000
01100000
00000000
00010000
10000000
10100000
00000000
,
00010000
00000000
10000000
01000000
00100000
00010000
10000000
00000000
,
01000000
01000000
00010000
00010000
00001000
00001000
00000100
00000100
,
00000010
00000000
00001000
00000001
00000100
00000010
00010000
01000000
,
00100000
01000000
10000000
00100000
10000000
00010000
01000000
00100000
,
10000000
01000000
00010000
00001000
00000100
00000001
00001000
00001000
,
00000010
00000100
00000010
00001000
00000001
00001000
00000001
00000001
,
00000100
00000010
00000100
00000001
00001000
01000000
00100000
00100000
,
00010000
10000000
01000000
00000000
00110000
00000000
00011000
00000000
,
00000010
00000100
00000010
00001000
00000001
00001000
00000001
00000001
,
00000100
00000010
00001000
00000001
00000100
00000010
00001000
00001000
,
00100000
10000000
01000000
00100000
00010000
00000100
00000010
00000010
,
00001000
00000001
00001000
00000000
00000110
00000000
00000010
00001000
,
00002100
00000000
00000200
00000300
,
00000100
00000000
00000200
00003300
;
