#TITLE:TRANCE DE JANEIRO (SAMBA DE JANEIRO 2002 Epic Vocal Remix);
#SUBTITLE:;
#ARTIST:BELLINI;
#TITLETRANSLIT:;
#SUBTITLETRANSLIT:;
#ARTISTTRANSLIT:;
#CREDIT:;
#BANNER:TRANCE DE JANEIRO (SAMBA DE JANEIRO 2002 Epic Vocal Remix).png;
#BACKGROUND:TRANCE DE JANEIRO (SAMBA DE JANEIRO 2002 Epic Vocal Remix)-bg.png;
#LYRICSPATH:;
#CDTITLE:./CDTITLES/Dancemania SUPER TRANCE BEST.PNG;
#MUSIC:TRANCE DE JANEIRO (SAMBA DE JANEIRO 2002 Epic Vocal Remix)-bg.ogg;
#OFFSET:0.000;
#SAMPLESTART:34.320;
#SAMPLELENGTH:15.000;
#SELECTABLE:YES;
#DISPLAYBPM:145.000;
#BPMS:0.000=143.612,4.000=145.000;
#STOPS:;
#BGCHANGES:;

//---------------dance-single - ----------------
#NOTES:
     dance-single:
     :
     Easy:
     2:
     0.168,0.221,0.115,0.063,0.000:
0000
0000
0000
0000
,
0000
0000
0000
0000
,
0000
0000
0000
0000
,
1000
0000
0001
0000
,
1000
0000
0001
0000
,
0100
0000
1000
0000
,
0100
0000
0001
0000
,
0010
0000
1000
0000
,
0100
0000
1000
0000
,
0010
0000
0001
0000
,
0100
0000
0001
0000
,
1000
0001
1000
0000
,
1000
0000
0001
0000
,
0001
0000
1000
0000
,
0001
0000
1000
0000
,
1000
0000
0001
0000
,
0100
0000
0001
0000
,
1000
0000
0100
0000
,
0001
0000
0010
0000
,
1000
0000
0010
0000
,
2002
0000
0000
3003
,
1000
0000
0001
0000
,
0010
0010
0010
0000
,
0001
0000
1000
0000
,
0010
0010
0010
0000
,
0100
0000
0001
0000
,
1000
1000
1000
0000
,
0100
0000
1000
0000
,
0001
0001
0001
0000
,
0010
0000
1000
0000
,
0100
0100
0100
0000
,
0010
0000
0001
0000
,
0100
0100
0100
0000
,
2002
0000
0000
3003
,
1000
0000
0001
0000
,
0010
0000
0001
0000
,
1001
0000
0000
0000
,
0010
0000
1000
0000
,
1001
0000
0000
0000
,
0010
0000
0100
0000
,
1001
0000
0000
0000
,
1000
0000
0001
0000
,
0220
0000
0000
0000
,
0000
0000
0000
0330
,
0010
0000
0100
0000
,
0101
0000
0000
0000
,
0010
0000
0100
0000
,
1100
0000
0000
0000
,
0001
0000
0010
0000
,
0101
0000
0000
0000
,
1000
0000
0010
0000
,
1100
0000
0000
0000
,
0100
0000
0010
0000
,
1001
0000
0000
0000
,
0000
0000
0000
0000
;

//---------------dance-single - ----------------
#NOTES:
     dance-single:
     :
     Medium:
     4:
     0.408,0.424,0.771,0.021,0.000:
0000
0000
0000
0000
,
0000
0000
0000
0000
,
0000
0000
0000
0000
,
0010
1000
0100
1000
,
1000
1000
0001
1000
,
0100
1000
0010
1000
,
1000
0001
1000
0001
,
0010
1000
0001
1000
,
0001
0010
0001
0100
,
0010
0001
1000
1000
,
0001
0001
0100
1000
,
0100
0100
0100
0000
,
0100
1001
1000
1100
,
0010
0101
1000
1100
,
0001
1001
0010
0011
,
0001
0101
1000
1100
,
0010
1001
1000
1100
,
0100
0101
0100
1100
,
1000
1010
0001
0011
,
0100
0010
1000
0010
,
1000
1000
1000
0010
,
1001
0100
0010
0100
,
1100
1001
0101
0100
,
1001
0100
0010
1000
,
0101
1001
1100
0001
,
0110
1000
0001
0010
,
1100
1010
1001
0100
,
0110
0001
0010
1000
,
0101
0011
1001
0010
,
1010
0001
0100
0100
,
1100
0101
1100
0001
,
0101
0100
1000
0100
,
1100
0011
0101
1010
,
1001
0010
0010
0010
,
0100
0000
0010
0000
,
0010
1100
0001
0101
,
0010
0011
0100
1100
,
0010
0101
0001
1100
,
0010
0101
0100
1001
,
0010
1100
0001
0011
,
0100
0110
0010
1010
,
0001
0101
0010
1100
,
1000
0001
0010
0100
,
1000
0100
0010
0001
,
0010
1010
0100
0101
,
1000
1100
0001
0101
,
0001
1100
0010
1001
,
0001
0110
1000
0101
,
0010
0101
0010
1100
,
1000
0011
0001
0101
,
0010
0110
1000
1100
,
1010
1001
0101
1001
,
0010
0010
1100
0010
,
2002
0000
0000
0000
,
0000
3003
0000
0000
,
0000
0000
0000
0000
;

//---------------dance-single - ----------------
#NOTES:
     dance-single:
     :
     Hard:
     8:
     0.442,0.386,0.094,0.000,0.438:
0000
0000
0000
0000
,
0000
0000
0000
0000
,
0000
0000
0000
0000
,
0010
0000
0000
0100
0000
0000
0001
0000
0010
0000
0000
0010
0000
0000
0001
0000
,
0100
0000
0000
0100
0000
0000
0100
0000
0001
0000
0000
1000
0000
0000
0100
0000
,
0010
0000
0000
0100
0000
0000
1000
0000
0010
0000
0000
0010
0000
0000
1000
0000
,
0100
0000
0000
0100
0000
0000
0100
0000
1000
0000
0000
1000
0000
0000
1000
0000
,
0001
0000
0000
0100
0000
0000
0010
0000
1000
0000
0000
0001
0000
0000
1000
0000
,
0100
0000
0000
0100
0000
0000
0100
0000
0001
0000
0000
0100
0000
0000
1000
0000
,
0010
0000
0000
0100
0000
0000
0001
0000
0010
0000
0000
0010
0000
0000
0100
0000
,
1000
0000
0000
1000
0000
0000
1000
0000
0001
0000
0000
0001
0000
0000
0001
0000
,
0010
0100
1001
0110
,
0001
0000
0000
1000
0100
0000
0000
0000
0010
0000
0000
0010
0100
0000
0000
0000
,
1000
0000
0000
0001
0100
0000
0000
0000
0010
0000
0000
0010
1000
0000
0000
0000
,
0001
0000
0000
0010
0001
0000
0000
0000
0010
0000
0000
0010
0001
0000
0000
0000
,
1000
0000
0000
0010
1000
0000
0000
0000
0001
0000
0000
0001
0010
0000
0000
0000
,
1000
0000
0000
0001
0100
0000
0000
0000
0100
0000
0000
0100
1000
0000
0000
0000
,
1000
0000
0000
0001
0010
0000
0000
0000
0100
0000
0000
0100
1000
0000
0000
0000
,
1000
0000
0000
0001
0100
0000
0000
0000
0010
0000
0000
0010
1000
0000
0000
0000
,
1000
0000
0000
0001
0010
0000
0000
0000
1000
0000
0000
1000
0010
0000
0000
0000
,
1000
0100
0010
0001
1000
0000
0010
1000
,
0100
0000
0000
0000
1000
0000
0000
0000
0010
0100
0000
0000
0001
0000
0000
1000
,
0001
0000
0000
0100
0010
0000
0000
1000
0001
0000
0000
0000
0010
0000
1000
0000
,
0100
0000
0000
0000
0001
0000
0000
0000
1000
0100
0000
0000
0001
0000
0000
0100
,
0010
0000
0000
1000
0100
0000
0000
1000
0001
0000
0000
0000
0010
0000
0001
0000
,
0100
0000
0000
0000
1000
0000
0000
0000
0010
1000
0000
0000
0100
0000
0000
0001
,
0100
0000
0000
0100
0010
0000
0000
0010
1000
0000
0000
0000
0001
0000
0100
0000
,
0001
0000
0000
0000
0100
0000
0000
0000
0001
1000
0000
0000
0100
0000
0000
0100
,
1000
0000
0000
1000
0100
0000
0000
0001
0100
0000
0000
0000
0010
0000
0010
0000
,
0100
0000
0000
0000
1000
0000
0000
0000
0010
0100
0000
0000
0001
0000
0000
0001
,
1000
0000
0000
1000
0100
0000
0000
0100
1000
0000
0000
0000
0010
0000
0001
0000
,
0100
0000
0000
0000
0010
0000
0000
0000
1000
0100
0000
0000
0010
0000
0000
0001
,
0100
0000
0000
0100
0010
0000
0000
1000
0001
0000
0000
0000
0000
0000
0000
0000
,
1001
0101
1001
1100
,
0000
0000
0000
0000
,
0100
0000
0000
1000
0001
0000
0000
0000
0100
0000
0000
0000
0010
0000
0000
0000
,
0001
0000
0000
0010
0100
0000
0000
0000
1000
0000
0000
0000
0001
0000
0000
0000
,
0010
0000
0000
1000
0001
0000
0000
0000
0010
0000
0000
0000
0100
0000
0000
0000
,
0001
0000
0000
0100
0010
0000
0000
0000
1000
0000
0000
0000
0001
0000
0000
0000
,
0010
0000
0000
1000
0001
0000
0000
0000
0010
0000
0000
0000
0100
0000
0000
0000
,
0001
0000
0000
0100
0010
0000
0000
0000
1000
0000
0000
0000
0001
0000
0000
0000
,
0100
0000
0000
1000
0001
0000
0000
0000
0100
0000
0000
0000
0010
0000
0000
0000
,
0001
0000
0000
0010
0100
0000
0000
0000
1000
0000
0000
0010
0100
0000
0000
0000
,
0001
0000
0000
0010
0100
0000
0000
0000
1000
0000
0000
0010
0100
0000
0000
0000
,
0001
0000
0000
0100
0000
0000
1000
0000
0010
0000
0000
0010
0000
0000
1000
0000
,
0100
0000
0000
0001
0000
0000
0100
0000
1000
0000
0000
0001
0000
0000
0010
0000
,
0001
0000
0000
0100
0000
0000
0001
0000
1000
0000
0000
0010
0000
0000
0100
0000
,
0001
0000
0000
1000
0000
0000
0100
0000
0001
0000
0000
0100
0000
0000
1000
0000
,
0001
0000
0000
0001
0000
0000
0100
0000
0010
0000
0000
0010
0000
0000
1000
0000
,
0100
0000
0000
0100
0000
0000
0001
0000
0100
0000
0000
0100
0000
0000
1000
0000
,
0001
0000
0000
0100
0000
0000
0010
0000
1000
0000
0000
1000
0000
0000
0001
0000
,
0001
0000
0000
0010
0000
0000
0010
0000
0100
0000
0000
0100
0000
0000
1000
0000
,
0100
0000
0000
0000
1001
0000
0000
0000
0110
0000
0000
0001
0000
0000
1000
0000
,
0110
0000
0000
0000
,
0000
0000
0000
0000
;

//---------------dance-double - ----------------
#NOTES:
     dance-double:
     :
     Easy:
     2:
     0.156,0.193,0.083,0.042,0.000:
00000000
00000000
00000000
00000000
,
00000000
00000000
00000000
00000000
,
00000000
00000000
00000000
00000000
,
00010000
00000000
00000000
00000000
,
00001000
00000000
00000000
00000000
,
00010000
00000000
00000000
00000000
,
00000100
00000000
00000000
00000000
,
00000010
00000000
00000000
00000000
,
00000001
00000000
00000000
00000000
,
00000100
00000000
00001000
00000000
,
00011000
00000000
00000000
00000000
,
00010000
00000000
00001000
00000000
,
00011000
00000000
01000000
00000000
,
00100000
00000000
10000000
00000000
,
01000000
00000000
00100000
00000000
,
00001000
00000000
00010000
00000000
,
00000100
00000000
00000001
00000000
,
00000100
00000000
00001000
00000000
,
00000010
00000000
00000100
00000000
,
00001000
00000000
00010000
00000000
,
00022000
00000000
00000000
00033000
,
00010000
00000000
00001000
00000000
,
00010000
01000000
10000000
00000000
,
00010000
00000000
10000000
00000000
,
00100000
01000000
00100000
00000000
,
10000000
00000000
01000000
00000000
,
00010000
00001000
00010000
00000000
,
00001000
00000000
00000100
00000000
,
00000001
00001000
00000001
00000000
,
00000010
00000000
00000010
00000000
,
00000100
00000100
00000100
00000000
,
00000010
00000000
00001000
00000000
,
00010000
00010000
00010000
00000000
,
00022000
00000000
00000000
00033000
,
00000000
00000000
00000000
00000000
,
00010000
00000000
01000000
00000000
,
10000000
00000000
00100000
00000000
,
00010000
00000000
00001000
00000000
,
00010000
00000000
01000000
00000000
,
10000000
00000000
00100000
00000000
,
00010000
00000000
00001000
00000000
,
00000010
00000000
00000001
00000000
,
00001001
00000000
00000000
00000000
,
00001001
00000000
00000000
00000000
,
00000010
00000000
00000100
00000000
,
00001000
00000000
00010000
00000000
,
01000000
00000000
10000000
00000000
,
00010000
00000000
01000000
00000000
,
00100000
00000000
00010000
00000000
,
00001000
00000000
00000010
00000000
,
00000001
00000000
00001000
00000000
,
00000100
00000000
00000100
00000000
,
00001001
00000000
00000000
00000000
,
00000110
00000000
00000000
00000000
,
00000000
00000000
00000000
00000000
;

//---------------dance-double - ----------------
#NOTES:
     dance-double:
     :
     Medium:
     6:
     0.400,0.396,0.219,0.063,0.260:
00000000
00000000
00000000
00000000
,
00000000
00000000
00000000
00000000
,
00000000
00000000
00000000
00000000
,
10000000
01000000
10000000
01000000
,
00100000
00010000
00100000
00010000
,
00010000
00001000
00010000
00001000
,
00001000
00000100
00001000
00000100
,
00000010
00000010
00000001
00000001
,
00000100
00000100
00001000
00001000
,
00010000
00010000
00001000
00001000
,
00011000
00000000
01000000
00000000
,
01100000
10010000
01000000
00100000
,
10010000
00000000
00000000
01000000
00000000
00000000
00100000
00000000
00001000
00000000
00000000
00001000
00000000
00000000
00010000
00000000
,
00001000
00000000
00000000
00000010
00000000
00000000
00000001
00000000
00001000
00000000
00000000
00000100
00000000
00000000
00000010
00000000
,
00000001
00000000
00000000
00000100
00000000
00000000
00001000
00000000
00010000
00000000
00000000
00010000
00000000
00000000
01000000
00000000
,
00100000
00000000
00000000
00010000
00000000
00000000
10000000
00000000
01000000
00000000
00000000
00010000
00000000
00000000
01000000
00000000
,
10000000
00000000
00000000
01000000
00000000
00000000
00100000
00000000
00001000
00000000
00000000
00001000
00000000
00000000
00010000
00000000
,
00001000
00000000
00000000
00000010
00000000
00000000
00000001
00000000
00001000
00000000
00000000
00000001
00000000
00000000
00000010
00000000
,
00000100
00000000
00000000
00001000
00000000
00000000
00000100
00000000
00010000
00000000
00000000
00010000
00000000
00000000
00001000
00000000
,
00000010
00000000
00000000
00000001
00000000
00000000
00000100
00000000
00001000
00000000
00000000
00010000
00000000
00000000
01000000
00000000
,
10010000
10000000
10000000
10000000
,
10010000
01000000
01100000
00010000
,
00010000
00001000
00001000
00011000
,
00010100
00001000
00001100
00010000
,
00010000
00001000
00000100
00000011
,
00001100
00000001
00000101
00000100
,
00001000
00010000
00100000
00011000
,
01010000
00100000
10010000
01000000
,
00100000
00010000
00001000
00100000
,
01010000
00001000
00010000
00000100
,
00010000
00001000
00000100
00000010
,
00000001
00000100
00001000
00010000
,
00001000
00100000
02000000
00000000
,
10000000
10000000
10000000
13000000
,
20020000
00000000
00000000
30030000
,
10010000
00000000
00000000
01000000
00000000
00000000
00100000
00000000
00001000
00000000
00000000
00001000
00000000
00000000
00010000
00000000
,
00001000
00000000
00000000
00000010
00000000
00000000
00000001
00000000
00001000
00000000
00000000
00000100
00000000
00000000
00000010
00000000
,
00000001
00000000
00000000
00000100
00000000
00000000
00001000
00000000
00010000
00000000
00000000
00010000
00000000
00000000
01000000
00000000
,
00100000
00000000
00000000
00010000
00000000
00000000
10000000
00000000
01000000
00000000
00000000
00010000
00000000
00000000
01000000
00000000
,
10000000
00000000
00000000
01000000
00000000
00000000
00100000
00000000
00001000
00000000
00000000
00001000
00000000
00000000
00010000
00000000
,
00001000
00000000
00000000
00000010
00000000
00000000
00000001
00000000
00001000
00000000
00000000
00000100
00000000
00000000
00000010
00000000
,
00000001
00000000
00000000
00000010
00000000
00000000
00000100
00000000
00010000
00000000
00000000
00010000
00000000
00000000
00001000
00000000
,
00010000
00000000
00000000
00100000
00000000
00000000
01000000
00000000
00010000
00000000
00000000
00010000
00000000
00000000
00010000
00000000
,
01000000
00000000
00000000
01000000
00000000
00000000
01000000
00000000
00100000
00000000
00000000
00100000
00000000
00000000
00100000
00000000
,
10010000
00000000
00000000
01000000
00000000
00000000
00100000
00000000
00001000
00000000
00000000
01000000
00000000
00000000
00010000
00000000
,
10000000
00000000
00000000
00100000
00000000
00000000
00010000
00000000
00001000
00000000
00000000
00000010
00000000
00000000
00000001
00000000
,
00001000
00000000
00000000
00000100
00000000
00000000
00010000
00000000
00001000
00000000
00000000
00010000
00000000
00000000
00000100
00000000
,
00000010
00000000
00000000
00000001
00000000
00000000
00001000
00000000
00000010
00000000
00000000
00000100
00000000
00000000
00001000
00000000
,
00100000
00000000
00000000
01000000
00000000
00000000
10000000
00000000
00010000
00000000
00000000
00100000
00000000
00000000
00001000
00000000
,
01000000
00000000
00000000
00010000
00000000
00000000
01000000
00000000
00100000
00000000
00000000
00010000
00000000
00000000
00000010
00000000
,
00000100
00000000
00000000
00000001
00000000
00000000
00001000
00000000
00000001
00000000
00000000
00000100
00000000
00000000
00000010
00000000
,
00010000
00000000
00000000
00000100
00000000
00000000
00001000
00000000
00010000
00000000
00000000
00100000
00000000
00000000
00010000
00000000
,
02000000
00000000
00000000
03000000
,
20020000
00000000
00000000
00000000
,
00000000
30030000
00000000
00000000
,
00000000
00000000
00000000
00000000
;

//---------------dance-double - ----------------
#NOTES:
     dance-double:
     :
     Hard:
     9:
     0.533,0.469,0.167,0.021,0.375:
00000000
00000000
00000000
00000000
,
00000000
00000000
00000000
00000000
,
00000000
00000000
00000000
00000000
,
00001001
00000000
00000000
00000010
00000000
00000000
00000100
00000000
00000001
00000000
00000000
00000010
00000000
00000000
00001000
00000000
,
00010000
00000000
00000000
00001000
00000000
00000000
00000010
00000000
00000001
00000000
00000000
00001000
00000000
00000000
00000100
00000000
,
00001100
00000000
00000000
00001000
00000000
00000000
00010000
00000000
01000000
00000000
00000000
10000000
00000000
00000000
10000000
00000000
,
10010000
00000000
00000000
00100000
00000000
00000000
01000000
00000000
10000000
00000000
00000000
00100000
00000000
00000000
00010000
00000000
,
00011000
00000000
00000000
00010000
00000000
00000000
00100000
00000000
10000000
00000000
00000000
00010000
00000000
00000000
01000000
00000000
,
01010000
00000000
00000000
00010000
00000000
00000000
00001000
00000000
00000100
00000000
00000000
00000001
00000000
00000000
00000001
00000000
,
00001000
00000000
00000000
00000100
00000000
00000000
00010000
00000000
00001000
00000000
00000000
01000000
00000000
00000000
00001000
00000000
,
00010000
00000000
00000000
00000010
00000000
00000000
00000100
00000000
00000001
00000000
00000000
00000100
00000000
00000000
00001000
00000000
,
00010000
01000000
01000000
01000000
,
10010000
00000000
00100000
01000000
00000000
00000000
00010000
00000000
00100000
00000000
00001000
00000000
00000000
00000000
00010000
00000000
,
00001000
00000000
00010000
00001000
00000000
00000000
01000000
00000000
00000000
00000000
00100000
00000000
00000000
00000000
10000000
00000000
,
00010000
00000000
10000000
01000000
00000000
00000000
00100000
00000000
00010000
00000000
00000000
10000000
00000000
00000000
01000000
00000000
,
01000000
00000000
00100000
00010000
00000000
00000000
01000000
00000000
00000000
00000000
00001000
00000000
00000000
00000000
00010000
00000000
,
00001000
00000000
00010000
00001000
00000000
00000000
00000010
00000000
00000001
00000000
00000100
00000000
00000000
00000000
00000010
00000000
,
00001000
00000000
00000100
00001000
00000000
00000000
00000001
00000000
00000000
00000000
00000100
00000000
00000000
00000000
00001000
00000000
,
00010000
00000000
00000100
00001000
00000000
00000000
00000010
00000000
00000100
00000000
00000000
00001000
00000000
00000000
00010000
00000000
,
00001000
00000000
01000000
00010000
00000000
00000000
10000000
00000000
10000000
00000000
00000000
00010000
00000000
00000000
00010000
00000000
,
10000000
01000000
00010000
00001000
00000100
00000001
00000010
00000000
,
00001001
00000000
00000001
00000000
00001000
00000000
00000000
00000000
00000010
00001000
00000000
00000100
00000000
00000000
00000010
00000000
,
00000001
00001000
00000010
00000100
00001000
00000000
00011000
00010000
,
01000000
00000000
10000000
00000000
00010000
00000000
00000000
00000000
00100000
00010000
00000000
01000000
00000000
00000000
00100000
00000000
,
10000000
01000000
00100000
00001000
00010000
00000000
00011000
00001000
,
00000100
00000000
00000001
00000000
00001000
00000000
00000000
00000000
00000010
00000100
00000000
00000001
00000000
00000000
00001000
00000000
,
00000100
00000010
00001000
00010000
00000100
00000000
00000010
00000001
,
00001000
00000000
00000010
00000000
00000100
00000000
00000000
00000000
00000001
00000100
00000000
00000010
00000000
00000000
00000100
00000000
,
00001000
00000000
00100000
00000000
00010000
00000000
10000000
00000000
01000000
00000000
10000000
00000000
00010000
01000000
00100000
00000000
,
10000000
00000000
00100000
00000000
10000000
00000000
00000000
00000000
00010000
10000000
00000000
00100000
00000000
00000000
00010000
00000000
,
00001000
00010000
00000100
00010000
00001000
01000000
00001000
00010000
,
00000100
00000000
00000010
00000000
00000001
00000000
00000000
00000000
00001000
00000100
00000000
00010000
00000000
00000000
00001000
00000000
,
00000100
00000001
00000010
00001000
00000010
00000001
00000100
00001000
,
00010000
00011000
00001100
00000101
,
00002002
00000000
00000000
00003003
,
00000010
00000000
00010000
00000100
00000000
00000000
00000010
00000000
00000001
00000000
00000100
00000000
00000000
00000000
00000001
00000000
,
00001000
00000000
00000001
00000100
00000000
00000000
00001000
00000000
00010000
00000000
00001000
00010000
00000000
00000000
00000100
00000000
,
00000010
00000000
00001000
00000010
00000000
00000000
00000001
00000000
00000100
00000000
00000000
00001000
00000000
00000000
00010000
00000000
,
01000000
00000000
00100000
00010000
00000000
00000000
10000000
00000000
10000000
00000000
10000000
00010000
00000000
00000000
01000000
00000000
,
00100000
00000000
10000000
01000000
00000000
00000000
10000000
00000000
00010000
00000000
10000000
01000000
00000000
00000000
00100000
00000000
,
00001000
00000000
00010000
00001000
00000000
00000000
00010000
00000000
00000100
00000000
00000010
00000001
00000000
00000000
00001000
00000000
,
00000001
00000000
00000100
00000010
00000000
00000000
00001000
00000000
00000100
00000000
00000000
00010000
00000000
00000000
00001000
00000000
,
00000100
00000000
00000001
00000100
00000000
00000000
00001000
00000000
00010000
00000000
00001000
00010000
00000000
00000000
00000010
00000000
,
00000100
00000000
00001000
00010000
00000000
00000000
01000000
00000000
00100000
00000000
00010000
10000000
00000000
00000000
10000000
00000000
,
01000000
00000000
00100000
00010000
00000000
00000000
10000000
00000000
00010000
00000000
10000000
00000000
00000000
00000000
00100000
00000000
,
00010000
00000000
00001000
00010000
00000000
00000000
01000000
00000000
10000000
00000000
00010000
10000000
00000000
00000000
01000000
00000000
,
00100000
00000000
00001000
00010000
00000000
00000000
00001000
00000000
00010000
00000000
00000000
00000100
00000000
00000000
00000010
00000000
,
00000001
00000000
00001000
00000100
00000000
00000000
00000010
00000000
00000100
00000000
00001000
00000001
00000000
00000000
00000100
00000000
,
00001000
00000000
00010000
00001000
00000000
00000000
00000010
00000000
00000100
00000000
00000010
00000000
00000000
00000000
00000001
00000000
,
00000100
00000000
00000010
00001000
00000000
00000000
00000100
00000000
00010000
00000000
00001000
00010000
00000000
00000000
00001000
00000000
,
01000000
00000000
00100000
01000000
00000000
00000000
00010000
00000000
00010000
00000000
00000000
10000000
00000000
00000000
01000000
00000000
,
00100000
00000000
00010000
00100000
00000000
00000000
00001000
00000000
00010000
00000000
00001000
00010000
00000000
00000000
00000100
00000000
,
00000010
00000000
00000000
00000000
00001100
00000000
00000000
00000000
00000011
00000000
00000000
00000110
00000000
00000000
00001000
00000000
,
00000001
00000000
00000000
00000000
,
00000000
00000000
00000000
00000000
;
