#TITLE:STILL IN MY HEART (MOMO MIX);
#SUBTITLE:;
#ARTIST:NAOKI;
#TITLETRANSLIT:;
#SUBTITLETRANSLIT:;
#ARTISTTRANSLIT:;
#CREDIT:;
#BANNER:STILL IN MY HEART (MOMO MIX).png;
#BACKGROUND:STILL IN MY HEART (MOMO MIX)-bg.png;
#LYRICSPATH:;
#CDTITLE:./CDTITLES/DDRMAX2 -Dance Dance Revolution 7thMIX-.PNG;
#MUSIC:STILL IN MY HEART (MOMO MIX).ogg;
#OFFSET:0.000;
#SAMPLESTART:49.941;
#SAMPLELENGTH:15.000;
#SELECTABLE:YES;
#DISPLAYBPM:85.000:170.000;
#BPMS:0.000=170.616,4.000=169.979,176.000=85.000,210.000=170.103;
#STOPS:;
#BGCHANGES:;

//---------------dance-single - ----------------
#NOTES:
     dance-single:
     :
     Challenge:
     11:
     0.515,0.714,0.217,0.019,0.057:
0000
0000
0000
0000
,
0000
0000
0000
0000
,
0000
0000
0000
0000
,
0000
0000
0000
0000
,
0001
0001
0001
0001
,
1000
1000
1000
1000
,
0010
1000
0100
0000
0010
0001
0100
0000
,
0001
1000
0001
1000
0001
0000
1100
0000
,
0001
0001
0100
0100
,
1000
0100
0001
0100
,
1000
0100
0001
0100
,
0010
1000
0100
1000
0001
0000
0101
0000
,
1001
0000
0000
0000
0010
0000
0100
0100
,
0100
0000
0001
0000
0100
0000
1000
1000
,
0001
0000
0000
0100
0010
0000
0000
0001
,
1000
0000
0010
1001
,
0010
1000
0100
1000
0010
0100
0001
0000
,
0010
0001
0100
0001
0010
0100
1000
0000
,
0010
1000
0001
0000
1000
0001
0100
0000
,
0001
0100
0010
1000
0100
0010
0001
0000
,
0010
1000
0100
0010
0001
0100
0001
0000
,
0100
0010
1000
0100
0010
0001
0100
0000
,
0001
0100
0010
1000
0100
0010
0001
0000
,
1000
0100
0001
0100
1000
0010
0001
0000
,
1000
0100
0010
0100
1000
0001
0100
0000
,
0010
0100
0001
1000
0100
0010
0100
0000
,
0001
0010
0100
1000
0010
0100
0001
0000
,
0010
0100
1000
0000
1100
0000
1001
0000
,
0010
1000
0100
0000
0010
0001
0100
0000
,
0001
1000
0100
0000
1000
0001
0100
0000
,
0100
0010
0001
0000
0010
1000
0100
0000
,
1000
0100
0010
0000
0001
0000
0101
0000
,
0010
1000
0100
0000
1000
0001
0100
0000
,
0001
0010
0100
1000
0010
0000
0101
0000
,
0010
1000
0100
0000
0010
0001
0100
0000
,
0001
0100
0010
1000
0100
0000
1001
0000
,
1001
0000
0010
1000
0100
0010
0001
0000
,
0101
0000
0010
1000
0100
1000
0001
0000
,
1100
0000
1000
0010
0100
0001
0100
0000
,
0011
0000
1000
0010
0100
0000
0101
0000
,
1001
0000
0010
0001
0100
0010
0001
0000
,
0101
0000
1000
0100
0010
0100
1000
0000
,
1100
0000
0001
0100
0010
0100
0001
0000
,
1000
0010
0100
0001
0010
0100
1000
0001
,
0100
0000
0001
0000
1000
1000
0100
0000
,
0001
0000
0100
0000
1000
1000
0100
0000
,
0010
0001
0100
0000
0010
1000
0100
0000
,
1000
0100
0001
0100
0010
1000
0100
0000
,
1000
0001
1000
0100
0001
1000
0001
0100
,
0010
1000
0100
0000
0010
0001
0100
0000
0010
1000
0100
0000
0010
0000
1001
0000
,
0001
1000
0100
0000
0100
0010
0001
0000
0001
0100
0010
1000
0100
0010
0001
0000
,
0001
1000
0100
0000
0001
1000
0100
0000
0010
0000
0010
0000
0010
0000
0001
0000
,
0100
0100
0100
0010
1001
0000
0100
1000
,
0010
0100
0001
0000
0101
0000
1000
0010
,
0100
0001
0010
0000
1100
0000
0010
0001
,
1000
0010
0100
0000
0001
0100
0010
1000
,
0100
1000
0001
0000
0110
0000
1000
0100
,
1000
0010
0100
0000
1001
0000
0100
0010
,
0001
1000
0100
0000
0010
0001
0100
0000
,
0001
1000
0100
0000
1000
0010
0100
0001
,
0010
0100
1000
0001
0200
0000
0000
0000
,
0000
0300
0002
0000
,
0000
0000
0000
0003
0000
0000
1000
0000
1000
0000
1000
0000
,
0001
0000
0000
0000
,
0000
0000
0000
0000
;

//---------------dance-double - ----------------
#NOTES:
     dance-double:
     :
     Challenge:
     12:
     0.515,0.714,0.217,0.019,0.057:
00000000
00000000
00000000
00000000
,
00000000
00000000
00000000
00000000
,
00000000
00000000
00000000
00000000
,
00000000
00000000
00000000
00000000
,
00010000
00010000
00010000
00010000
,
00001000
00001000
00001000
00001000
,
00000010
00000001
00000100
00000000
00000010
00001000
00000100
00000000
,
00010000
00001000
00010000
00001000
00010000
00000000
01001000
00000000
,
00010000
00100000
10000000
01000000
,
00010000
00001000
00000010
00000001
,
00000100
00001000
00010000
00100000
,
00100000
10000000
01000000
10000000
00010000
00000000
01010000
00000000
,
00011000
00000000
00000000
00000000
00000100
00000000
00000001
00000001
,
00000001
00000000
00000010
00000000
00000100
00000000
00010000
00001000
,
00001000
00000000
00000000
01000000
00100000
00000000
00000000
00001000
,
00010000
00000000
00000010
00001001
,
00000010
00000001
00000100
00001000
00010000
00001000
00000100
00000000
,
00001000
00010000
00100000
10000000
01000000
00010000
00001000
00000000
,
00000010
00001000
00000100
00000000
00000010
00000001
00000100
00000000
,
00000001
00000100
00001000
00010000
00001000
00010000
01000000
00000000
,
10000000
00010000
01000000
00100000
00010000
00001000
00010000
00000000
,
00001000
00000010
00000100
00001000
00000010
00000100
00000001
00000000
,
00000010
00000100
00001000
00000100
00010000
00001000
00100000
00000000
,
00010000
10000000
01000000
00010000
00001000
00010000
01000000
00000000
,
00010000
00001000
00000100
00000001
00000010
00000100
00001000
00000000
,
00000010
00000100
00001000
00010000
00001000
00100000
01000000
00000000
,
00100000
00001000
00010000
00001000
00000010
00000001
00000100
00000000
,
00000010
00001000
00000100
00000000
00010100
00000000
00011000
00000000
,
00100000
10000000
01000000
00000000
10000000
01000000
00010000
00000000
,
00000010
00001000
00000100
00000000
00000001
00000100
00001000
00000000
,
00001000
00010000
01000000
00000000
10000000
00100000
01000000
00000000
,
00001000
00010000
00100000
00000000
00010000
00000000
00011000
00000000
,
00000010
00001000
00000100
00000000
00000001
00000010
00000100
00000000
,
00010000
00001000
00100000
00010000
10000000
00000000
01010000
00000000
,
00100000
10000000
01000000
00000000
00010000
00001000
00010000
00000000
,
00001000
00000100
00000001
00000010
00000100
00000000
00011000
00000000
,
00010100
00000000
00000010
00000001
00000100
00000001
00001000
00000000
,
00010100
00000000
00001000
00010000
01000000
10000000
00010000
00000000
,
11000000
00000000
10000000
00100000
01000000
00010000
01000000
00000000
,
00101000
00000000
00010000
00001000
00000100
00000000
00000110
00000000
,
00000110
00000000
00000001
00000100
00001000
00100000
00010000
00000000
,
01010000
00000000
10000000
01000000
00100000
00001000
00010000
00000000
,
00011000
00000000
00000010
00000001
00000100
00001000
00000100
00000000
,
00001000
00100000
01000000
00010000
00001000
01000000
00100000
00010000
,
00001000
00000000
00001000
00000000
00000100
00000100
00000001
00000000
,
00000100
00000000
00001000
00000000
00010000
00010000
01000000
00000000
,
00100000
00010000
01000000
00000000
00100000
10000000
01000000
00000000
,
10000000
01000000
00010000
01000000
00100000
00010000
00001000
00000000
,
00001000
00000010
00000001
00000100
00001000
00010000
00001000
01000000
,
00100000
10000000
01000000
00000000
00100000
00001000
00010000
00000000
00000100
00001000
00000100
00000000
00000010
00000000
00001001
00000000
,
00000010
00000100
00000010
00000000
00010000
00001000
00010000
00000000
00010000
01000000
00100000
10000000
01000000
00100000
00010000
00000000
,
00010000
10000000
01000000
00000000
00010000
00001000
00010000
00000000
00000010
00000000
00000010
00000000
00000010
00000000
00001000
00000000
,
00000100
00000100
00000100
00010000
00011000
00000000
00000010
00000001
,
00000100
00000010
00000100
00000000
00000101
00000000
00000010
00001000
,
00000100
00010000
00001000
00000000
01001000
00000000
00100000
00010000
,
10000000
00100000
01000000
00000000
00001000
00010000
00100000
10000000
,
01000000
00010000
01000000
00000000
11000000
00000000
00010000
01000000
,
00010000
00100000
00001000
00000000
00010100
00000000
00000100
00000010
,
00000001
00000100
00001000
00000000
00010000
00001000
01000000
00000000
,
00010000
10000000
01000000
00000000
00100000
00001000
00010000
00000100
,
00000010
00000001
00000100
00000001
00000200
00000000
00000000
00000000
,
00000000
00000300
00002000
00000000
,
00000000
00000000
00000000
00003000
00000000
00000000
00010000
00000000
00100000
00000000
10000000
00000000
,
01000000
00000000
00000000
00000000
,
00000000
00000000
00000000
00000000
;
