#TITLE:MAXIMUM OVERDRIVE (KC Club Mix);
#SUBTITLE:;
#ARTIST:2 UNLIMITED;
#TITLETRANSLIT:;
#SUBTITLETRANSLIT:;
#ARTISTTRANSLIT:;
#CREDIT:;
#BANNER:MAXIMUM OVERDRIVE (KC Club Mix).png;
#BACKGROUND:MAXIMUM OVERDRIVE (KC Club Mix)-bg.png;
#LYRICSPATH:;
#CDTITLE:./CDTITLES/Dancemania 21.PNG;
#MUSIC:MAXIMUM OVERDRIVE (KC Club Mix).ogg;
#OFFSET:0.000;
#SAMPLESTART:56.390;
#SAMPLELENGTH:15.000;
#SELECTABLE:YES;
#DISPLAYBPM:140.000;
#BPMS:0.000=138.291,4.000=140.012;
#STOPS:;
#BGCHANGES:;

//---------------dance-single - ----------------
#NOTES:
     dance-single:
     :
     Beginner:
     1:
     0.132,0.193,0.193,0.000,0.000:
0000
0000
0000
0000
,
0000
0000
0000
0000
,
0000
0000
0000
0000
,
0100
0000
0000
0000
,
0100
0000
0000
0000
,
0100
0000
0000
0000
,
0100
0000
0000
0000
,
0010
0000
0000
0000
,
0010
0000
0000
0000
,
1001
0000
0000
0000
,
0000
0000
0000
0000
,
1001
0000
0000
0000
,
0010
0000
0010
0000
,
1001
0000
0000
0000
,
0000
0000
0000
0000
,
1001
0000
0000
0000
,
0010
0000
0010
0000
,
1001
0000
0000
0000
,
0100
0000
0100
0000
,
0000
0000
0000
0000
,
0100
0000
0100
0000
,
1001
0000
0000
0000
,
0100
0000
0100
0000
,
0000
0000
0000
0000
,
0100
0000
0100
0000
,
0001
0000
0001
0000
,
0010
0000
0010
0000
,
0100
0000
0100
0000
,
1000
0000
1000
0000
,
0001
0000
0001
0000
,
0010
0000
0010
0000
,
0100
0100
0100
0000
,
1000
0000
1000
0000
,
1001
0000
0000
0000
,
0010
0000
0100
0000
,
1001
0000
0000
0000
,
0110
0000
0110
0000
,
1001
0000
0000
0000
,
0010
0000
0100
0000
,
1001
0000
0000
0000
,
0110
0000
0110
0000
,
1001
0000
0000
0000
,
0000
0000
0000
0000
,
1001
0000
0000
0000
,
0110
0000
0000
0000
,
0010
0010
0000
0000
,
0100
0100
0000
0000
,
0010
0000
0010
0000
,
0100
0000
0100
0000
,
0000
0000
0000
0000
;

//---------------dance-single - ----------------
#NOTES:
     dance-single:
     :
     Easy:
     2:
     0.132,0.194,0.137,0.068,0.000:
0000
0000
0000
0000
,
0000
0000
0000
0000
,
0000
0000
0000
0000
,
0100
0000
0000
0000
,
0100
0000
0000
0000
,
0001
0000
0000
0000
,
1000
0000
0000
0000
,
0010
0000
0000
0000
,
0100
0000
0000
0000
,
2002
0000
0000
3003
,
0000
0000
0000
0000
,
0100
0000
0000
0000
,
0010
0000
0000
0000
,
0001
0000
0000
0000
,
1000
0000
0000
0000
,
0010
0000
0000
0000
,
0001
0000
1000
0000
,
2002
3003
0000
0000
,
1000
0000
0000
0000
,
0001
0000
0000
0000
,
0010
0000
0100
0000
,
1001
0000
0000
0000
,
0110
0000
0000
0000
,
1001
0000
0000
0000
,
0001
0000
1000
0000
,
0010
0000
0001
0000
,
0010
0000
1000
0000
,
0100
0000
0001
0000
,
0100
0000
1000
0000
,
0001
0000
0001
0000
,
1000
0000
1000
0000
,
0010
0000
0010
0000
,
0010
0000
0100
0100
,
1001
0000
0000
0000
,
0001
0000
0000
0000
,
1000
0000
0000
0000
,
0010
0000
0100
0000
,
1001
0000
0000
0000
,
0010
0000
0000
0000
,
1001
0000
0000
0000
,
0010
0000
0100
0000
,
2002
0000
0000
0000
,
0000
3003
0000
0000
,
0001
0000
1000
0000
,
0100
0000
0010
0000
,
1001
0000
0000
0000
,
1001
0000
0000
0000
,
0010
0000
0010
0000
,
0100
0000
0100
1001
,
0000
0000
0000
0000
;

//---------------dance-single - ----------------
#NOTES:
     dance-single:
     :
     Medium:
     4:
     0.354,0.417,0.182,0.114,0.000:
0000
0000
0000
0000
,
0000
0000
0000
0000
,
0000
0000
0000
0000
,
0100
0001
0100
1000
,
0100
0000
0001
0000
0100
0000
1000
0001
,
0100
0000
1000
0000
0100
0000
0010
0001
,
1000
0000
0001
0000
0100
0000
0010
1000
,
0001
0100
0000
0100
,
0001
1000
0100
0000
1000
0001
0100
0000
,
1002
0000
0000
0100
,
0100
0000
1000
0103
,
2001
0000
0100
0000
,
0001
0000
3100
0000
0010
1000
0100
0000
,
0010
0001
1000
0100
,
0010
0000
0001
0000
0010
0001
1000
0000
,
0010
0000
1000
0000
1000
0001
0100
0000
,
0010
1000
0001
0000
0100
0000
0010
0000
,
1002
0000
0100
0103
,
2001
0000
0100
3100
,
0010
0000
0001
0000
1000
0001
0100
0000
,
0001
1000
0001
0000
0010
0100
0010
0000
,
2001
0000
0100
0000
0100
0100
3100
0000
,
1002
0000
0100
0000
0100
0100
0103
0000
,
0010
1000
0100
0000
0010
0001
0100
0000
,
0001
0000
1000
0000
0100
0100
0100
0000
,
0010
0000
0100
0000
0001
0100
1000
0000
,
0010
0000
0100
0000
1000
0100
0001
0000
,
0010
0010
0100
0100
,
0001
0000
1000
0000
0100
0100
0100
0000
,
0100
0000
0010
0000
1000
0010
0001
0000
,
0100
0000
0010
0000
0001
0010
1000
0000
,
0100
0100
0010
0010
,
1000
0000
0001
0000
0010
0010
0010
0000
,
1001
0010
0001
1000
,
0010
0010
0100
0100
,
0001
1000
0001
1000
,
0010
0000
0010
0100
,
1002
0000
0010
0013
,
2001
0000
0100
3100
,
1001
0100
0000
0100
,
0010
0001
0100
1000
,
1002
0010
0000
0013
,
2001
0100
0000
3100
,
0000
0100
0000
0100
,
0010
0001
0100
1000
,
1001
0000
0010
0000
0001
0100
1000
0000
,
0100
0000
0100
0000
1000
0100
0001
0000
,
0000
0100
0000
0100
,
1001
0000
0110
0000
1001
0000
0100
0100
,
0000
0000
0000
0000
;

//---------------dance-single - ----------------
#NOTES:
     dance-single:
     :
     Hard:
     8:
     0.475,0.500,0.284,0.182,0.125:
0000
0000
0000
0000
,
0000
0000
0000
0000
,
0000
0000
0000
0000
,
0100
0001
0000
0001
0000
0001
0000
0001
,
0100
1000
0100
0000
0100
0100
1001
0000
,
0010
0001
0010
0000
0010
1000
0010
0000
,
0010
0100
0010
0100
0001
1000
0001
0000
,
0010
1000
0100
0000
0010
0001
0100
0000
,
1000
0100
1000
0100
0001
0100
0001
0100
,
0210
0000
0001
0001
0000
0000
0000
0000
,
0010
0000
0310
0000
0100
0100
0000
0000
,
1002
0000
1000
1003
0000
0000
0000
0010
,
0010
1000
0100
0100
0001
0001
0000
0010
,
0000
0000
0001
0000
0010
0000
0000
0100
0000
0000
0000
0000
0000
0000
1100
0000
,
0000
0000
0011
0000
1000
0001
0000
0010
,
0000
0000
1000
0000
0010
0000
0000
0100
0000
0000
0000
0000
0000
0000
0000
0000
,
0010
0100
0100
0100
1001
0000
0110
0000
,
2002
0000
0000
0000
3003
0000
0100
0010
,
0200
0000
0000
0000
0300
0000
1000
0001
,
2000
0000
0000
3000
,
0001
0100
1000
0001
0010
0100
0010
0000
,
2001
0000
0000
0000
0100
0100
3100
0000
,
0002
0000
0000
0000
0010
0010
0013
0000
,
2000
0100
0001
3100
,
0001
0001
0002
0000
1000
1000
1003
0000
,
0010
0001
1000
0100
1000
0100
1000
0000
,
0010
0001
0010
0100
1000
0100
1000
0000
,
0010
1000
0100
0000
0100
0010
1000
0001
,
1000
1000
0001
0001
0100
0100
0100
0000
,
1000
0000
0000
0100
0000
0000
0001
0000
0000
0010
0000
0001
0010
0000
0100
0000
,
1000
0000
0000
0100
0000
0000
1000
0000
0000
1000
0000
0010
0001
0000
1000
0000
,
0100
0000
0000
0010
0000
0000
0001
0000
0000
1000
0000
0001
0010
0000
0100
0000
,
1000
1000
0001
0001
1000
1000
0001
0000
,
1001
0000
0100
0000
0010
0001
0000
0100
0000
0000
0000
0000
0000
0000
1100
0000
,
0000
0000
0011
0001
1000
0100
0000
1000
,
0000
0000
0100
0000
0010
0001
0000
0100
0000
0000
0000
0000
0000
0000
0010
0000
,
0010
0000
1000
0000
0100
0000
0100
0000
0001
0100
0001
0000
0000
0000
0000
0000
,
1002
0000
1000
1003
0000
0000
0100
0000
,
2001
0000
0001
3001
0100
0010
0000
1001
,
0000
0000
0100
0000
0010
0100
0000
0100
0000
0000
0000
0000
0000
0000
0000
0000
,
1001
0100
0010
1001
0000
0110
0000
0000
,
1002
0000
0000
0010
0000
0010
0013
0000
,
2001
0000
0000
0100
0000
0100
3100
0000
,
0010
0100
0010
0000
1000
0000
1000
0000
0100
1000
0100
0000
0001
0000
0001
0000
,
0010
0000
0010
0000
0100
1000
0100
0000
1000
0000
0001
0100
0001
0000
0000
0000
,
1002
0000
0100
0103
0000
1000
0100
0000
,
2001
0000
0100
3100
0000
0001
0100
0000
,
0001
0000
0010
0100
0000
0000
1001
0000
,
0110
0001
1000
0001
1100
0000
0001
0001
,
0000
0000
0000
0000
;

//---------------dance-double - ----------------
#NOTES:
     dance-double:
     :
     Easy:
     1:
     0.161,0.166,0.080,0.137,0.000:
00000000
00000000
00000000
00000000
,
00000000
00000000
00000000
00000000
,
00000000
00000000
00000000
00000000
,
00010000
00000000
00000000
00000000
,
00001000
00000000
00000000
00000000
,
00000100
00000000
00000000
00000000
,
00000001
00000000
00000000
00000000
,
00000100
00000000
00001000
00000000
,
00100000
00000000
00001000
00000000
,
00011000
00000000
00000000
00000000
,
00010000
00000000
00001000
00000000
,
00011000
00000000
00000000
00000000
,
00001000
00010000
00001000
00000000
,
00100000
00000000
01000000
00000000
,
00010000
00000000
00001000
00000000
,
00000100
00000000
00000001
00000000
,
00000100
00000000
00001000
00000000
,
00022000
00000000
00000000
00033000
,
00000000
00000000
00000100
00000000
,
00010000
00000000
00100000
00000000
,
00000000
01000000
00000000
00000000
,
20020000
00000000
30030000
10000000
,
00000000
00100000
00000000
00010000
,
00000000
00001000
00000000
00000010
,
00000000
00000001
00000000
00000000
,
00000100
00001000
00010000
00100000
,
00000000
10000000
01000000
00010000
,
00000000
00001000
00000010
00000001
,
00000000
00000100
00000010
00000100
,
00000000
00001000
00010000
00100000
,
00000000
10000000
00100000
00010000
,
00000000
00001000
00000100
00000001
,
00000000
00000100
00001000
00010000
,
00011000
00000000
00000000
00000000
,
00001000
00000000
00000000
00000000
,
00010000
00000000
00000000
00000000
,
00100000
00000000
00000000
00000000
,
00001000
00000000
00000000
00000000
,
00000100
00000000
00010000
00000000
,
00011000
00000000
00001000
00000000
,
00010000
00000000
00100000
00000000
,
20000000
00000000
30000000
00000000
,
02000000
00000000
03000000
00000000
,
00020000
00000000
00030000
00000000
,
00002000
00000000
00003000
00000000
,
00000200
00000000
00000300
00000000
,
00002000
00000000
00003000
00000000
,
00020000
00000000
00030000
00000000
,
02000000
03000000
00000000
10010000
,
00000000
00000000
00000000
00000000
;

//---------------dance-double - ----------------
#NOTES:
     dance-double:
     :
     Medium:
     5:
     0.323,0.305,0.068,0.023,0.000:
00000000
00000000
00000000
00000000
,
00000000
00000000
00000000
00000000
,
00000000
00000000
00000000
00000000
,
00020000
01000000
00000000
01000000
00000000
01000000
00030000
01000000
,
00010000
10000000
01000000
00010000
,
00000010
00001000
00000001
00000100
,
00001000
00010000
00001000
00000010
,
00000100
00000000
00010000
00000000
00001000
00010000
00001000
00000000
,
00100000
00010000
00100000
00000000
00010000
00000000
10000000
00000000
,
20010000
00000000
30010000
00000000
,
01000000
00000000
00010000
00000000
00001000
00000100
00000010
00000000
,
00000100
00001000
00010000
00100000
,
10000000
00000000
01000000
00000000
00010000
00010000
00010000
00000000
,
00000010
00000000
00000100
00000000
00000001
00001000
00000100
00000000
,
00010000
00100000
01000000
00000000
,
00010000
00000000
10000000
00010000
01000000
00000000
00000000
00000000
,
10000000
00000000
01000000
00000000
00010000
00000000
00000010
00000100
,
00000001
00000100
00010000
00000000
,
00100000
00000000
00000000
00000000
10000000
00000000
00100000
00010000
,
01000000
00000000
00100000
00000000
,
00010000
00000000
00000010
00000000
00000100
00000100
00000100
00000000
,
00001000
00000000
00010000
00000000
,
00100000
01000000
00010000
10000000
,
01000000
00010000
00001000
00000100
,
00000001
00000100
00001000
00000000
00100000
00000000
01000000
00000000
,
00010000
00001000
00000000
00000010
00000100
00001000
00000000
00000001
,
00000000
00000100
00000000
00001000
00010000
00001000
00000000
00000000
,
00010000
00100000
00000000
10000000
00000000
01000000
00000000
00100000
,
00100000
00100000
00000000
00010000
00000000
00100000
00000000
00001000
,
00010000
00010000
00000000
00001000
00000000
00010000
00001000
00010000
,
00000000
00010000
00000000
00001000
00000000
00000010
00000100
00000010
,
00000000
00001000
00010000
00000000
00100000
00000000
10000000
00000000
,
01000000
00000000
00010000
00000000
00010000
00000000
00001000
00001000
,
00001000
00000000
00000010
00000000
00000000
00000000
00000010
00000001
,
00001000
00000000
00010000
00000000
00000100
00001000
00000001
00000000
,
00000000
00001000
00000100
00010000
,
00100000
00000000
10000000
00000000
01000000
01000000
01000000
00000000
,
10010000
01000000
00010000
00001000
,
00000010
00000000
00000100
00000000
00001000
00001000
00001000
00000000
,
00000100
00010000
00100000
10000000
,
00100000
10000000
00010000
00000000
01000000
00000000
01000000
00000000
,
10010000
00000000
00010000
00000010
,
00000001
00000000
00000000
00000000
00000100
00000100
00000100
00000000
,
00001001
00000000
00000010
00001000
,
00010000
00000000
00000000
00000000
00010000
00010000
00010000
00000000
,
00011000
00000000
00100000
00001000
,
00010000
00000000
00010000
00001000
,
00000010
00000000
00000100
00000000
,
00000010
00000100
00001000
00000000
00011000
00000000
01000000
00000000
,
00000000
00000000
00000000
00000000
;

//---------------dance-double - ----------------
#NOTES:
     dance-double:
     :
     Hard:
     8:
     0.447,0.445,0.262,0.080,0.000:
00000000
00000000
00000000
00000000
,
00000000
00000000
00000000
00000000
,
00000000
00000000
00000000
00000000
,
00001000
00010000
01000000
10000000
,
01000000
00010000
01100000
10010000
,
00100000
01000000
00100000
00000000
00010000
00001000
00010000
00000000
,
00001000
00000100
00000001
00000100
00000010
00000001
00000100
00000000
,
00000100
00000100
00000100
00000000
00001000
00001000
00001000
00000000
,
00010000
00100000
00010000
01000000
10000000
01000000
10000000
00000000
,
10010000
00000000
00000000
00001000
,
00002001
00000000
00000100
00000000
00000100
00003100
00000000
00000000
,
00000101
00001000
00001000
00010000
,
20010000
00000000
01000000
00000000
01000000
01000000
30000000
00000000
,
10000000
00100000
01000000
00000000
00010000
00001000
00000010
00000000
,
00000100
00000000
00000010
00000000
00000100
00001000
00000100
00000000
,
00001000
00010000
01000000
00000000
00100000
00010000
01000000
00000000
,
00100000
00000000
00010000
00000000
00001000
00010000
00001000
00000000
,
00102000
00000000
00000000
00000000
00010000
00010000
00013000
00000000
,
00020010
00000000
00000000
00000000
00001000
00001000
00031000
00000000
,
00010000
00000000
00001000
00000000
00000010
00000010
00000010
00000000
,
00001002
00000000
00000000
00000000
00000100
00000100
00000103
00000000
,
00000010
00000000
00000100
00000000
00000001
00000100
00001000
00000000
,
00010000
00000000
00100000
00000000
00010000
00100000
10000000
00000000
,
00100000
10000000
01000000
00010000
00010000
00001000
00000010
00000100
,
00000001
00000100
00000001
00000100
00000001
00000001
00000001
00000000
,
00001001
00000000
00000100
00000000
00001000
00010000
00100000
00000000
,
00010000
00010000
00100000
00000000
01000000
00000000
10010000
00000000
,
00100000
00100000
10000000
01000000
00000000
00010000
00001000
00000010
,
00000000
00000100
00000000
00000010
00000100
00000100
00000100
00000000
,
00000100
00000010
00000100
00000000
00000001
00001000
00001000
00000100
,
00010000
00100000
00010000
00100000
10000000
01000000
10000000
00000000
,
00100000
01000000
00100000
01000000
00010000
01000000
00010000
00001000
,
00000010
00001000
00000010
00001000
00000100
00000100
00000100
00000000
,
00001001
00000000
00000100
00000000
00000001
00000100
00001000
00000000
,
00010000
00000000
10000000
00000000
00100000
01000000
00100000
00000000
,
10000000
00000000
00010000
00000000
01000000
00010000
01000000
00000000
,
01000000
00100000
00010000
00001000
,
00000110
00000000
00001001
00000000
00000010
00000100
00000010
00000000
,
00001100
00000000
00011000
00000000
00100000
00010000
10000000
00000000
,
01100000
00000000
10010000
00000000
01000000
00100000
01000000
00000000
,
10000000
00000000
00010000
00000000
00001000
00000010
00000100
00000000
,
00001100
00000000
00000000
00000000
00000010
00000100
00000010
00000000
,
00001001
00000000
00000000
00000000
00001000
00010000
00001000
00000000
,
00110000
00000000
00000000
00000000
00100000
01000000
00100000
00000000
,
00010000
00001000
00010000
00001000
00100000
00001000
00010000
00000000
,
00010020
00000000
00000000
00000000
00001000
00001000
00001030
00000000
,
00000201
00000000
00000000
00000000
00001000
00001000
00001300
00000000
,
00010000
00100000
00100000
10000000
01000000
00010000
00010000
00001000
,
00000100
00001000
00000010
00001000
00000100
00001000
00001000
00001000
,
00000000
00000000
00000000
00000000
;
