
//----- song ID: mats3 -----//
#TITLE:чен JAPAN (FROM NONSTOP MEGAMIX);
#ARTIST:RE-VENGE;
#TITLETRANSLIT:MATSURI JAPAN (FROM NONSTOP MEGAMIX);
#BANNER:MATSURI JAPAN (FROM NONSTOP MEGAMIX).png;
#BACKGROUND:MATSURI JAPAN (FROM NONSTOP MEGAMIX)-bg.png;
#CDTITLE:./CDTITLES/DDRMAX2 -Dance Dance Revolution 7thMIX-.PNG;
#MUSIC:MATSURI JAPAN (FROM NONSTOP MEGAMIX).ogg;
#SAMPLESTART:54.672;
#SAMPLELENGTH:15;
#DISPLAYBPM:180;
#BPMS:0=178,4=180;
#NOTES:
     dance-single:
     :
     Challenge:
     9:
     :
0000
0000
0000
0000
,
0000
0000
0000
0000
,
0000
0000
0000
0000
,
0010
1000
0001
0010
,
0010
0001
1000
0010
,
0101
0000
0001
0100
0000
1000
0100
0000
1000
0100
0000
0001
,
0100
0000
0001
0100
0000
1000
0100
0000
1000
0100
0000
0000
,
0010
1000
0001
0010
,
0010
0001
1000
0010
,
0101
0000
0001
0100
0000
1000
0100
0000
1000
0100
0000
0001
,
0100
0000
0001
0100
0000
1000
0100
0000
1000
0100
0000
0000
,
0010
1000
0100
0000
0001
0000
0101
0000
,
0010
0001
0100
0000
1100
0000
1100
0000
,
0010
1000
0100
0000
0001
0000
0101
0000
,
0010
0001
0100
0000
1100
0000
1100
0000
,
0010
1000
0100
0000
0001
0000
0101
0000
,
0010
1000
0001
0010
,
0010
0001
0100
0000
1100
0000
1100
0000
,
0010
0001
1000
0010
,
0101
0000
1000
0100
0000
0001
0100
0000
1000
0100
0000
0000
,
0010
0001
1000
0010
,
1001
0000
1000
0001
0000
0001
1000
0000
1000
0001
0000
0000
,
0010
0001
1000
0010
,
0010
0100
0001
0000
1100
0000
0000
0000
,
0010
0100
1000
0000
0101
0000
0000
0000
,
0010
0100
0001
0000
1100
0000
0000
0000
,
0010
0100
1000
0000
0101
0000
0000
0000
,
0010
0101
0010
1100
,
0010
0101
0010
1100
,
0010
0101
0010
1100
,
0010
0101
1100
0101
,
1001
0000
0000
0100
0000
0001
0100
0000
0001
0000
0000
1001
,
0000
0000
1000
0100
0000
1000
0100
0000
0000
1001
0000
0000
,
0010
0001
1000
0010
,
0010
1000
0001
0010
,
0010
0001
1000
0010
,
0010
1000
0001
0010
,
1100
0101
1100
0101
,
2002
0000
0000
0000
,
0000
0000
0000
0000
,
0000
0000
0000
3003
,
0011
1000
0100
1100
,
0001
1001
0100
0001
,
0010
0001
1000
0010
,
0010
1000
0001
0010
,
1100
0010
0100
1100
,
1000
1001
1000
0010
,
0010
1000
0001
0010
,
0010
0001
1000
0010
,
1001
0010
0100
1001
,
1000
1001
0001
0100
,
0101
1000
1100
0001
,
0010
0001
1000
0010
,
0010
1100
0001
1100
,
0100
1100
1000
1100
,
0010
0101
1000
0101
,
0100
0101
0001
0101
,
1000
0000
1000
0000
0001
0100
1000
0000
,
0001
0000
0001
0000
1000
0100
0001
0000
,
1000
0000
1000
0000
0001
0100
1000
0000
,
0001
0000
0001
0000
1000
0100
0001
0000
,
1000
0010
0100
0010
,
0100
0010
0100
0001
,
1000
0010
0100
0010
,
0100
0001
1000
0001
,
2000
0001
0010
3100
,
0002
1000
0010
0103
,
1001
0000
0000
0000
,
0000
0000
0000
0000
;
#NOTES:
     dance-double:
     :
     Challenge:
     8:
     :
00000000
00000000
00000000
00000000
,
00000000
00000000
00000000
00000000
,
00000000
00000000
00000000
00000000
,
00000010
00000001
00000010
00001000
,
00000010
00000001
00000010
00001000
,
00000101
00000000
00000100
00001000
00000000
00001000
00010000
00000000
00010000
01000000
00000000
10000000
,
01000000
00000000
10000000
01000000
00000000
00010000
01000000
00000000
00010000
01000000
00000000
00000000
,
00100000
10000000
00100000
00010000
,
00100000
10000000
00100000
00010000
,
11000000
00000000
01000000
00010000
00000000
00010000
00001000
00000000
00001000
00000100
00000000
00000001
,
00000100
00000000
00000001
00000100
00000000
00001000
00000100
00000000
00001000
00000100
00000000
00000000
,
00000011
00001001
00001100
00001001
,
00000110
00001000
00010000
01000000
,
11000000
10010000
00110000
10010000
,
01100000
00010000
00001000
00000100
,
00001000
00000100
00001000
00020000
,
00100000
00001000
00100000
00031000
,
00010000
01000000
00010000
00002000
,
00000010
00010000
00000010
00013000
,
01000000
00010000
00001000
00000100
,
00000010
00000001
00000010
00001000
,
00000100
00001000
00010000
01000000
,
00100000
10000000
00100000
00010000
,
10000000
01000000
00100000
01000000
,
10000000
01000000
00100000
01000000
,
00010000
01000000
00010000
01000000
,
00010000
00001000
00000100
00000001
,
00001000
00000001
00000100
00000001
,
00001000
00000001
00000100
00000001
,
00000010
00001000
00000010
00001000
,
00010000
00100000
10000000
01000000
,
10010000
00000000
00000000
10000000
00000000
01000000
10000000
00000000
01000000
00000000
00000000
00010000
,
00000000
00000000
00001000
00010000
00000000
00001000
00000100
00000000
00000000
00000001
00000000
00000000
,
00001001
00000100
00001000
00000100
,
00000010
00000001
00000010
00001000
,
00000010
00000001
00000010
00001000
,
00000010
00001000
00010000
00100000
,
10000000
10000000
01000000
02000000
,
00020000
00000000
00000000
00000000
,
00000000
00000000
00000000
00000000
,
00000000
00000000
00000000
03030000
,
10000000
10010000
10000000
10010000
,
01000000
00010000
00001000
00000100
,
00000010
00000001
00000010
00001000
,
00000010
00000001
00000010
00001000
,
00000001
00001001
00000001
00001001
,
00000100
00001000
00010000
01000000
,
00100000
10000000
00100000
00010000
,
00100000
10000000
00100000
00010000
,
10000000
01000000
00010000
00001000
,
00010010
00011000
00010010
00011000
,
00101000
00011000
00101000
00021000
,
00100000
00001000
00100000
00031000
,
00010010
00011000
00010010
00011000
,
00000100
00000001
00000100
00001000
,
00000010
00000100
00000001
00000010
,
00000100
00000001
00000100
00001000
,
00000010
00000001
00000010
00001000
,
00000101
00000101
00001000
00010000
,
11000000
11000000
00010000
01000000
,
11000000
11000000
00010000
00001000
,
00000101
00000101
00001000
00000100
,
00000001
00000010
00000100
00000010
,
00000100
00000010
00001000
00010000
,
00100000
10000000
00010000
10000000
,
00100000
10000000
00010000
10000000
,
00100000
10000000
01000000
10000000
,
00010000
00000000
00000000
00000000
,
00000000
00000000
00000000
00000000
;
