#TITLE:LONG TRAIN RUNNIN';
#SUBTITLE:;
#ARTIST:BUS STOP;
#TITLETRANSLIT:;
#SUBTITLETRANSLIT:;
#ARTISTTRANSLIT:;
#CREDIT:;
#BANNER:LONG TRAIN RUNNIN'.png;
#BACKGROUND:LONG TRAIN RUNNIN'-bg.png;
#LYRICSPATH:;
#CDTITLE:./CDTITLES/Dancemania 21.PNG;
#MUSIC:LONG TRAIN RUNNIN'.ogg;
#OFFSET:0.000;
#SAMPLESTART:17.040;
#SAMPLELENGTH:15.000;
#SELECTABLE:YES;
#DISPLAYBPM:126.000;
#BPMS:0.000=125.999,4.000=126.602;
#STOPS:;
#BGCHANGES:;

//---------------dance-single - ----------------
#NOTES:
     dance-single:
     :
     Beginner:
     1:
     0.133,0.223,0.222,0.000,0.000:
0000
0000
0000
0000
,
0000
0000
0000
0000
,
0000
0000
0000
0000
,
1000
0000
0000
0000
,
0001
0000
0000
0000
,
1000
0000
0000
0000
,
0001
0000
0000
0000
,
1001
0000
1001
0000
,
1001
0000
0000
0000
,
0010
0010
0000
0000
,
0001
0001
0000
0000
,
0100
0100
0000
0000
,
1000
1000
0000
0000
,
0010
0000
0000
0000
,
0100
0000
0000
0000
,
1001
0000
0000
0000
,
0010
0010
0000
0000
,
1001
0000
0000
0000
,
0000
0000
1001
0000
,
1001
0000
0000
0000
,
0000
0000
0000
0000
,
1000
0000
1000
0000
,
0010
0000
0010
0000
,
1000
0000
0010
0000
,
1000
0000
0010
0000
,
0010
0000
0010
0000
,
0100
0000
0100
0000
,
1001
0000
0000
0000
,
0100
0000
0000
0000
,
1000
0000
1000
0000
,
0010
0000
0010
0000
,
0001
0000
0001
0000
,
0100
0000
0100
0000
,
1001
0000
0000
0000
,
1001
0000
0000
0000
,
1001
0000
1001
0000
,
1001
1001
1001
0000
,
1000
0000
0100
0000
,
0001
0000
0100
0000
,
1001
0000
0000
0000
,
1001
0000
0000
0000
,
1001
0000
0000
0000
,
0000
0000
1001
0000
,
1001
0000
0100
0000
,
0100
0000
0100
0000
,
0000
0000
0000
0000
;

//---------------dance-single - ----------------
#NOTES:
     dance-single:
     :
     Easy:
     2:
     0.159,0.199,0.089,0.044,0.000:
0000
0000
0000
0000
,
0000
0000
0000
0000
,
0000
0000
0000
0000
,
1000
0010
0000
0000
,
0001
0010
0000
0000
,
1000
0100
0000
0000
,
0001
0100
0000
0000
,
1000
0100
0001
0100
,
1001
0000
0000
0000
,
0010
0010
0010
0000
,
1000
1000
1000
0000
,
0100
0100
0100
0000
,
0001
0001
0001
0000
,
0010
0000
0010
0000
,
0100
0000
0100
0000
,
1001
0000
0000
0000
,
0010
0010
0000
0000
,
2002
0000
0000
0000
,
0000
3003
0110
0000
,
1001
0000
0000
0000
,
0000
0000
0000
0000
,
1000
0010
0000
1000
,
0001
0010
0000
0001
,
1000
0010
0000
1000
,
0001
0010
0000
0000
,
0010
0000
0010
0000
,
0100
0000
0100
0000
,
0010
0010
0000
0000
,
0100
0100
0000
0000
,
1000
0000
0001
0000
,
0010
0000
0100
0000
,
0010
0010
0000
0000
,
0100
0100
0000
0000
,
1000
0010
0001
0000
,
0001
0010
1000
0000
,
0001
0000
1000
0000
,
1000
0100
0001
0000
,
1000
0000
1000
0000
,
0001
0000
0001
0000
,
1000
0001
0000
0000
,
0001
1000
0000
0000
,
2002
0000
0000
0000
,
0000
3003
0110
0000
,
1001
0000
0100
0000
,
0100
0000
0000
0000
0000
1000
0001
0000
,
0000
0000
0000
0000
;

//---------------dance-single - ----------------
#NOTES:
     dance-single:
     :
     Medium:
     5:
     0.311,0.423,0.434,0.056,0.067:
0000
0000
0000
0000
,
0000
0000
0000
0000
,
0000
0000
0000
0100
,
1000
0010
0000
0100
,
0010
1001
0000
0000
,
0100
1010
0000
1000
,
0100
0011
0000
0001
,
0100
1010
0100
0021
,
0100
0100
0130
0000
,
0010
0001
0010
0000
,
0100
1000
0100
0000
,
1000
0010
1000
0000
,
0001
0100
0001
0000
,
0000
0000
0010
0000
0000
0010
0000
0000
0010
0000
0000
0010
0000
0000
1001
0000
,
0000
0000
1000
0000
0000
1000
0000
0000
1000
0000
0000
1000
0000
0000
0110
0000
,
0010
1001
0000
0010
,
0100
1001
0000
0001
,
0220
0000
0000
0000
,
0000
0330
1001
0000
,
0110
1000
0001
0100
,
0001
1000
0010
0010
,
0100
1010
0100
0001
,
0100
0011
0100
1000
,
0100
1010
0100
0001
,
0100
0011
0100
1000
,
0000
0000
0010
0000
0000
0010
0000
0000
0010
0000
0000
0010
0000
0000
1001
0000
,
0000
0000
1000
0000
0000
1000
0000
0000
1000
0000
0000
1000
0000
0000
0110
0000
,
0010
1001
0001
0100
,
0100
1001
0100
1000
,
0010
0010
1000
1000
,
0100
0100
0001
0001
,
0010
1001
0010
0010
,
0100
1001
0100
0100
,
0100
1000
0001
0100
0010
0000
0010
0000
,
0100
0001
1000
0100
0010
0000
0010
0000
,
0100
0100
0100
0100
,
1010
1100
1001
0101
,
0000
0000
0011
0000
0000
0011
0000
0000
0011
0000
0000
0011
0000
0000
0100
0000
,
0000
0000
1100
0000
0000
1100
0000
0000
1100
0000
0000
1100
0000
0000
0001
0000
,
0100
1001
0010
1000
,
0100
1001
0000
0000
,
0220
0000
0000
0000
,
0000
0330
1001
0100
,
0101
0000
0001
0000
,
0010
0000
0010
0000
0000
1000
0001
0000
,
0000
0000
0000
0000
;

//---------------dance-single - ----------------
#NOTES:
     dance-single:
     :
     Hard:
     8:
     0.434,0.448,0.311,0.122,0.334:
0000
0000
0000
0000
,
0000
0000
0000
0000
,
0000
0000
0000
0000
,
1000
0000
0000
0000
0010
0000
0000
0000
0000
0000
1000
0010
0100
0001
0000
0000
,
0001
0000
0000
0000
0010
0000
0000
0000
0000
0000
0001
0010
0100
2000
0000
0000
,
0100
0000
0000
0000
3010
0000
0000
0000
0000
0000
1000
0010
0100
0002
0000
0000
,
0100
0000
0000
0000
0013
0000
0000
0000
0000
0000
0001
0010
0100
2000
0000
0000
,
0100
3010
0102
0023
,
0100
0100
0130
0000
,
1000
0000
0010
1000
0000
0010
0000
1000
0000
0000
0000
0000
0000
0000
0000
0000
,
0001
0000
0010
0001
0000
0010
0000
0001
0000
0000
0000
0000
0000
0000
0000
0000
,
1000
0000
0010
0000
0001
0000
0010
0000
1000
0000
0000
0000
0000
0000
0010
0100
,
0001
0000
0100
0000
0010
1000
0000
0100
0000
0000
0000
0000
0000
1000
0010
0100
,
0001
0000
0010
0000
0000
1100
0000
0000
0010
0000
0000
1001
0000
0000
0101
0000
,
0000
0000
0100
0000
0000
0110
0000
0000
0001
0000
0000
0011
0000
0000
0110
0000
,
0001
1100
0001
0100
,
0010
0000
0000
0000
0010
0000
0000
0000
0000
0000
0000
0000
0000
0100
0001
0100
,
0020
1000
0100
0001
,
0100
1030
0001
0000
,
0010
0100
0001
1000
0100
0010
1000
0001
,
0010
0100
0001
1000
0100
0000
0000
0000
,
0102
0000
0000
0000
0013
0000
0000
0000
0000
0000
0001
0010
0100
0001
0000
0000
,
1200
0000
0000
0000
0301
0000
0000
0000
0000
0000
0100
0001
1000
0100
0000
0000
,
2010
0000
0000
0000
3100
0000
0000
0000
0000
0000
1000
0100
0010
1000
0000
0000
,
0021
0000
0000
0000
1030
0000
0000
0000
0000
0000
0010
1000
0001
0010
0000
0000
,
0000
0000
0010
0000
0000
0010
0000
0000
1000
0000
0000
0100
0000
0000
0101
0000
,
0000
0000
0100
0000
0000
0100
0000
0000
1000
0000
0000
0100
0000
0000
1100
0000
,
1000
0000
0000
0000
0110
0000
0000
0000
0000
0000
0001
1000
0010
0100
0000
0000
,
0001
0000
0000
0000
0110
0000
0000
0000
0000
0000
0001
1000
0010
0100
0000
0000
,
0001
0010
0100
1000
0010
0001
0100
0000
,
0010
1000
0100
0000
1001
0000
0101
0000
,
0010
0000
0000
0000
0110
0000
0000
0000
0000
0000
0010
0100
0010
1000
0000
0000
,
0001
1001
0000
0000
,
0100
0000
1000
0000
0001
0000
0100
0000
0010
0000
0000
0000
0000
0000
1000
0001
,
0100
0000
0001
0000
1000
0000
0100
0000
0010
0000
0000
0000
0000
0000
0100
0010
,
0100
0000
0100
0000
0100
0000
0100
1000
,
0100
0000
0001
0000
0010
0000
0100
0000
1000
0000
0000
0000
0000
1000
0010
0100
,
0001
0000
0010
0000
0000
0010
0000
0000
0110
0000
0000
0001
0000
0000
1100
0000
,
0010
0000
0100
0000
0000
0100
0000
0000
0101
0000
0000
0010
0000
0000
1100
0000
,
0100
0000
0000
0000
0011
0000
0000
0000
0000
0000
0100
0010
0100
1000
0000
0000
,
0010
0000
0000
0000
1010
0000
0000
0000
0000
0000
0000
0000
0000
0100
1000
0100
,
0020
0001
0100
1000
,
0100
0031
1000
0000
,
1001
0000
0000
0001
1000
0000
0010
0000
0000
0000
0010
1000
0010
0100
0000
0000
,
0110
0000
0000
0010
0100
0000
1000
0000
0000
0000
1000
0100
0001
0000
0000
0000
,
0000
0000
0000
0000
;

//---------------dance-double - ----------------
#NOTES:
     dance-double:
     :
     Easy:
     3:
     0.211,0.224,0.167,0.044,0.000:
00010000
00000000
00000000
00000000
,
00000000
00000000
00000000
00000000
,
00000000
00000000
00000000
00000000
,
10000000
00100000
00000000
00010000
,
00001000
00000010
00000000
00000001
,
00000010
00001000
00000000
00010000
,
00100000
00010000
00000000
00001000
,
00000100
00001000
01000000
00010000
,
00011000
00000000
00000000
00000000
,
00100000
00100000
00100000
00000000
,
01000000
01000000
01000000
00000000
,
00000100
00000100
00000100
00000000
,
00000010
00000010
00000010
00000000
,
00001000
01000000
00100000
00000000
,
00001000
00000100
00000010
00010000
,
00001000
00010000
00000000
00000000
,
00010000
00001000
00000000
00000000
,
00021000
00000000
00100000
00000000
,
00032000
00000000
00003010
00000000
,
00011000
00000000
00000000
00000000
,
00000000
00000000
00000000
00000000
,
00000100
00001010
00000000
00010000
,
01000000
00110000
00000000
00001000
,
00000100
00001010
00000000
00010000
,
01000000
00110000
00000000
00001000
,
00010000
00001000
00000100
00000001
,
00000010
00000001
00000100
00001000
,
00010000
01100000
00000000
00010000
,
00001000
00000110
00000000
00000000
,
00000010
00000000
00001000
00000000
,
00100000
00000000
00010000
00000000
,
00001000
00000110
00000000
00001000
,
00010000
01100000
00000000
00000000
,
00010000
00000010
00001000
00000000
,
00010000
00100000
00001000
00000000
,
00000100
00000100
00000001
00000001
,
00000010
00001000
00010000
00000000
,
00001000
00010000
01000000
10000000
,
00100000
10000000
01000000
00010000
,
00001000
00011000
00000000
00000000
,
00010000
00011000
00000000
00000000
,
00021000
00000000
00100000
00000000
,
00032000
00000000
00003010
00000000
,
00011000
00000000
01000000
00000000
,
00010000
00000000
00000000
00000000
00000000
00100000
00001000
00000000
,
00000000
00000000
00000000
00000000
;

//---------------dance-double - ----------------
#NOTES:
     dance-double:
     :
     Medium:
     5:
     0.299,0.298,0.378,0.056,0.067:
00000000
00000000
00000000
00000000
,
00000000
00000000
00000000
00000000
,
00000000
00000000
00000000
00000000
,
01000000
10000000
00000000
00100000
,
01000000
00110000
00000000
10000000
,
01000000
10100000
00000000
00010000
,
01000000
00110000
00000000
00001000
,
00000100
00001010
00000100
00000012
,
00000100
00000100
00000103
00000000
,
00000001
00001000
00000110
00000001
,
00000001
00000100
00011000
00010000
,
00100000
00010000
01100000
10000000
,
10000000
01000000
00011000
00000000
,
00000000
00000000
00000010
00000000
00000000
00000010
00000000
00000000
00000010
00000000
00000000
00001000
00000000
00000000
00010000
00000000
,
00000000
00000000
00100000
00000000
00000000
00100000
00000000
00000000
00100000
00000000
00000000
00010000
00000000
00000000
00001000
00000000
,
00000010
00001001
00000010
00001000
,
00000100
00001001
00000100
00000001
,
00000220
00000000
00000000
00000000
,
00000000
00000330
00001000
00011000
,
01100000
10000000
01000000
00100000
,
00010000
00001000
00000100
00000100
,
00010000
00001010
00000000
00000001
,
00000100
00001100
00000000
00001000
,
00010000
00110000
00000000
10000000
,
01000000
01010000
00000000
00010000
,
00000000
00000000
00001000
00000000
00000000
00000010
00000000
00000000
00001000
00000000
00000000
00010000
00000000
00000000
00011000
00000000
,
00000000
00000000
00010000
00000000
00000000
00100000
00000000
00000000
10000000
00000000
00000000
01000000
00000000
00000000
00010000
00000000
,
00001000
00011000
00000000
00001000
,
00010000
00011000
00000010
00000100
,
00000010
00000010
00001000
00001000
,
00000100
00000100
00000001
00000001
,
00000010
00011000
01000000
10000000
,
01000000
00011000
00000000
00000000
,
00010000
00100000
10000000
01010000
,
00010000
00001000
00000100
00000101
,
00000100
00001100
00000100
00000110
,
00000100
00010000
00100000
10010000
,
00000000
00000000
00010000
00000000
00000000
01000000
00000000
00000000
00100000
00000000
00000000
10000000
00000000
00000000
00010000
00000000
,
00000000
00000000
00001000
00000000
00000000
00000010
00000000
00000000
00000100
00000000
00000000
00000001
00000000
00000000
00001000
00000000
,
00010000
00011000
00010000
00100000
,
10000000
01100000
00000000
00000000
,
20020000
00000000
00000000
00000000
,
00000000
30030000
00010000
00011000
,
00000110
00000001
00001001
00000100
,
00001000
00000000
00010000
00000000
00000000
00001000
00000100
00000000
,
00000000
00000000
00000000
00000000
;

//---------------dance-double - ----------------
#NOTES:
     dance-double:
     :
     Hard:
     7:
     0.418,0.448,0.245,0.089,0.339:
00000000
00000000
00000000
00000000
,
00000000
00000000
00000000
00000000
,
00000000
00000000
00000000
00000000
,
00001000
00000000
00000000
00000000
00010000
00000000
00000000
00000000
00000000
00000000
00000010
00001000
00000001
00000100
00000000
00000000
,
00001000
00000000
00000000
00000000
00010000
00000000
00000000
00000000
00000000
00000000
00100000
10000000
00010000
01000000
00000000
00000000
,
00010000
00000000
00000000
00000000
00000110
00000000
00000000
00000000
00000000
00000000
00001000
00000001
00000010
00000100
00000000
00000000
,
00001000
00000000
00000000
00000000
00101000
00000000
00000000
00000000
00000000
00000000
00010000
10000000
00100000
01000000
00000000
00000000
,
00010000
00010010
00000100
00000110
,
00000100
00010000
00001000
00100000
00001000
00010000
00000100
00000000
,
00010000
00000000
01000000
10000000
00000000
01000000
00000000
00010000
00000000
00000000
00000000
00000000
00000000
00000000
00000000
00000000
,
00001000
00000000
00000010
00000001
00000000
00000010
00000000
00001000
00000000
00000000
00000000
00000000
00000000
00000000
00000000
00000000
,
00000001
00000000
00000010
00000000
00001000
00000000
00010000
00000000
00100000
00000000
00000000
00000000
00000000
00000000
00100000
01000000
,
00010000
00000000
01000000
00000000
00100000
01000000
00000000
00010000
00000000
00000000
00000000
00000000
00000000
10000000
01000000
00100000
,
00010000
00000000
00100000
00000000
00000000
00100000
00000000
00000000
01000000
00000000
00000000
01000000
00000000
00000000
10000000
00000000
,
00000000
00000000
00010000
00000000
00000000
00010000
00000000
00000000
00001000
00000000
00000000
00000001
00000000
00000000
00000100
00000000
,
00001000
00001000
00000000
00000000
,
00010000
00000000
00000000
00000000
00010000
00000000
00000000
00000000
00000000
00000000
00000000
00000000
00000000
01000000
00010000
01000000
,
00002000
00010000
00100000
00023000
,
00000010
00001000
01030000
10000000
,
01000000
10000000
00100000
01000000
00010000
00100000
00001000
00010000
,
00000100
00001000
00000010
00000100
00000001
00000000
00000000
00000000
,
00000012
00000000
00000000
00000000
00000103
00000000
00000000
00000000
00000000
00000000
00000001
00000010
00000100
00001000
00000000
00000000
,
00020100
00000000
00000000
00000000
01030000
00000000
00000000
00000000
00000000
00000000
01000000
00010000
10000000
01000000
00000000
00000000
,
21000000
00000000
00000000
00000000
30100000
00000000
00000000
00000000
00000000
00000000
10000000
01000000
00100000
00010000
00000000
00000000
,
00102000
00000000
00000000
00000000
00003010
00000000
00000000
00000000
00000000
00000000
00000010
00001000
00000001
00000010
00000000
00000000
,
00000000
00000000
00000100
00000000
00000000
00000100
00000000
00000000
00001000
00000000
00000000
00010000
00000000
00000000
01001000
00000000
,
00000000
00000000
00010000
00000000
00000000
00010000
00000000
00000000
00100000
00000000
00000000
01000000
00000000
00000000
10100000
00000000
,
10000000
00000000
00000000
00000000
11000000
00000000
00000000
00000000
00000000
00000000
00100000
10000000
01000000
00010000
00000000
00000000
,
00001000
00000000
00000000
00000000
00011000
00000000
00000000
00000000
00000000
00000000
01000000
10000000
00100000
00010000
00000000
00000000
,
00000000
00010000
00000000
00000100
00000000
00001000
00000000
00000010
,
00000000
00010000
00000000
01000000
00000000
00010000
00000000
00000100
,
00001000
00000000
00000000
00000000
00000110
00000000
00000000
00000000
00000000
00000000
00000001
00000100
00000010
00001000
00000000
00000000
,
00001000
00011000
00000000
00000000
,
01000000
00000000
10000000
00000000
00010000
00000000
01000000
00000000
00100000
00000000
00000000
00000000
00000000
00000000
00010000
00001000
,
00000100
00000000
00000001
00000000
00001000
00000000
00000100
00000000
00000010
00000000
00000000
00000000
00000000
00000000
00000100
00001000
,
00000010
00000000
00000000
00000000
00000010
00000000
00000000
00000000
00000010
00000000
00000000
00000000
00000010
00000000
00001000
00000001
,
00000100
00000000
00001000
00000000
00010000
00000000
01000000
00000000
00100000
00000000
00000000
00000000
00000000
00010000
00001000
00000100
,
00000001
00000000
00000010
00000000
00000000
00001010
00000000
00000000
00000001
00000000
00000000
00000100
00000000
00000000
00010100
00000000
,
00000000
00000000
00011000
00000000
00000000
01000000
00000000
00000000
11000000
00000000
00000000
00100000
00000000
00000000
00011000
00000000
,
00000100
00000000
00000000
00000000
00000011
00000000
00000000
00000000
00000000
00000000
00000100
00001000
00000100
00000010
00000000
00000000
,
00000010
00000000
00000000
00000000
00011000
00000000
00000000
00000000
00000000
00000000
00000000
00000000
00000000
01000000
00010000
01000000
,
00002000
00010000
00100000
00023000
,
00000010
00001000
00030100
00000000
,
00011000
00000000
00000000
00010000
01000000
00000000
00010000
00000000
00000000
00000000
00001000
00010000
00001000
00010000
00000000
00000000
,
00010000
00000000
00000000
00001000
00000100
00000000
00001000
00000000
00000000
00000000
00010000
01000000
10000000
00000000
00000000
00000000
,
00000000
00000000
00000000
00000000
;
