#TITLE:LIVING IN AMERICA;
#SUBTITLE:;
#ARTIST:ROSE & JOHN;
#TITLETRANSLIT:;
#SUBTITLETRANSLIT:;
#ARTISTTRANSLIT:;
#CREDIT:;
#BANNER:LIVING IN AMERICA.png;
#BACKGROUND:LIVING IN AMERICA-bg.png;
#LYRICSPATH:;
#CDTITLE:./CDTITLES/Dancemania SPEED 8.PNG;
#MUSIC:LIVING IN AMERICA.ogg;
#OFFSET:0.000;
#SAMPLESTART:31.240;
#SAMPLELENGTH:15.000;
#SELECTABLE:YES;
#DISPLAYBPM:169.000;
#BPMS:0.000=167.339,4.000=169.008;
#STOPS:;
#BGCHANGES:;

//---------------dance-single - ----------------
#NOTES:
     dance-single:
     :
     Beginner:
     1:
     0.203,0.378,0.178,0.000,0.000:
0000
0000
0000
0000
,
0000
0000
0000
0000
,
0000
0000
0000
0000
,
1000
0000
0000
0000
,
0100
0000
0000
0000
,
0001
0000
0000
0000
,
0001
0000
0000
0000
,
0001
0000
0001
0000
,
1000
0000
0000
0000
,
1000
1000
1000
0000
,
0001
0000
0000
0000
,
0001
0000
0001
0000
,
1000
0000
0000
0000
,
1001
0000
1001
0000
,
0001
0000
0001
0000
,
0001
0000
0001
0000
,
1000
0000
1000
0000
,
1000
0000
1000
0000
,
0001
0000
0001
0000
,
0001
0000
0001
0000
,
1000
0000
1000
0000
,
1001
0000
1001
0000
,
0010
0000
0010
0000
,
0100
0000
0100
0000
,
0010
0000
0010
0000
,
0100
0000
0100
0000
,
1001
0000
0000
0000
,
1001
0000
0000
0000
,
0001
0000
1000
0000
,
0001
0000
1001
0000
,
0001
0000
0000
0000
,
0001
0000
0001
0000
,
1000
0000
0000
0000
,
1000
1000
1000
0000
,
0001
0000
0000
0000
,
0001
0000
0001
0000
,
1000
0000
0000
0000
,
1000
1000
1000
0000
,
0010
0000
0010
0000
,
0100
0000
0100
0000
,
0010
0000
0010
0000
,
0100
0000
0100
0000
,
0010
0010
0010
0000
,
0100
0100
0100
0000
,
0110
0110
0110
0000
,
1001
0000
1001
0000
,
0001
0000
0001
0000
,
0010
0000
0000
0000
,
1000
1000
1000
0000
,
0100
0000
0100
0000
,
0001
0000
0001
0000
,
0100
0000
0000
0000
,
1000
1000
1000
0000
,
0010
0000
1001
0000
,
1000
0000
0001
0000
,
1000
0000
0000
0000
,
0001
0001
0001
0000
,
0010
0000
1001
0000
,
1000
0000
0001
0000
,
1000
0000
0000
0000
,
0100
0100
0100
0000
,
0010
0000
1001
1001
,
0000
0000
0000
0000
;

//---------------dance-single - ----------------
#NOTES:
     dance-single:
     :
     Easy:
     3:
     0.240,0.309,0.133,0.011,0.000:
0000
0000
0000
0000
,
0000
0000
0000
0000
,
0000
0000
0000
0000
,
1000
0000
0001
0000
,
1000
0000
0100
0100
,
0000
0000
1001
1001
,
0001
0000
1000
0000
,
0010
0000
0100
0000
,
0001
0001
0001
0000
,
1000
1000
1000
0000
,
0001
0000
1000
0000
,
0010
0000
0100
0000
,
0001
1000
0001
0000
,
0010
0100
0010
0000
,
0001
0000
1000
0000
,
1001
0000
0000
0000
,
0010
0000
0100
0000
,
1001
0000
0000
0000
,
1000
0000
0001
0000
,
1001
0000
0000
0000
,
0100
0000
0010
0000
,
1001
0000
0001
0001
,
0010
0000
0100
0000
,
0110
0000
0000
0000
,
0001
0000
1000
0000
,
0110
0000
0000
0000
,
2010
0000
0000
0000
0001
0000
0000
3100
,
0000
0000
0001
0000
,
1000
0000
0001
0000
,
1001
0000
0001
0001
,
0010
0000
1000
0000
,
0001
0000
1000
1000
,
0010
0000
0100
0000
,
0001
0000
1000
1000
,
0100
0000
1000
0000
,
0001
0000
1000
1000
,
0100
0000
0001
0000
,
1000
0000
1000
1000
,
0001
0000
1000
0000
,
0100
0000
1000
1000
,
0001
0000
0010
0000
,
0100
0000
1000
1000
,
0010
0000
1000
0000
,
0100
0000
1000
1000
,
0010
0000
0001
0000
,
0100
0000
1000
1000
,
0001
0000
1000
0000
,
0010
0000
0100
0000
,
0001
0001
0001
0000
,
1000
1000
1000
0000
,
0001
0000
1000
0000
,
0010
0000
0100
0000
,
0001
1000
0100
0000
,
1000
0001
0100
1001
,
0010
0000
1000
0000
,
0001
0000
0100
0000
,
0010
0010
0010
0000
,
0100
0100
0100
0000
,
1000
0000
0001
0000
,
0010
0000
0100
0000
,
0010
0100
0001
0000
,
0100
0010
1000
1001
,
0000
0000
0000
0000
;

//---------------dance-single - ----------------
#NOTES:
     dance-single:
     :
     Medium:
     5:
     0.432,0.446,0.400,0.044,0.000:
0000
0000
0000
0000
,
0000
0000
0000
0000
,
0000
0000
0000
0000
,
1000
1000
0100
0000
,
0001
0001
0100
0100
,
0010
0010
1001
1001
,
0001
0001
1000
1000
,
0010
0010
0100
0100
,
0001
0101
1000
1100
,
0001
1000
0100
0000
1000
0001
0100
0000
,
0010
0010
0100
0100
,
0001
0001
1000
1000
,
0010
1010
0100
0101
,
0010
0001
0100
0000
0010
1000
0100
0000
,
0001
0000
1000
0000
0010
0000
0000
0200
,
0000
0000
0001
0301
,
1000
0000
0001
0000
0100
0000
0000
0020
,
0000
0000
1000
1030
,
0100
0000
0010
0000
1000
0000
0000
0002
,
0000
0000
1000
1003
,
0010
0000
0100
0000
0001
0000
0000
1000
,
0000
0000
0001
0010
0100
0000
0001
0000
,
1000
0000
0001
0000
0100
0000
0000
0010
,
0000
1000
0001
0000
0010
0000
0100
0000
,
0010
0000
0100
0000
0001
0000
0000
1000
,
0000
0100
1000
0000
0100
0000
0010
0000
,
2001
0000
0000
0000
0100
0000
0000
3001
,
0000
0000
0010
1000
0100
0000
0001
0000
,
1001
0000
1001
0000
0010
0100
0000
0010
,
0000
0000
1001
1001
,
0010
0100
0001
0000
0100
0000
0000
0010
,
0000
0000
1100
0011
,
0010
0100
0001
0000
0010
0000
0000
0100
,
0000
0000
0011
1010
,
0001
1000
0010
0000
0001
0000
0000
1000
,
0000
0000
0101
1100
,
1000
0001
0100
0000
1000
0000
0000
0001
,
0000
0000
1010
0011
,
1000
0010
0100
0000
0100
0000
0010
0010
,
0000
0000
0101
1010
,
0001
0100
0010
0000
0010
0000
0100
0100
,
0000
0000
1100
0011
,
0100
0010
0100
0000
1000
0000
0100
0100
,
0000
0000
0011
1100
,
0010
0100
0010
0000
0001
0000
0010
0010
,
0000
0000
1010
0101
,
0001
0001
1000
1000
,
0010
0010
0100
0100
,
0001
0101
1000
1100
,
0001
1000
0100
0000
1000
0001
0100
0000
,
0010
0010
0100
0100
,
0001
0001
1000
1000
,
0010
1010
0100
0101
,
0010
0000
0100
0000
0000
0010
1001
0000
,
1000
1000
0001
0001
,
0010
0010
0100
0100
,
1000
1100
0001
0101
,
1000
0001
0100
0000
0001
1000
0100
0000
,
0010
0010
0100
0100
,
1000
1000
0001
0001
,
0010
0011
0100
1100
,
0010
0000
0100
0000
0010
0100
0010
0000
,
0000
0000
0000
0000
;

//---------------dance-single - ----------------
#NOTES:
     dance-single:
     :
     Hard:
     7:
     0.580,0.618,0.400,0.200,0.000:
0000
0000
0000
0000
,
0000
0000
0000
0000
,
0000
0000
0000
0000
,
1000
0001
0010
0000
0100
0000
0000
1000
,
0000
0000
0001
0001
,
0020
0000
1000
0130
,
0010
0001
0010
0000
0010
1000
0010
0000
,
0100
0001
0100
0000
0100
1000
0100
0000
,
2001
3100
1002
0103
,
0001
1000
1001
0000
1000
0001
1001
0000
,
0010
0001
0010
0000
0010
1000
0010
0000
,
0100
0001
0100
0000
0100
1000
0100
0000
,
1002
0103
2001
3100
,
0010
0100
1000
0100
0010
1000
0101
0000
,
0001
0000
1000
0000
0010
0100
0000
0010
,
0000
0010
0100
0001
0100
0010
0100
0000
,
1000
0000
0001
0000
0100
0010
0000
0100
,
0000
0100
0010
1000
0010
0100
0010
0000
,
0100
0000
0010
0000
1000
0001
0000
1000
,
0000
1000
0001
0010
0001
1000
0001
0000
,
0010
0000
0100
0000
0001
1000
0000
0001
,
0000
1000
0001
0010
0100
1000
0001
0000
,
0110
0000
0101
0000
0100
0010
0000
0100
,
0000
1000
0001
0100
0010
1000
0001
0000
,
0110
0000
1100
0000
0001
1000
0000
0001
,
0000
0100
1000
0001
0100
0010
0100
0000
,
0210
0000
0000
0000
1000
0000
0000
0301
,
0000
1000
0010
0001
0001
0010
1000
0000
,
1001
0000
1001
0000
0010
0100
0000
0010
,
0000
0000
0110
1001
,
0010
0100
0001
1000
0200
0000
0000
0310
,
0000
0000
0010
0000
0001
0010
1000
0000
,
0010
0100
0001
1000
0020
0000
0000
0130
,
0000
0010
1000
0001
1000
0000
0100
0000
,
0001
1000
0010
0100
0002
0000
0000
1003
,
0000
0000
0101
1100
,
1000
0001
0100
0010
2000
0000
0000
3001
,
0000
0010
0100
0010
1000
0000
0101
0000
,
1000
0010
0100
0001
0100
0000
0010
0010
,
0000
0000
0110
0000
1000
0100
0001
0000
,
0001
0100
0010
1000
0010
0000
0100
0100
,
0000
0010
1000
0100
0001
0000
0100
0000
,
0100
0010
0100
0001
1000
0000
0100
0100
,
0000
0000
0011
1100
,
0010
0100
0010
1000
0001
0000
0010
0010
,
0000
0010
1000
0100
1000
0000
1001
0000
,
0001
1000
0001
0000
1000
0001
1000
0000
,
0010
0100
0010
0000
0100
0010
0100
0000
,
1002
0103
2001
3100
,
0001
1000
0100
0000
1000
0001
0100
0000
,
0010
1000
0010
0000
0100
0001
0100
0000
,
0001
0010
0001
0000
1000
0100
1000
0000
,
0120
1030
0210
0301
,
0010
0100
0001
0100
0010
0001
1000
0000
,
0010
0100
1000
0000
1000
0100
0010
0000
,
0100
0010
0001
0000
0001
0010
0100
0000
,
2010
3100
0102
0013
,
1000
0001
0100
0000
0001
1000
0100
0000
,
1000
0001
0101
0000
0001
1000
1100
0000
,
1000
0100
1100
0000
0001
0100
0101
0000
,
0021
0130
1200
0301
,
0010
0100
1000
0100
0010
1000
1001
0000
,
0000
0000
0000
0000
;

//---------------dance-double - ----------------
#NOTES:
     dance-double:
     :
     Easy:
     3:
     0.259,0.275,0.122,0.167,0.000:
00000000
00000000
00000000
00000000
,
00000000
00000000
00000000
00000000
,
00000000
00000000
00000000
00000000
,
00011000
00000000
00000010
00000000
,
00000000
00000000
00000001
00000100
,
00000000
00000000
00000000
00000000
,
00001000
00010000
00000100
00000000
,
00001000
00000001
00000100
00000000
,
00000010
00000000
00010000
00000000
,
00001000
00010000
00001000
00000000
,
01000000
00100000
10000000
00000000
,
00010000
10000000
01000000
00000000
,
00100000
00000000
00001000
00000000
,
00010000
00000000
00000110
00000000
,
00000010
00000001
00000000
00000000
,
00021000
00000000
00031000
00000000
,
00100000
10000000
00000000
00000000
,
00012000
00000000
00013000
00000000
,
00001000
00000010
00000000
00000000
,
00000001
00000000
00000001
00000100
,
00001000
00010000
00000000
00000000
,
00001000
00000010
00000001
00000010
,
00001000
00010000
00000000
00000000
,
00012000
00000000
00010000
00013000
,
00100000
00010000
00000000
00000000
,
00021000
00000000
00001000
00031000
,
00000010
00000000
00001000
00000000
,
00000100
00000000
00000001
00000100
,
00010000
00010000
00100000
00000000
,
10010000
00000000
00000000
00000000
,
00010000
00001000
00000010
00000000
,
00001001
00000000
00000000
00000000
,
00001000
00010000
00100000
00000000
,
10010000
00000000
00000000
00000000
,
01000000
00010000
00001000
00000000
,
00000110
00000000
00000000
00000000
,
00000010
00001000
00010000
00000000
,
01100000
00000000
00000000
00000000
,
10000000
00010000
00001000
00010000
,
01000000
00000000
00000000
00000000
,
00001000
00000010
00000001
00000100
,
00001000
00000000
00000000
00000000
,
00010000
00000000
00200000
00000000
,
00000000
00300000
10000000
10000000
,
00010000
00000000
00002000
00000000
,
00000000
00003000
00000100
00000100
,
00001000
00000000
00000100
00000000
,
00000001
00000000
00000100
00000000
,
00000020
00000000
00000032
00000000
,
00000103
00001000
00010000
00000000
,
00001000
00000000
00010000
00000000
,
01000000
00000000
10000000
00000000
,
00200000
00000000
20300000
00000000
,
31000000
00000000
00010000
00001000
,
00010000
00000100
00000010
00000000
,
00000001
00000010
00000100
00000000
,
00020000
00000000
00230000
00000000
,
00310000
00010000
00001000
00000000
,
00010000
00001000
01000000
00000000
,
00100000
10000000
01000000
00000000
,
00200000
00000000
00302000
00000000
,
00023000
00000000
00031000
00001000
,
00000000
00000000
00000000
00000000
;

//---------------dance-double - ----------------
#NOTES:
     dance-double:
     :
     Medium:
     6:
     0.548,0.583,0.889,0.422,0.000:
00000000
00000000
00000000
00000000
,
00000000
00000000
00000000
00000000
,
00000000
00000000
00000000
00000000
,
00100000
10000000
00010000
00000000
00011000
00000000
00000000
00001100
,
00000000
00001000
00001010
00022000
,
00000000
00000000
00000000
00033000
,
01000000
01010000
00001000
00011000
,
00001000
00000110
00002000
00003000
,
00002002
00003003
00000220
00000330
,
00000010
00001010
00010000
00011000
,
01000000
01010000
00100000
00110000
,
00001000
00011000
00000020
00000030
,
00000220
00000330
00002002
00003003
,
00000010
00000110
00001000
00010000
,
00100000
00000000
00010000
00000000
00100000
00010000
00000000
00011000
,
00000000
00000010
00001000
00000100
,
00000011
00000000
00001100
00000000
00000010
00001000
00000000
00011000
,
00000000
00100000
00010000
01000000
,
01001000
00000000
00011000
00000000
00000010
00000100
00000000
00001001
,
00000000
00000010
00001000
00000010
,
00001100
00000000
00000101
00000000
00000001
00001000
00000000
00011000
,
00000000
00001000
00100000
00010000
,
10100000
00000000
01010000
00000000
00100000
00010000
00000000
00011000
,
00000000
00000000
00000010
00000000
00001000
00000001
00000100
00000000
,
00000011
00000000
00001001
00000000
00000010
00001000
00000000
00011000
,
00000000
00000000
01000000
00000000
00010000
10000000
01000000
00000000
,
00220000
00330000
00202000
00303000
,
00022000
00000000
00033000
00000000
00001000
00000100
00000001
00000000
,
00001001
00000000
00001100
00000000
00010000
00001000
00000000
00011000
,
00000000
00110000
10000000
01010000
,
01000000
00001000
00010000
00000000
00000010
00000000
00000000
00000100
,
00000000
00000000
00000110
00000000
00000001
00001000
00000100
00000000
,
00010000
00001000
00010000
00000000
00100000
00000000
00000000
00001000
,
00000000
00010000
00001000
00000000
00000010
00000000
00001001
00000000
,
00000100
00010000
00001000
00000000
00100000
00000000
00000000
01000000
,
00000000
00000000
10010000
01100000
,
00001000
00010000
00001000
00000000
00000010
00000000
00000000
00010000
,
00000000
00001000
00001000
00010000
00100000
00000000
10010000
00000000
,
01000000
00001000
00010000
00000000
00000010
00000000
00001000
00000100
,
00000000
00000000
00000110
00000000
00000001
00001000
00000100
00000000
,
00010000
00001000
00010000
00000000
00100000
00000000
01000000
00001000
,
00000000
00010000
00001000
00000000
00000010
00000000
00001001
00000000
,
00000100
00010000
00001000
00000000
00100000
00000000
00010000
01000000
,
00000000
00000000
10010000
01100000
,
00001000
00010000
00001000
00000000
00000010
00000000
00000100
00001000
,
00000000
00000000
00001000
00010000
00100000
00000000
10010000
00000000
,
01000000
01010000
00100000
00110000
,
00001000
00000110
00002002
00003003
,
00000220
00000330
00002002
00003003
,
00000100
00001010
00010000
00011000
,
01000000
01010000
00100000
00110000
,
00001000
00011000
00000220
00000330
,
00002002
00003003
00000220
00000330
,
00001010
00000000
00010010
00000000
00001000
00100000
01000000
00000000
,
01000000
01010000
00001000
01001000
,
00010000
00000110
00001000
00000100
,
00002002
00003003
00000220
00000330
,
00000010
00001010
00000100
00011000
,
01000000
01010000
00100000
00110000
,
00001000
00001010
00000010
00000100
,
00002002
00003003
00000220
00000330
,
00001000
00000000
00101000
00000000
00010000
10000000
00010000
00000000
,
00000000
00000000
00000000
00000000
;

//---------------dance-double - ----------------
#NOTES:
     dance-double:
     :
     Hard:
     8:
     0.642,0.618,0.267,0.189,0.000:
00000000
00000000
00000000
00000000
,
00000000
00000000
00000000
00000000
,
00000000
00000000
00000000
00000000
,
00000001
00001000
00000100
00001000
00000010
00000000
00010000
00001000
,
00000000
00010000
00001000
01000000
00100000
00000000
00011000
00000000
,
00000000
00000000
00000000
00000000
,
00110000
10000000
01000000
00100000
00001000
00010000
00001000
00000000
,
00100000
00001000
00010000
00000000
00000010
00010000
00001000
00000000
,
00200000
00010000
00310000
00000000
00002000
00000100
00003100
00000000
,
00020000
00000100
00030100
00000000
00002000
00000001
00003001
00000000
,
00001010
00000001
00000100
00000010
00010000
00001000
00010000
00000000
,
00000010
00010000
00001000
00000000
00100000
00001000
00010000
00000000
,
00000020
00001000
00001030
00000000
00020000
00100000
00130000
00000000
,
00002000
01000000
01003000
00000000
00010000
10000000
01000000
00000000
,
10100000
00010000
01000000
00001000
00010000
01000000
00000000
01100000
,
00000000
00010000
01000000
00001000
00010000
00000010
00000100
00000000
,
00000011
00001000
00000100
00010000
00001000
00000100
00000000
00000110
,
00000000
00001000
00000100
00010000
00100000
10000000
01000000
00000000
,
01100000
00010000
01000000
00001000
00010000
00000010
00000000
00001001
,
00000000
00000001
00000100
00001000
00010000
00001000
00000100
00000000
,
00000010
00000100
00000001
00000100
00001000
00010000
00000000
00011000
,
00000000
00001000
00010000
01000000
10000000
00100000
10000000
01000000
,
00100000
00010000
01010000
00000000
10000000
01000000
00000000
00011000
,
00000000
00001000
00010000
00000100
00000010
00000001
00000100
00000000
,
00000010
00001000
00001100
00000000
00000001
00000100
00000000
00011000
,
00000000
00010000
00001000
01000000
00100000
10000000
01000000
00000000
,
00220000
00000000
00330000
00000000
00002020
00000000
00003030
00011000
,
00000000
00010000
00100000
10000000
00100000
00010000
00001000
00000000
,
00000010
00000001
00000100
00000010
00001000
00000100
00000000
00011000
,
00000000
00100000
00100000
02000000
00100000
00000000
13000000
00000000
,
01000000
00010000
00001000
00010000
00100000
00000000
00010000
00001000
,
00000000
00000000
00110000
00000000
00001000
00010000
01000000
00000000
,
00010000
00001000
00010000
00100000
10000000
00000000
01000000
00010000
,
00000000
00001000
00001000
00020000
00100000
00000000
00031000
00000000
,
00000100
00001000
00010000
00001000
00000010
00000000
00001000
00010000
,
00000000
00000000
00000012
00000103
,
00001000
00010000
00001000
00000010
00000001
00000000
00001000
00000100
,
00000000
00010000
00001000
00010000
00000020
00000000
00001030
00000000
,
00010000
00001000
00010000
00100000
10000000
00000000
01000000
00010000
,
00000000
00000000
00001010
00000000
00010000
00001000
00000100
00000000
,
00001000
00010000
00001000
00000010
00000001
00000000
00000100
00001000
,
00000000
00010000
00010000
00002000
00000010
00000000
00013000
00000000
,
01000000
00010000
00001000
00010000
00100000
00000000
00010000
00001000
,
00000000
00000000
20100000
31000000
,
00010000
00001000
00010000
00100000
10000000
00000000
00010000
01000000
,
00000000
00001000
00010000
00001000
00100000
00000000
00010000
00100000
,
00001000
01000000
00010000
10000000
00010000
00100000
00001000
00010000
,
00000010
00001000
00000001
00001000
00000100
00010000
00001000
00010000
,
00100000
00100000
00100000
00000000
10000000
10000000
10000000
00000000
,
01000000
01000000
01000000
00010000
00001000
00001000
00001000
00000000
,
00010000
00000100
00001000
00000001
00001000
00000010
00010000
00001000
,
00100000
00010000
10000000
00010000
01000000
00001000
00010000
00001000
,
00000010
00000010
00000010
00000000
00000001
00000001
00000001
00000000
,
00000100
00000100
00000100
00000000
00001000
00010000
00011000
00000000
,
00010000
00000100
00001000
00000001
00001000
00000010
00010000
00001000
,
00100000
00010000
10000000
00010000
01000000
00001000
00010000
00001000
,
00000010
00000010
00000010
00000000
00000001
00000001
00000001
00000000
,
00000100
00000100
00000100
00001000
00010000
00010000
00010000
00000000
,
00001000
01000000
00010000
10000000
00010000
00100000
00001000
00010000
,
00000010
00001000
00000001
00001000
00000100
00010000
00001000
00010000
,
00100000
00100000
00100000
00000000
10000000
10000000
10000000
00000000
,
01000000
01000000
01000000
00000000
00010000
00001000
00011000
00000000
,
00000000
00000000
00000000
00000000
;
