#TITLE:LITTLE BOY(BOY ON BOY MIX);
#SUBTITLE:;
#ARTIST:CAPTAIN JACK;
#TITLETRANSLIT:;
#SUBTITLETRANSLIT:;
#ARTISTTRANSLIT:;
#CREDIT:;
#BANNER:LITTLE BOY(BOY ON BOY MIX).png;
#BACKGROUND:LITTLE BOY(BOY ON BOY MIX)-bg.png;
#LYRICSPATH:;
#CDTITLE:./CDTITLES/CAPTAIN JACK CAPTAIN'S BEST.PNG;
#MUSIC:LITTLE BOY(BOY ON BOY MIX).ogg;
#OFFSET:0.000;
#SAMPLESTART:54.420;
#SAMPLELENGTH:15.000;
#SELECTABLE:YES;
#DISPLAYBPM:150.000;
#BPMS:0.000=149.177,4.000=149.926;
#STOPS:;
#BGCHANGES:;

//---------------dance-single - ----------------
#NOTES:
     dance-single:
     :
     Beginner:
     1:
     0.140,0.207,0.092,0.000,0.000:
0000
0000
0000
0000
,
0000
0000
0000
0000
,
0000
0000
0000
0000
,
1001
0000
0000
0000
,
1001
0000
0000
0000
,
0010
0000
0010
0000
,
1001
0000
0000
0000
,
1001
0000
0000
0000
,
1001
0000
0000
0000
,
0100
0000
0100
0000
,
1000
0000
0000
0000
,
0001
0000
0000
0000
,
1000
0000
0000
0000
,
0100
0000
0000
0000
,
1000
0000
0000
0000
,
0001
0000
0000
0000
,
1000
0000
0000
0000
,
0100
0000
0000
0000
,
0010
0010
0010
0000
,
1000
1000
1000
0000
,
0001
0001
0001
0000
,
0100
0100
0100
0000
,
0010
0010
0010
0000
,
1000
1000
1000
0000
,
0001
0001
0001
0000
,
0100
0100
0100
0000
,
0010
0000
0010
0000
,
1001
0000
1001
0000
,
1000
0000
1000
0000
,
1001
0000
1001
0000
,
0010
0000
0000
0000
,
0010
0000
0000
0000
,
0100
0000
0000
0000
,
0100
0000
0100
0000
,
1000
0000
0000
0000
,
0001
0000
0000
0000
,
1000
0000
0000
0000
,
0010
0000
0100
0000
,
1000
0000
0000
0000
,
0001
0000
0000
0000
,
1000
0000
0000
0000
,
0010
0000
0100
0000
,
0001
0000
0100
0000
,
1000
0000
0010
0000
,
0001
0000
0100
0000
,
1000
0000
0010
0000
,
0001
0000
0100
0000
,
1000
0000
0010
0000
,
0001
0000
0100
0000
,
1000
0000
0010
0000
,
0001
0000
0000
0000
,
0001
0000
0000
0000
,
1000
0000
0000
0000
,
1000
0000
0000
0000
,
0010
0000
0000
0000
,
0000
0000
0000
0000
,
0100
0000
0000
0000
,
0000
0000
0000
0000
,
0100
0000
0000
0000
,
0000
0000
0000
0000
;

//---------------dance-single - ----------------
#NOTES:
     dance-single:
     :
     Easy:
     3:
     0.200,0.295,0.041,0.194,0.000:
0000
0000
0000
0000
,
0000
0000
0000
0000
,
0000
0000
0000
0000
,
0100
0000
0000
0000
,
1000
0000
0000
0000
,
0001
0000
0000
0000
,
0010
0000
0010
0000
,
0100
0000
0100
0000
,
0001
0000
0001
0000
,
1000
0000
1000
0000
,
0200
0000
0000
0300
,
0002
0000
0000
0003
,
2000
0000
0000
3000
,
0020
0000
0000
0030
,
0100
0000
0100
0000
,
0010
0000
0010
0000
,
1000
0000
1000
0000
,
0001
1000
0001
1000
,
0000
0010
0010
0010
,
0000
1000
1000
1000
,
0000
0001
0001
0001
,
0000
0100
0100
0100
,
0000
0010
1000
0100
,
0000
0010
0001
0100
,
0000
0001
0000
1000
,
0000
0001
1000
0001
,
0010
0010
1000
0000
,
0010
0010
0001
0000
,
1000
0000
1000
0000
,
0001
0001
0001
1000
,
0000
0010
0000
0010
,
0000
0100
0000
0100
,
0000
0001
0000
1000
,
0001
0001
1000
1001
,
2000
0000
0000
3000
,
0200
0000
0000
0300
,
0020
0000
0000
0030
,
0002
0000
0000
0003
,
1000
0000
1000
0000
,
0001
0000
0001
0000
,
0010
0000
1000
0000
,
0010
0001
1000
0100
,
0002
0003
0200
0300
,
0020
0030
2000
3000
,
0220
0000
0000
0330
,
2002
0000
0000
3003
,
0000
0001
0001
0001
,
0000
1000
1000
1000
,
0000
0010
0010
0010
,
0100
0100
0100
0100
,
1002
0000
0000
0000
,
2003
0000
0000
0000
,
3002
0000
0000
0000
,
0103
0000
0000
0000
,
0010
0000
0000
0000
,
0001
0000
0000
0000
,
1000
0000
0000
0000
,
0001
0100
0010
1000
,
0000
0000
0000
0000
;

//---------------dance-single - ----------------
#NOTES:
     dance-single:
     :
     Medium:
     6:
     0.371,0.475,0.184,0.204,0.000:
0000
0000
0000
0000
,
0000
0000
0000
0000
,
0000
0000
0000
0000
,
1001
0000
0000
0010
0000
0000
0010
0000
,
1001
0000
0000
0010
0000
0000
0010
0000
,
0001
1000
0100
0010
,
1001
0000
0000
0100
0000
0000
0100
0000
,
1001
0000
0000
0100
0000
0000
0100
0000
,
1001
0000
0000
0100
0000
0000
0100
0000
,
0001
1000
0010
0100
,
0020
0000
0000
0000
0000
1030
0000
1000
,
0000
0001
0000
1000
0000
0100
0000
0020
,
0000
0000
0000
0000
0030
0000
0020
0100
,
0000
0001
0000
1000
0000
0100
0130
0000
,
2000
0001
0001
3001
,
0020
0100
0100
0130
,
0200
0010
0010
0310
,
1000
0001
0100
1000
,
0010
1000
0000
0100
0010
0001
0000
1000
,
0001
1000
0000
0010
0000
0100
0000
1000
,
0100
1000
0000
0001
0100
0001
0000
1000
,
0001
1000
0000
0010
0000
0100
0000
1000
,
0010
1000
0000
0100
0010
0001
0000
1000
,
0001
1000
0000
0010
0000
0100
0000
1000
,
0100
1000
0000
0001
0100
0001
0000
1000
,
0001
1000
0000
0010
0000
0100
0000
0000
,
1000
0100
0001
0000
0001
0100
1000
0000
,
0010
1000
0100
0000
0100
1000
0010
0000
,
1000
0001
0100
0000
0100
0001
1000
0000
,
1000
0100
0010
0000
0010
0100
1000
0000
,
0001
1000
0100
0010
0001
0000
0100
0000
,
1000
0001
0100
0010
1000
0000
0100
0000
,
1100
0101
0011
1010
,
0010
1000
0001
0100
0010
0000
1001
0000
,
1000
0000
0000
1000
0000
0100
0000
0000
,
0001
0000
0000
0001
0000
0100
0000
0000
,
0010
0000
0000
0010
0000
0100
0000
0000
,
0011
1010
0101
1100
,
0001
0000
0000
0001
0000
0100
0000
0000
,
1000
0000
0000
1000
0000
0100
0000
0000
,
0010
0000
0000
0010
0000
0100
0100
0000
,
1001
0000
0110
0000
1000
0100
0001
0000
,
2001
0000
0000
0000
0000
0100
0100
0100
,
0000
0001
0000
0100
0000
3001
0000
1002
,
0000
0000
0000
0000
0000
0100
0100
0100
,
0000
1000
0000
0100
0000
1003
1000
0000
,
0020
0000
0000
0000
0000
0130
0100
0100
,
0000
0001
0000
1000
0000
0001
0000
1000
,
0002
0000
0000
0000
0000
0103
0100
0100
,
0000
1000
0000
0100
0000
0001
0000
0100
,
0000
0001
2000
0000
0000
0000
0000
0000
,
0000
3100
0020
0000
0000
0000
0000
0000
,
0000
0031
2000
0000
0000
0000
0000
0000
,
0000
3010
0200
0000
0000
0000
0000
0000
,
0000
0302
0020
0000
0000
0000
0000
0000
,
0033
0100
2000
0000
0000
0000
0000
0000
,
3000
0002
0200
0000
0000
0000
0000
0000
,
0303
0100
0020
0000
0000
0000
0000
0000
,
0000
0030
0000
0000
0000
0000
0000
0000
,
0000
0000
0000
0000
;

//---------------dance-single - ----------------
#NOTES:
     dance-single:
     :
     Hard:
     8:
     0.603,0.562,0.644,0.286,0.000:
0000
0000
0000
0000
,
0000
0000
0000
0000
,
0000
0000
0000
0000
,
1001
0000
0100
1001
0000
0010
0001
1000
,
0110
0000
0100
1000
0000
1000
1000
0000
,
0010
0100
1010
0101
,
0110
0000
0000
1001
0000
0100
0010
0100
,
1001
0000
0100
1001
0000
0010
1000
0001
,
0110
0000
0100
0001
0000
0001
0001
0000
,
0010
0100
0010
0000
0011
0000
1100
0000
,
0010
1000
1010
0000
0010
0001
0011
0000
,
1000
0100
0011
0000
0001
0100
1100
0000
,
0010
0100
0011
0000
0100
0010
1100
0000
,
1000
0001
0110
0000
0001
1000
0110
0000
,
0010
0001
1100
0000
0010
1000
0101
0000
,
1000
0101
0001
0000
0001
1100
1000
0000
,
0010
0100
1001
0000
0100
0010
1001
0000
,
0001
0100
1000
1000
0100
0010
1001
0000
,
1000
0010
0100
0010
0100
0001
1000
1000
,
0001
1000
0010
0100
0001
0001
0000
1000
,
0010
0100
0010
0100
0001
1000
0001
1000
,
0100
0010
0001
0100
0010
1000
0100
0010
,
0001
1000
0010
0100
0001
1000
0100
0010
,
0001
0100
0010
1000
0001
1000
0001
1000
,
0010
0100
0001
0100
0010
1000
0010
0100
,
0001
0100
1000
0100
0001
0000
1001
0000
,
1002
1000
0100
0103
,
2001
0010
0100
3100
,
0012
0000
0100
0000
0100
0100
0103
0000
,
0010
0001
1000
0100
0102
0000
0103
0000
,
0010
0010
1000
0001
0100
1100
0010
1000
,
0100
0010
0001
1000
0002
0100
0103
0000
,
0011
0001
1000
0100
0101
0100
1000
0000
,
1000
1000
1000
1000
,
0010
0001
0100
1001
0000
1010
0100
0000
,
0100
0001
1000
0110
0000
1001
0001
0000
,
0010
0100
0010
1100
0000
0101
0001
0000
,
0010
1000
0001
1000
0100
0010
0100
0000
,
1000
0100
0010
0011
0000
1001
0100
0000
,
0001
0010
0100
1100
0000
1001
0010
0000
,
0100
1000
0001
0110
0000
1100
0100
0000
,
1000
0100
1000
0100
0010
0001
1100
0000
,
1000
2002
0000
3003
0100
0010
1000
0001
,
0100
2002
0000
3003
0100
0001
0010
0001
,
0100
0220
0000
0330
0001
1000
0100
0010
,
0001
0220
0000
0330
0100
1000
0100
0010
,
0001
2002
0000
3003
0001
0100
0010
1000
,
0001
0220
0000
0330
0001
0100
0010
1000
,
0100
0220
0000
0330
0001
0010
0001
0100
,
0010
2002
0000
3003
0100
0010
0100
0000
,
2002
0000
0000
0000
0003
0001
0001
0001
,
0000
0100
0000
0010
0000
3100
0000
2002
,
0000
0000
0000
0000
3000
1000
1000
1000
,
0000
0100
0000
0010
0000
0100
0103
0000
,
2020
0000
0000
0000
3030
0100
0001
1100
,
0000
0011
0000
0110
0000
1001
0000
0100
,
0200
0000
0000
0000
0300
0100
1000
0010
,
0000
1000
0100
0001
0100
1000
0010
0100
,
0000
0000
0000
0000
;

//---------------dance-double - ----------------
#NOTES:
     dance-double:
     :
     Easy:
     3:
     0.191,0.207,0.041,0.215,0.000:
00000000
00000000
00000000
00000000
,
00000000
00000000
00000000
00000000
,
00000000
00000000
00000000
00000000
,
00010000
00000000
00100000
00000000
,
10000000
00000000
01000000
00000000
,
00010000
00000000
00001000
00000000
,
00000010
00000000
00000010
00000000
,
00001000
00000000
00000001
00000000
,
00000100
00000000
00001000
00000000
,
00100000
00000000
10000000
00000000
,
20020000
00000000
00000000
30030000
,
02000000
00000000
00000000
03000000
,
00020000
00000000
00000000
00030000
,
00002000
00000000
00000000
00003000
,
00000200
00000000
00000000
00000300
,
00000002
00000000
00000000
00000003
,
00002000
00000000
00000000
00003000
,
00020000
00000000
00000000
00030000
,
01000000
00100000
10000000
00000000
,
00010000
00001000
00010000
00001000
,
00000000
00000010
00000000
00001000
,
00000000
00000010
00000001
00000100
,
00001000
00010000
00001000
00010000
,
00000000
00010000
00000000
01000000
,
00000000
01000000
00000000
00000000
,
01000000
01000000
01000000
00000000
,
00100000
00000000
01000000
00010000
,
00000000
00000010
00000000
00001000
,
00000000
00000001
00000000
00001000
,
00000010
00000000
00000010
00001001
,
00000000
00000100
00000000
00001000
,
00000000
00010000
01000000
10000000
,
00000000
00010000
00000000
10000000
,
00100000
00000000
01000000
01000000
,
00100000
00000000
00000000
00000000
,
00010000
00000000
00000000
00000000
,
00001000
00000000
00000000
00000000
,
00000001
00000100
00000001
00001000
,
00000010
00000000
00000000
00000000
,
00001000
00000000
00000000
00000000
,
00010000
00000000
00000000
00000000
,
10000000
00000000
00100000
10010000
,
02000000
00000000
00000000
03010000
,
00020000
00000000
00000000
00031000
,
00002000
00000000
00000000
00003100
,
00000200
00000000
00000000
00000310
,
00000020
00000000
00000000
00000031
,
00000002
00000000
00000000
00001003
,
00002000
00000000
00000000
00013000
,
00020000
00000000
00000000
00030000
,
00010000
00100000
00000000
01000000
,
00000000
00010000
00000000
00001000
,
00000000
00000001
00000000
00001000
,
00000000
00000010
00000000
00000100
,
00000020
00000000
00000000
00000000
,
00002030
00000000
00000000
00000000
,
00023000
00000000
00000000
00000000
,
02000000
00000000
00000000
03030000
,
01010000
00000000
00000000
00000000
,
00000000
00000000
00000000
00000000
;

//---------------dance-double - ----------------
#NOTES:
     dance-double:
     :
     Medium:
     6:
     0.369,0.386,0.174,0.174,0.000:
00000000
00000000
00000000
00000000
,
00000000
00000000
00000000
00000000
,
00000000
00000000
00000000
00000000
,
00001000
00000010
00000100
00000000
,
00001000
00010000
01000000
20000000
,
00100000
01000000
00010000
31000000
,
00100000
01000000
10000000
00000000
,
00010000
00100000
01000000
00000000
,
00010000
00001000
00000100
00000002
,
00000010
00000100
00001000
00000103
,
00000200
00001000
00000000
00000000
00000000
00000000
00000000
00000300
,
00002000
00010000
00000000
00000000
00000000
00000000
00000000
00003000
,
00010000
01000000
00000000
10000000
00000000
01000000
00000000
00100000
,
00000000
00010000
00000000
00001000
00000000
00000100
00000000
00000010
,
00000000
00000010
00000000
00001000
00000000
00000100
00000000
00000001
,
00000000
00001000
00000000
00010000
00000000
01000000
00000000
10000000
,
00000000
00100000
00000000
10000000
00000000
01000000
00000000
00010000
,
00000000
00001000
00000000
00000100
00000000
00000001
00000000
00000000
,
00010000
00000000
01000000
00000000
,
00000000
10000000
00010000
10000000
,
00100000
00000000
00100000
00000000
,
10000000
00100000
00010000
00001000
00000100
00000010
00000001
00000000
,
00001000
00000001
00000100
00001000
,
00010000
01000000
10000000
00000000
00010000
00000000
10000000
00000000
,
00100000
01000000
00010000
00001000
,
00000010
00000100
00000010
00001000
00000001
00000100
00000001
00000000
,
00001001
00000000
00000110
00000000
00000001
00000100
00001000
00000000
,
00010000
00000000
10000000
00000000
00100000
10000000
01000000
00000000
,
00100000
00000000
01000000
00000000
10000000
00010000
01000000
00000000
,
10000000
01000000
00100000
00010000
00001000
00000000
00000100
00000000
,
00000001
00000000
00001000
00000000
00000100
00000100
00000100
00000000
,
00000010
00000000
00000001
00000000
00000100
00001000
00000100
00000000
,
00000010
00000100
00000011
00001100
,
00001000
00000000
00010000
00000000
00100000
00010000
10000000
00000000
,
00100000
00000000
01000000
00000000
00010000
10000000
01000000
00000000
,
00100000
00010000
00001000
00000000
00000100
00000000
00000001
00000000
,
00000010
00000000
00000001
00000000
00001000
00000100
00001000
00000000
,
00011000
00000000
01100000
00000000
10000000
00010000
10000000
00000000
,
00100000
00000000
01000000
00000000
00100000
00000000
10000000
10000000
,
01000000
00000000
00100000
00000000
00010000
00000000
00001000
00001000
,
00000100
00000001
00001000
00000001
,
00001100
00000101
00000110
00001001
,
00000020
00000030
00000002
00000003
,
00002000
00003000
00020000
00030000
,
02000000
00000000
00000000
00000000
00000000
00000000
10000000
10000000
,
13000000
01010000
10100000
00110000
,
00002000
00000000
00000000
00000000
00000000
00000000
00000100
00000100
,
00003100
00000011
00001100
00001010
,
00000202
00000000
00000000
00000303
,
00000010
00001000
00000001
00000000
00000010
00001000
00010000
00000000
,
10000000
01000000
00000000
00010000
00000000
01000000
00000000
10000000
,
01000000
01000000
00000000
00010000
00000000
00001000
00000000
00000100
,
00000001
00000001
00000000
00000100
00000000
00001000
00000000
00010000
,
01000000
01000000
00000000
00100000
00000000
00010000
10000000
01000000
,
00020000
01000000
00000000
00000000
00000000
00000000
00030000
00000000
,
00002000
00000100
00000000
00000000
00000000
00000000
00003000
00000000
,
00000200
00001000
00000000
00000000
00000000
00000000
00000300
00000000
,
00000200
00000002
00000000
00000000
00000000
00000000
00000000
00000000
,
00000000
00000303
00000000
00000000
00000000
00000000
00000000
00000000
,
00000000
00000000
00000000
00000000
;

//---------------dance-double - ----------------
#NOTES:
     dance-double:
     :
     Hard:
     9:
     0.543,0.561,0.695,0.174,0.000:
00000000
00000000
00000000
00000000
,
00000000
00000000
00000000
00000000
,
00000000
00000000
00000000
00000000
,
00011000
00000000
01000000
00010000
00000000
00010000
00001000
00010000
,
00010010
00000000
00000010
00000100
00000000
00000001
00001000
00000100
,
00010100
00000000
00011000
00000000
00000010
00010000
00001000
00000000
,
00011000
00000000
01000000
10000000
00000000
00100000
00010000
00001000
,
00001010
00000000
00000001
00000100
00000000
00001000
00010000
00001000
,
00101000
00000000
00100000
01000000
00000000
10000000
00100000
00010000
,
00011000
00000000
00010100
00000000
00001000
00000010
00000001
00000000
,
00002002
00000000
00000000
00003000
00000000
00000103
00000100
00000100
,
00000000
00001000
00000000
00011000
00000000
01001000
00000000
01200000
,
00000000
00000000
00000000
00000000
00000000
10300000
10000000
10000000
,
00000000
01000000
00000000
00011000
00000000
00010100
00000000
00001000
,
00002000
00000000
00000000
00000000
00000000
00003100
00000100
00000010
,
00000000
00000101
00000000
00000110
00000000
00010010
00000000
00021000
,
00000000
00000000
00000000
00000000
00000000
00130000
00100000
10000000
,
00000000
11000000
00000000
10010000
00000000
11000000
00000000
00100000
,
00010000
00001000
00000010
00000001
00000100
00001000
00000100
00000001
,
00000010
00000001
00000100
00001000
00010000
01000000
10000000
00100000
,
00010000
00001000
00010000
01000000
10000000
00100000
00010000
00001000
,
00000010
00000001
00000100
00001000
00000100
00000001
00000010
00001000
,
00010000
00100000
10000000
01000000
00010000
00001000
00010000
01000000
,
10000000
00100000
01000000
10000000
01000000
00010000
00100000
01000000
,
00010000
00001000
00000100
00000001
00000010
00001000
00000010
00000001
,
00000100
00001000
00010000
01000000
10000000
00100000
00010000
00000000
,
00011000
00000000
00010100
00000000
00000010
00000001
00000100
00000000
,
00001000
00010000
00000100
00000000
00011000
00000000
01001000
00000000
,
00010000
00100000
01000000
00000000
11000000
00000000
10010000
00000000
,
01000000
00010000
00001000
00000100
00000110
00000000
00000101
00000000
,
00001000
00010000
01000000
10000000
01000000
00010000
00001000
00000100
,
00000010
00000001
00000010
00001000
00001100
00001100
00010100
00000000
,
00001000
00000200
00000001
00000000
00001000
00001000
00001300
00000000
,
00010000
00010000
01000000
10000000
00100000
00000000
11000000
00000000
,
00100000
10010000
00000000
01010000
00000000
00001000
00011000
00000000
,
00001000
00001100
00000000
00000101
00000000
00001000
00001100
00000000
,
00010000
00011000
00000000
01001000
00000000
00001000
00010000
01000000
,
10000000
00100000
00010000
00100000
10000000
01000000
00010000
00000000
,
00011000
00000010
00000000
00000110
00000000
00000001
00000011
00000000
,
00001001
00000010
00000000
00010010
00000000
00001000
00011000
00000000
,
00101000
00010000
00000000
10010000
00000000
00100000
01000000
00010000
,
00001000
00000100
00000001
00000010
00000001
00000001
00000001
00000000
,
00001002
00000000
00000000
00000000
00000000
00000100
00000100
00000103
,
00000000
00001000
00000000
00010000
00000000
01000000
00000000
12000000
,
00000000
00000000
00000000
00000000
00000000
00100000
00100000
13000000
,
00000000
01000000
00000000
00010000
00000000
00001000
00000000
00000100
,
00000200
00000000
00000000
00000000
00000000
00000001
00000001
00000301
,
00000000
00000100
00000000
00001000
00000000
00010000
00000000
01200000
,
00000000
00000000
00000000
00000000
00000000
01000000
01000000
01300000
,
00000000
00010000
00000000
00001000
00000000
00000100
00000000
00000001
,
00000020
00000000
00000000
00000000
00000030
00001000
00010000
00001000
,
00000000
00000110
00000000
00010010
00000000
00011000
00000000
02002000
,
00000000
00000000
00000000
03003000
00000000
00100000
10000000
10000000
,
00000000
01100000
00000000
00101000
00000000
00011000
00001000
00000000
,
00020020
00000000
00000000
00030030
00000000
00000100
00001000
00010000
,
00000000
00101000
00000000
00010000
00000000
10010000
00000000
22000000
,
00000000
00000000
00000000
33000000
00000000
01000000
00010000
00001000
,
00000000
00010010
00000000
00011000
00000000
01010000
01010000
00000000
,
00000000
00000000
00000000
00000000
;
