#TITLE:IT'S RAINING MEN (Almighty Mix);
#ARTIST:GERI HALLIWELL;
#BANNER:IT'S RAINING MEN (Almighty Mix).png;
#BACKGROUND:IT'S RAINING MEN (Almighty Mix)-bg.png;
#CDTITLE:./CDTITLES/Dancemania 20.PNG;
#MUSIC:IT'S RAINING MEN (Almighty Mix).ogg;
#SAMPLESTART:46.241;
#SAMPLELENGTH:15;
#DISPLAYBPM:136;
#BPMS:0=136.5,4=136.25,104=136.5,108=136.25,172=135.7;

//---------------dance-single - ----------------
#NOTES:
     dance-single:
     :
     Beginner:
     1:
     :
0000
0000
0000
0000
,
0000
0000
0000
0000
,
0000
0000
0000
0000
,
0000
0000
0000
0000
,
1001
0000
0000
0000
,
0000
0000
0000
0000
,
0110
0000
0000
0000
,
0000
0000
0000
0000
,
1001
0000
0000
0000
,
0000
0000
0000
0000
,
0001
0000
0001
0000
,
0001
0000
0100
0000
,
1000
0000
1000
0000
,
1000
0000
0100
0000
,
0001
0000
0001
0000
,
0001
0000
0100
0000
,
1000
0000
1000
0000
,
1000
0000
0100
0000
,
0010
0000
0000
0000
,
0010
0000
0000
0000
,
0010
0000
0010
0000
,
0010
0000
0000
0000
,
0100
0000
0000
0000
,
0100
0000
0000
0000
,
0100
0000
0100
0000
,
0100
0000
0000
0000
,
1001
0000
0000
0000
,
1000
0000
0001
0000
,
1000
0000
0001
0000
,
0010
0000
0000
0000
,
0010
0000
0000
0000
,
1000
0000
0001
0000
,
1000
0000
0001
0000
,
0010
0000
0000
0000
,
0010
0000
0000
0000
,
1000
0000
0001
0000
,
1000
0000
0001
0000
,
0010
0000
0000
0000
,
0010
0000
0000
0000
,
1000
0000
0001
0000
,
1000
0000
0001
0000
,
0010
0000
0000
0000
,
0010
0000
0000
0000
,
0100
0000
0100
0000
,
0100
0000
0100
0000
,
0100
0000
0100
0000
,
0100
0000
0000
0000
;

//---------------dance-single - ----------------
#NOTES:
     dance-single:
     :
     Easy:
     2:
     :
0000
0000
0000
0000
,
0000
0000
0000
0000
,
0000
0000
0000
0000
,
0000
0000
0000
0000
,
0020
0000
0000
0000
,
0000
0000
0000
0030
,
0002
0000
0000
0000
,
0000
0000
0000
0003
,
2000
0000
0000
0000
,
0000
0000
0000
3000
,
0001
0000
1000
0000
,
0001
0000
1000
0000
,
0010
0000
1000
0000
,
0001
0000
1000
0000
,
0100
0000
1000
0000
,
0001
0000
1000
0000
,
0010
0000
0100
0000
,
0001
0000
1000
0000
,
0020
0000
0000
0030
,
0200
0000
0000
0300
,
0001
1000
0001
1000
,
0100
0000
0000
0000
,
2000
0000
0000
0000
,
0000
0000
0000
3000
,
0002
0000
0000
0000
,
0000
0000
0000
0003
,
1001
0000
0010
0001
,
1000
0000
0001
0000
,
1000
0000
0010
1000
,
0001
0000
1000
0000
,
0001
0000
1000
0100
,
0001
0000
1000
0000
,
0001
0000
0001
0100
,
1000
0000
0001
0000
,
1000
0000
0010
0100
,
0001
0000
1000
0000
,
0001
0000
0010
0100
,
1000
0000
0001
0000
,
1000
0000
0001
1000
,
0100
0000
1000
0000
,
0001
0000
1000
0001
,
0100
0000
0010
0000
,
0100
0000
0020
0000
,
1000
0000
1000
0000
,
1000
0000
1000
0000
,
1000
0000
1030
0000
,
1001
0000
0000
0000
;

//---------------dance-single - ----------------
#NOTES:
     dance-single:
     :
     Medium:
     5:
     :
0000
0000
0000
0000
,
0000
0000
0000
0000
,
0000
0000
0000
0000
,
0000
0000
0000
0000
,
2000
0000
3100
0000
,
0002
0000
0103
0000
,
2000
0001
0010
0001
,
0100
0001
0100
3001
,
0002
1000
0010
1000
,
0100
1000
0100
1003
,
1000
0100
0001
0200
,
0001
0000
0300
0001
0000
0000
0000
0000
,
0001
0100
1000
0200
,
1000
0000
0300
1000
0000
0000
0000
0000
,
0010
0001
0010
2000
,
0001
0000
3000
0001
0000
0000
0000
0000
,
0010
0100
1000
0002
,
1000
0100
1000
0103
,
2002
0000
0000
3003
,
0220
0000
0000
0330
,
1000
0001
0100
0010
,
1000
0000
0000
1001
,
0200
0010
0001
0310
,
0002
1000
0100
1003
,
0020
0100
1000
0130
,
2000
0100
0100
3100
,
1001
0000
0010
0000
0100
0000
0001
1000
,
0000
0000
1001
0000
0000
0010
0000
0010
,
0000
0000
0010
0000
0100
0000
1000
0001
,
0000
0000
1001
0000
0000
0100
0000
0100
,
0000
0000
0001
0000
1000
0000
0010
0100
,
0000
0000
1001
0000
0000
0001
0000
0001
,
0000
0000
1000
0000
0001
0000
0100
0010
,
0000
0000
1001
0000
0000
1000
0000
1000
,
0000
0000
0010
0000
1000
0000
0001
0100
,
0000
0000
0101
0000
0000
0001
0000
0100
,
0000
0000
0010
0000
0001
0000
1000
0100
,
0000
0000
1100
0000
0000
1000
0000
0100
,
0000
0000
0010
0000
0100
0000
0010
0100
,
0000
0000
1001
0000
0000
0010
0000
0100
,
0000
0000
0100
0000
0010
0000
0100
0010
,
0000
0000
1001
0000
0000
0010
0100
0010
,
0000
0200
0000
0310
,
0000
0002
0000
1003
,
0000
2000
0000
3001
,
0000
0020
0000
0230
,
0000
0300
0000
0000
;

//---------------dance-single - ----------------
#NOTES:
     dance-single:
     :
     Hard:
     7:
     :
0000
0000
0000
0000
,
0000
0000
0000
0000
,
0000
0000
0000
0000
,
0000
0000
0000
0000
,
0020
0000
2000
3000
,
0200
0300
2000
3030
,
0001
1000
0000
0001
0100
0000
0001
1000
0000
0001
0100
0000
0010
0000
1000
0000
,
0010
1000
0000
0010
0100
0000
0010
1000
0000
0010
0100
0000
1000
0000
0001
0000
,
1000
0001
0000
1000
0010
0000
1000
0001
0000
1000
0010
0000
0100
0000
0001
0000
,
0100
0001
0000
0100
0010
0000
0100
0001
0000
0100
0010
0000
1000
0000
0001
0000
,
1001
0000
0000
0100
0000
0001
1000
0010
,
0100
0000
0000
0010
0000
1000
0001
0100
,
0010
0000
0000
1000
0000
0010
0100
0001
,
0100
0000
0000
0001
0000
0100
0010
1000
,
0001
0000
0000
0100
0000
0001
0100
0010
,
1000
0000
0000
0100
0000
1000
0010
0100
,
0001
0000
0000
1000
0000
0010
1000
0100
,
1000
0000
0000
0001
0000
0100
0001
1000
,
1001
0000
0100
0000
0010
1000
0100
0000
,
0100
0001
0100
1000
1000
0010
0001
0000
,
1000
0010
0001
0010
1000
0100
0001
0100
,
2000
0010
0000
0010
3000
0000
1001
0000
,
0010
0001
0100
0001
0010
0001
0100
0001
,
0000
0010
0000
1001
0000
0110
0110
0001
,
0010
1000
0010
0001
0010
1000
0010
0002
,
0000
0100
0000
0100
0000
0100
0003
0100
,
1001
0000
0010
0000
0010
1000
0100
1001
,
0000
0000
0001
0100
0010
1000
0001
0100
,
0010
0100
0001
0000
0010
0100
0001
1000
,
0001
1000
0110
0000
0000
1000
0010
0100
,
0001
0100
0010
1000
0001
0100
0010
1000
,
0100
0010
1001
0000
0000
0010
0001
1000
,
0100
1000
0001
0010
0100
1000
0001
0010
,
1000
0001
0110
0000
0000
0001
0100
0010
,
1000
0010
0100
0001
1000
0010
0100
0001
,
0010
0010
1001
0000
0000
0100
0001
1000
,
0010
0010
0100
0001
0100
0100
1000
0010
,
0001
0001
1100
0100
1000
1000
0001
0100
,
0001
0001
0100
0010
1000
1000
0001
0010
,
0100
0100
0011
0000
0000
0010
1000
0001
,
0100
0100
0010
1000
0010
0010
0100
0001
,
1000
1100
1100
0000
0000
0001
0010
0100
,
1000
1000
0001
0100
0001
0001
1000
0010
,
2000
0010
3000
1001
,
0002
0010
0003
1001
,
0200
0001
0300
0220
,
0000
0330
0000
0000
;

//---------------dance-double - ----------------
#NOTES:
     dance-double:
     :
     Easy:
     2:
     :
00000000
00000000
00000000
00000000
,
00000000
00000000
00000000
00000000
,
00000000
00000000
00000000
00000000
,
00000000
00000000
00000000
00000000
,
00010000
00000000
00100000
00000000
,
10000000
00000000
01000000
00000000
,
20020000
00000000
00000000
00000000
,
30030000
00000000
00000000
00000000
,
00022000
00000000
00000000
00000000
,
00033000
00000000
00000000
00000000
,
00010000
00000000
00010000
02000000
,
00000000
03000000
00000000
00000000
,
00100000
00000000
20020000
00000000
,
30030000
00000000
00000000
00000000
,
00001000
00000000
00001000
00000000
,
00002002
00000000
00003003
00000000
,
00000010
00000000
00000100
00000000
,
00002002
00000000
00003003
00000000
,
00002000
00000000
00000000
00003000
,
00020000
00000000
00000000
00030000
,
00001000
00000000
00000010
00000000
,
00000100
00000000
00001000
00000000
,
00010000
00000000
01000000
00000000
,
00010000
00000000
00001000
00000000
,
00000100
00000000
00001000
00000000
,
00000020
00000030
00002000
00003000
,
00020000
00030000
00000000
00000000
,
10010000
00000000
00000000
00010000
,
00001000
00000000
00000100
00000000
,
00001001
00000000
00000000
00000000
,
00000100
00000000
00001000
00000000
,
00011000
00000000
00000000
00010000
,
01000000
10000000
00000000
00000000
,
10010000
00000000
00000000
01000000
,
00000000
00010000
00001000
00000000
,
00001001
00000000
00000000
00000001
,
00000010
00000100
00000000
00000000
,
00011000
00000000
00000000
00100000
,
01000000
00000000
00010000
00000000
,
00011000
00000000
00000000
00000010
,
00000100
00000000
00000000
00001000
,
00011000
00000000
00000000
00001000
,
00010000
00000000
00000000
00000000
,
02200000
00000000
03300000
00020000
,
00030000
00002000
00003000
00000200
,
00000300
00000000
00000002
00000000
00000003
00000000
00000200
00001000
,
00000300
00000000
00000000
00000000
;

//---------------dance-double - ----------------
#NOTES:
     dance-double:
     :
     Medium:
     5:
     :
00000000
00000000
00000000
00000000
,
00000000
00000000
00000000
00000000
,
00000000
00000000
00000000
00000000
,
00000000
00000000
00000000
00000000
,
00000020
00000030
00000002
00000003
,
00002000
00003000
00000200
00000300
,
00002000
00000000
00000100
00003100
,
00020000
00000000
00001000
00031000
,
00002000
00000000
00010000
00013000
,
00020000
00001000
00001000
00031000
,
00100000
00000000
00010000
01000000
00000000
00100000
00000000
00000000
,
00010000
00000000
00000000
00001000
00000000
00000000
00000000
00000010
,
00000001
00000100
00000010
00001000
00000100
00000000
00000000
00000000
,
00001000
00000000
00000000
00000001
00000000
00000000
00000000
00000000
,
00000010
00000000
00000001
00001000
00000000
00000110
00000000
00001001
,
00000000
00000000
00000000
00001000
00000000
00000000
00010000
00000000
,
00100000
00000000
01000000
00100000
00000000
20000000
00000000
00020000
,
00000000
00000000
30030000
10000000
,
00010000
00001000
00000000
00000010
,
00000200
00000000
00000000
00000300
,
00000010
00001000
00010000
00100000
,
01000000
01000000
00000000
10000000
00000000
00000000
00100000
00000000
,
10010000
00000000
01100000
00000000
00000000
10000000
00000000
00100000
,
00000000
00010000
00000000
00001000
00000000
00000000
00000000
00000000
,
00000100
00000000
00001000
00000000
00000100
00000000
00001000
00000100
,
00000000
00001000
00000000
00001000
00000000
00010000
00000000
00010000
,
00010000
00000000
00100000
00000000
00100000
00000000
00010000
00001000
,
00000000
00000000
00001000
00000000
00000000
00000100
00000100
00000100
,
00000000
00000010
00001000
00000000
00010000
00000000
01000000
10000000
,
00000000
00010000
10000000
00000000
00000000
01000000
01000000
01000000
,
00000000
00000000
00100000
00000000
00010000
00000000
00001000
00000100
,
00000000
00000000
00001001
00000000
00000000
00000100
00000100
00000100
,
00000000
00001000
00000010
00000000
00001000
00000000
00010000
01000000
,
00000000
00000000
10010000
00000000
00100000
01000000
01000000
01000000
,
00000000
00000000
00010000
00000000
00001000
00000000
00010000
00001000
,
00000000
00000000
00011000
00000000
00000000
00000010
00000100
00000010
,
00000000
00001001
00000010
00000000
00000010
00000000
00000100
00000100
,
00000000
00001001
00000000
00000110
,
00011000
00000000
00100000
00000000
00010000
00000000
00100000
01000000
,
00000000
00000000
10010000
00000000
00000000
11000000
00000000
01010000
,
00000000
10010000
00100000
00000000
01000000
00000000
00010000
00001000
,
00000000
00000100
00001000
00000000
00000000
00000100
00000000
00000100
,
00000100
00000000
00001000
00000000
00010000
01000000
00000000
00000000
,
10010000
01100000
00000000
00010000
,
00000000
00001000
00000000
00000100
,
00000000
00000000
00011000
00000000
00100000
00000000
00010000
01000000
;

//---------------dance-double - ----------------
#NOTES:
     dance-double:
     :
     Hard:
     7:
     :
00000000
00000000
00000000
00000000
,
00000000
00000000
00000000
00000000
,
00000000
00000000
00000000
00000000
,
00000000
00000000
00000000
00000000
,
10000000
00000000
00010000
10000000
00010000
00000000
00100000
00000000
00001000
00000000
00010000
00001000
00010000
00000000
00000010
00000000
,
00000100
00000000
00000001
00000100
00000001
00000000
00000010
00000000
00000100
00000000
00010000
00001000
00010000
00000000
00100000
00000000
,
01000000
00000000
00010000
10000000
00100000
00000000
10000000
00000000
01000000
00000000
00010000
00001000
00010000
00000000
00000100
00000000
,
00001000
00000000
00000010
00000100
00000001
00000000
00000100
00000000
00000001
00000000
00000010
00000100
00001000
00000000
00000001
00000000
,
00000010
00000000
00000100
00001000
00000100
00000000
00010000
00000000
00001000
00000000
00100000
00010000
01000000
00000000
00100000
00000000
,
10000000
01000000
00010000
01000000
00010000
01000000
10000000
00000000
,
01100000
00000000
00010000
00001000
00000000
00000200
00000000
00000000
,
00000001
00001000
00000001
00001300
,
00000001
00000010
00001000
00010000
00002000
00000000
00100000
00000000
,
00010000
00100000
00010000
00103000
,
00001000
00000000
00010000
00001000
00000000
01100000
00000000
20000000
,
00010000
01000000
00010000
31000000
,
01100000
00000000
00010000
00001000
00000000
00010100
00000000
00000220
,
00000000
00000000
00000000
00000000
00000330
00000000
00000001
00000100
,
00000010
00000000
00000210
00000000
00000000
00000000
00001000
00001000
,
00000300
00002000
00000000
00000000
00010000
00000000
00013000
00000000
,
00010000
01000000
10000000
00000000
00100000
00010000
00001000
00000000
,
00010000
00001000
00000000
00000010
00000000
00000000
00000001
00000100
,
00001000
00020000
00100000
10000000
,
01000000
00032000
00000010
00000001
,
00000100
00000000
00013000
00000000
01000000
00000000
10000000
10000000
,
01000000
00010000
00000000
00000010
00000000
00001000
00000000
00000100
,
00000110
00000000
00000010
00000000
00000001
00000000
00000100
00001000
,
00000000
00000000
00011000
00000000
00000000
00001000
00001000
00001000
,
00000000
00011000
00001000
00000000
00010000
00000000
01000000
00010000
,
00000000
01100000
00010000
00000000
00000000
10000000
01000000
00010000
,
00000000
00000000
00001000
00000000
00000010
00000000
00000100
00000001
,
00000000
00000000
00000110
00000000
00000000
00000001
00000100
00001000
,
00000000
00000001
00000100
00000000
00001000
00000000
00010000
01000000
,
00000000
00100000
01000000
00000000
00000000
10000000
01000000
01100000
,
00000000
00000000
10000000
00000000
00010000
00000000
00001000
00000100
,
00000000
00000000
00000110
00000000
00000000
00001000
00000001
00000100
,
00000000
00001001
00000100
00000000
00001000
00010000
00000000
01100000
,
00000000
00000000
00100000
00000000
00010000
00001000
00000000
00011000
,
00000000
00000000
00010000
00000000
00001000
00000000
00000100
00000010
,
00000000
00000000
00000110
00000000
00000000
00000001
00001000
00000001
,
00000000
00000100
00001100
00000000
00010000
00010000
00000000
00110000
,
00000000
01100000
00010000
00000000
00000000
00110000
00000000
00011000
,
00000000
00000000
00001000
00000010
00000100
00000010
00000000
00000100
,
00001000
00000000
00012000
00000000
00100000
00100000
00000000
00100000
,
00003000
00000000
00021000
00000000
00000100
00000100
00000000
00030100
,
00000000
00000000
00001000
00000000
00010000
00001000
00000100
00000001
;
