#TITLE:FANTASY;
#SUBTITLE:;
#ARTIST:LOCKOUT;
#TITLETRANSLIT:;
#SUBTITLETRANSLIT:;
#ARTISTTRANSLIT:;
#CREDIT:;
#BANNER:FANTASY.png;
#BACKGROUND:FANTASY-bg.png;
#LYRICSPATH:;
#CDTITLE:./CDTITLES/Dancemania 21.PNG;
#MUSIC:FANTASY.ogg;
#OFFSET:0.000;
#SAMPLESTART:49.080;
#SAMPLELENGTH:15.000;
#SELECTABLE:YES;
#DISPLAYBPM:140.000;
#BPMS:0.000=137.909,4.000=140.000;
#STOPS:;
#BGCHANGES:;

//---------------dance-single - ----------------
#NOTES:
     dance-single:
     :
     Beginner:
     1:
     0.126,0.161,0.072,0.000,0.000:
0000
0000
0000
0000
,
0000
0000
0000
0000
,
0000
0000
0000
0000
,
0000
0000
0000
0000
,
0000
0000
0000
0000
,
0010
0000
0100
0000
,
0001
0000
1000
0000
,
0100
0000
0010
0000
,
0001
0000
0010
0000
,
0001
0000
0100
0000
,
0010
0000
1000
0000
,
0100
0000
0010
0000
,
0001
0000
1000
0000
,
1001
0000
0000
0000
,
0010
0000
0000
0000
,
1000
0000
0000
0000
,
0001
0000
0000
0000
,
0010
0000
0001
0000
,
0100
0000
0010
0000
,
1000
0000
0100
0000
,
0010
0000
0001
0000
,
0110
0000
0000
0000
,
1000
0000
0000
0000
,
0001
0000
0000
0000
,
0010
0000
0000
0000
,
0100
0000
0000
0000
,
0010
0000
1000
0000
,
0010
0000
0001
0000
,
0100
0000
0010
0000
,
1001
0000
0000
0000
,
0010
0000
1000
0000
,
0001
0000
0010
0000
,
0100
0000
1000
0000
,
0110
0000
0000
0000
,
1000
0000
0000
0000
,
0001
0000
0000
0000
,
1000
0000
0100
0000
,
1001
0000
0100
0000
,
0010
0000
1000
0000
,
0001
0000
0100
0000
,
0001
0000
0010
0000
,
0100
0000
1000
0000
,
0001
0000
0100
0000
,
0010
0000
1000
0000
,
0100
0000
0010
0000
,
1001
0000
0000
0000
,
0000
0000
0000
0000
;

//---------------dance-single - ----------------
#NOTES:
     dance-single:
     :
     Easy:
     2:
     0.191,0.241,0.072,0.346,0.000:
0000
0000
0000
0000
,
0000
0000
0000
0000
,
0000
0000
0000
0000
,
0000
0000
0000
0000
,
0000
0000
0000
0000
,
0010
0000
0100
0000
,
0001
0000
1000
0000
,
0100
0000
0010
0000
,
0001
1000
0010
0100
,
0002
0003
0200
0300
,
0020
0030
2000
3000
,
0200
0300
0020
0030
,
0002
0000
2000
3003
,
1001
0000
0000
0000
,
0010
0000
0000
0000
,
1000
0000
0000
0000
,
0001
0000
0000
0000
,
0010
0000
0001
0000
,
0100
0000
0010
0000
,
1000
0000
0100
0000
,
0010
0000
0001
1000
,
0110
0000
0000
0000
,
2000
0000
0000
3000
,
0002
0000
0000
0003
,
0020
0000
0000
0030
,
0200
0000
0000
0300
,
0010
0000
1000
0001
,
0010
0000
0001
1000
,
0100
0000
0010
0100
,
1001
0000
0000
0000
,
0010
0000
1000
0000
,
0001
0000
0010
0000
,
0100
0000
1000
0001
,
0110
0000
0000
0000
,
2000
0000
0000
3000
,
0002
0000
0000
0003
,
1000
0001
0100
0010
,
1001
0000
0200
0300
,
0020
0030
2000
3000
,
0002
0003
0200
0300
,
0002
0003
0020
0030
,
0200
0300
2000
3000
,
0002
0003
0200
0300
,
0020
0030
2000
3000
,
0200
0300
0020
0030
,
1001
0000
0000
0000
,
0000
0000
0000
0000
;

//---------------dance-single - ----------------
#NOTES:
     dance-single:
     :
     Medium:
     5:
     0.378,0.376,0.203,0.191,0.000:
0000
0000
0000
0000
,
0000
0000
0000
0000
,
0000
0000
0000
0000
,
0000
0000
0000
0000
,
0000
0000
0000
0000
,
1000
0100
0000
0010
0001
0100
0000
0010
,
1000
0001
0000
1000
0100
0010
0000
0100
,
0010
0001
0000
1000
0100
0001
0000
0100
,
0010
0001
0000
1000
0010
0100
0000
0001
,
1000
0100
0000
0010
0100
1000
0000
0001
,
0100
0010
0000
1000
0001
0100
0000
0010
,
1000
0100
0000
0010
0001
0100
0000
0010
,
1000
0001
0000
0000
0000
0000
0000
0000
,
1001
0000
0100
0000
0010
1000
0100
0000
,
1000
0001
0100
0000
1001
0000
0101
0000
,
0010
1000
0100
0000
0010
1000
0100
0000
,
0001
0100
1001
0101
,
1000
0100
0001
0100
,
0010
1000
0100
0000
0010
0000
0101
0000
,
0010
1000
0001
0000
0010
0100
1000
0000
,
1000
0000
0001
0000
1000
0001
0100
0000
,
2000
3100
0002
0103
,
2000
3100
0002
0103
,
0010
1000
0100
0000
0010
0001
0100
0000
,
1001
1100
0010
0001
,
2002
0000
0000
3003
,
0010
0010
0100
0100
,
1000
0100
1000
0000
0001
0100
0001
0000
,
1000
0100
1000
0100
1000
0100
1000
0000
,
0011
1100
0202
0000
,
0000
0303
1000
0001
,
1000
0100
0001
0100
,
0010
1000
0010
0000
0001
0100
0001
0000
,
0110
1001
2200
0000
,
0000
0000
0000
3300
,
1000
0010
0100
0000
0001
0010
0100
0000
,
1000
0100
1000
0000
0001
0000
0100
0000
,
2002
0000
0000
3003
,
0010
1000
0100
0000
0010
0001
0100
0000
,
2000
3100
0002
0103
,
1000
0100
0010
0000
0001
0000
0100
0000
,
2000
3100
0002
0103
,
0010
1000
0100
0000
0010
0001
0100
0000
,
1000
0100
1000
0000
0001
0100
0001
0000
,
1000
0100
1000
0100
1000
0100
1000
0000
,
0101
0000
0000
0000
,
0000
0000
0000
0000
;

//---------------dance-single - ----------------
#NOTES:
     dance-single:
     :
     Hard:
     6:
     0.450,0.464,0.417,0.131,0.137:
0000
0000
0000
0000
,
0000
0000
0000
0000
,
0000
0000
0000
0000
,
0000
0000
0000
0000
,
0000
0000
0000
0000
0000
0100
0000
0010
,
1001
0100
0000
0010
1000
0100
0000
1001
,
0100
0010
0000
1000
0100
0101
0000
0110
,
0010
0001
0000
1001
0100
0010
0000
1100
,
0010
0001
0000
1000
0010
0100
0000
0101
,
1000
0100
0000
0110
0100
1000
0000
0001
,
0100
0101
0000
1000
0001
0110
0000
0010
,
1000
1001
0000
0101
1000
0100
0000
0010
,
1000
0001
0000
0000
0000
0000
0000
0000
,
1001
0000
0010
0000
1000
0001
1000
0000
,
0010
1000
0000
0101
0000
0011
0000
1001
,
0000
1000
0100
0010
0000
1000
0001
0100
,
0010
0100
0000
1000
0000
0001
0000
1000
,
0000
0010
0001
1000
0100
0010
0001
0100
,
1000
0010
0000
0110
0000
1000
0001
0100
,
0000
0010
0100
0001
0000
0001
0010
1000
,
0000
0101
0000
1010
0000
0101
0000
0000
,
2000
0000
3010
0100
0002
0000
0003
0010
,
0001
1000
0100
1000
0000
0010
1000
0100
,
0000
0010
0001
0100
0000
1010
0000
0101
,
0000
1001
0000
0010
0100
0001
0000
1000
,
0200
0001
1000
0301
,
0010
0001
0000
0000
1000
0000
0100
0000
0010
0001
0000
0000
1000
0000
0100
0000
,
1000
0000
0000
0001
0000
0000
0010
0000
0100
0000
0000
1000
0000
0000
0001
0000
,
0010
0000
0000
0100
0000
0000
0010
0000
0001
0000
0100
0000
1000
0000
0100
0000
,
0011
1100
0202
0000
,
0303
0000
0010
1000
0001
0100
0010
1000
,
0200
0001
1000
0301
,
1000
0000
0000
0001
0000
0000
0100
0000
0010
0000
0000
1000
0000
0000
0001
0000
,
0110
1001
2200
0000
,
3300
0000
0100
0100
0010
0000
0001
1000
,
0200
0001
1000
0301
,
0000
0000
0000
0000
0000
1001
0000
0100
,
0010
0000
0000
1000
0000
0000
0100
0000
0001
0000
0000
0010
0000
0000
1000
0000
,
0001
0000
0000
0010
0000
0000
0100
0000
1000
0000
0000
0010
0000
0000
0001
0000
,
0100
0000
0000
1000
0000
0000
0010
0000
0100
0000
0000
0001
0000
0000
1000
0000
,
0110
0000
0000
1000
0000
0000
0001
0000
1000
0000
0000
0100
0000
0000
0010
0000
,
0101
0000
0000
1000
0000
0000
0010
0000
0100
0000
0000
1000
0000
0000
0010
0000
,
0001
0000
0000
1000
0000
0000
0100
0000
0110
0000
0000
0001
0000
0000
0010
0000
,
0001
0000
0000
1000
0000
0000
0001
0000
0010
0000
0000
1000
0000
0000
0100
0000
,
1001
0000
0000
0100
0000
0000
0010
0000
1000
0000
0000
0100
0000
0000
0010
0000
,
2002
0000
0000
3003
,
0000
0000
0000
0000
;

//---------------dance-double - ----------------
#NOTES:
     dance-double:
     :
     Easy:
     2:
     0.165,0.241,0.048,0.191,0.000:
00000000
00000000
00000000
00000000
,
00000000
00000000
00000000
00000000
,
00000000
00000000
00000000
00000000
,
00000000
00000000
00000000
00000000
,
00000000
00000000
00000000
00000000
,
00001000
00000000
00000000
00000000
,
00010000
00000000
00000000
00000000
,
01000000
00000000
00000000
00000000
,
10000000
00000000
00000000
00000000
,
00100000
00000000
00000000
00000000
,
00010000
00000000
00000000
00000000
,
00001000
00000000
00000000
00000000
,
00000010
00000000
00000000
00000100
,
00001001
00000000
00000000
00000100
,
00000000
00001000
00000000
00010000
,
00000000
00100000
00000000
10000000
,
00000000
00010000
00000000
01000000
,
00000000
00100000
00000000
00010000
,
00000000
00001000
00000000
00000010
,
00000000
00000001
00000000
00001000
,
00000000
00000010
00000000
00000100
,
00001001
00000000
00000100
00000000
,
00001000
00000000
00010000
00000000
,
01000000
00000000
10000000
00000000
,
00010000
00000000
10000000
00000000
,
00200000
00000000
00300000
00100000
,
00020000
00000000
00030000
00010000
,
00002000
00000000
00003000
00001000
,
00000020
00000000
00000030
00000010
,
00000001
00001000
00000100
00000000
,
00000020
00000030
00002000
00003000
,
00020000
00030000
00200000
00300000
,
20000000
30000000
02000000
03000000
,
00010000
00001000
00010000
00000000
,
00020000
00030000
00002000
00003000
,
00000200
00000300
00000002
00000003
,
00002000
00003000
00000200
00000300
,
00001001
00000000
00000000
00000000
,
00000000
00001000
00000000
00010000
,
00000000
01000000
00000000
10000000
,
00000000
00100000
10000000
01000000
,
00000000
00010000
00000000
00001000
,
00000000
00000100
00000000
00000001
,
00000001
00000000
00000010
00000000
,
00001000
00000000
00010000
00001000
,
00011000
00000000
00000000
00000000
,
00000000
00000000
00000000
00000000
;

//---------------dance-double - ----------------
#NOTES:
     dance-double:
     :
     Medium:
     5:
     0.305,0.322,0.167,0.131,0.000:
00000000
00000000
00000000
00000000
,
00000000
00000000
00000000
00000000
,
00000000
00000000
00000000
00000000
,
00000000
00000000
00000000
00000000
,
00000000
00000000
00000000
00000000
,
00011000
00000100
00011000
01000000
,
00011000
00000100
00011000
01000000
,
00100000
00010000
00001000
00000010
,
00000001
00000100
00001000
00010000
,
00001000
01000000
00100000
00010000
,
00001000
00000000
00010000
00000000
01000000
00000000
10000000
00010000
,
10000000
00100000
00000000
10000000
,
01000000
00010000
00001000
00000100
,
00001001
00000001
00000100
00001000
,
00100000
00010000
00000000
10000000
00000000
00000000
00100000
00000000
,
10000000
01000000
00010000
00001000
,
00000100
00000000
00000001
00000000
00000010
00000001
00000100
00000000
,
00000000
00001000
00000100
00000010
,
00001000
00000000
00010000
00000000
00100000
10000000
01000000
00000000
,
00000000
00100000
00010000
00001000
,
00000010
00000000
00000001
00000000
00001000
00000001
00000100
00000000
,
00002000
00000000
00023000
00030000
,
01000000
00100000
00020000
00030000
,
10000000
00100000
00010000
00010000
,
00001000
00001000
00010000
00010000
,
00001000
00000000
00000010
00000000
00000001
00001000
00000001
00000000
,
00000100
00000000
00001000
00000000
00010000
00001000
00010000
00000000
,
00100000
00010000
10000000
01000000
,
00100000
00000000
10000000
00000000
00010000
01000000
00100000
00000000
,
10010000
01010000
01001000
00000000
,
00001000
00000000
00010000
00000000
00000010
00000000
00001000
00000001
,
00000200
00000001
00000000
00000301
,
00000000
00000100
00000000
00001000
,
00011000
01001000
20010000
00000000
,
30000000
00000000
00100000
00000000
10010000
00000000
00100000
00010000
,
00002000
00020000
00003000
00002000
,
00030000
00000000
00013000
00000000
00000000
00001000
00000000
00000100
,
00000002
00000100
00000003
00000101
,
00000010
00001000
00010000
00100000
,
10000000
01000000
00100000
00010000
,
10000000
00000000
00100000
00000000
00010000
00000000
00001000
00000010
,
00000001
00000100
00000001
00000010
,
00001000
00010000
01000000
10000000
,
00200000
00300000
20000000
30000000
,
01000000
00010000
00001000
00000100
,
00001001
00000000
00000000
00000000
,
00000000
00000000
00000000
00000000
;

//---------------dance-double - ----------------
#NOTES:
     dance-double:
     :
     Hard:
     7:
     0.465,0.464,0.119,0.143,0.018:
00000000
00000000
00000000
00000000
,
00000000
00000000
00000000
00000000
,
00000000
00000000
00000000
00000000
,
00000000
00000000
00000000
00000000
,
00000000
00000000
00000000
00000000
00000000
01100000
00000000
00010000
,
10010000
00000000
01000000
00100000
00010000
00100000
10000000
01000000
,
00010000
00001000
00010000
00001000
00000100
00000010
00001000
00000000
,
00000010
00000100
00000001
00001000
00000100
00000010
00000001
00001000
,
00000100
00010000
01000000
10000000
00100000
01000000
00010000
00000000
,
00010000
00100000
00001000
00000100
00000010
00001000
00000001
00000010
,
00001000
00000010
00000001
00000100
00001000
00000100
00000001
00000000
,
00000010
00001000
00010000
00100000
00010000
00001000
01000000
00010000
,
00100000
00000000
10000000
00010000
,
01100000
00000000
10000000
00010000
01000000
00100000
00010000
00001000
,
00010000
00001000
00000000
00001000
00000000
00000100
00000001
00000010
,
00000100
00010000
00001000
01000000
00010000
10000000
01000000
00100000
,
00010000
10000000
00000000
10000000
00000000
10000000
00000000
00010000
,
00000000
10000000
01000000
10000000
00100000
00010000
00001000
00000010
,
00000100
00001000
00000000
00000001
00000000
00001000
00000100
00000001
,
00000100
00000010
00000001
00001000
00000010
00000100
00001000
00010000
,
01000000
10000000
00010000
00100000
01000000
00100000
00010000
00000000
,
20020000
30030000
02200000
03300000
,
00100000
00010000
00001000
00000100
00001000
00010000
00000100
00000001
,
00000100
00000010
00000001
00001000
00000010
00000100
00001000
00000100
,
00000001
00000010
00001000
00010000
00000010
00000100
00001000
00010000
,
02000000
00100000
00000000
13000000
,
10000000
01000000
00010000
00001000
,
00000100
00000000
00000000
00000100
00000000
00000000
00000100
00000000
00000001
00000000
00000000
00000001
00000000
00000000
00000001
00000000
,
00000100
00000000
00000000
00000010
00000000
00000000
00001000
00000000
00000100
00000000
00000000
00000000
00010000
00000000
00001000
00000000
,
00010000
01000000
20020000
00000000
,
30030000
00000000
00100000
00010000
10000000
00010000
01000000
00010000
,
00100000
01000000
10000000
00100000
00010000
00001000
00010000
00000100
,
00000010
00000100
00001000
00000001
00000010
00000100
00000010
00000001
,
00001000
00000011
00002200
00000000
,
00003300
00000000
00000010
00001000
00010000
00100000
01000000
00010000
,
10000000
01000000
00010000
01000000
10000000
00000000
10000000
00000000
,
00100000
00010000
10000000
01000000
00010000
00001000
00000000
00011000
,
00020200
00000000
00000000
00030300
,
00000010
00000001
00000100
00001000
00000010
00001000
00010000
00000000
,
00001000
00010000
00000010
00001000
00001000
00010000
01000000
00000000
,
00100000
10000000
01000000
00000000
00100000
00001000
00010000
00000000
,
00001000
00010000
00001000
00000010
00001000
00010000
01000000
00000000
,
10000000
00100000
00010000
00001000
00001000
00000001
00000100
00000000
,
00000010
00001000
00000100
00000000
00010000
00001000
01000000
00000000
,
10000000
00100000
00010000
00001000
00000000
00001000
00000000
00010000
,
02000000
00000000
00000000
03000000
,
00000000
00000000
00000000
00000000
;
