#TITLE:DIVE TO THE NIGHT;
#ARTIST:小坂りゆ;
#ARTISTTRANSLIT:RIYU KOSAKA;
#BANNER:DIVE TO THE NIGHT.png;
#BACKGROUND:DIVE TO THE NIGHT-bg.png;
#CDTITLE:./CDTITLES/DDRMAX2 -Dance Dance Revolution 7thMIX-.PNG;
#MUSIC:DIVE TO THE NIGHT.ogg;
#SAMPLESTART:38.708;
#SAMPLELENGTH:15;
#BPMS:0=155;

//---------------dance-single - ----------------
#NOTES:
     dance-single:
     :
     Beginner:
     3:
     :
0000
0000
0000
0000
,
0000
0000
0000
0000
,
0000
0000
0000
0000
,
0000
0001
0000
1000
,
0000
1000
0000
1000
,
0000
0001
0000
1001
,
0000
1000
0000
1001
,
0000
0010
0000
0100
,
0000
0100
0000
1001
,
0000
0001
0000
0001
,
0000
1000
0000
1001
,
0000
0010
0000
0100
,
0000
0010
0000
0110
,
0000
1000
0000
1001
,
0000
0010
0000
0110
,
0000
0100
0000
0001
,
0001
0000
0100
0000
,
0000
1001
0000
0110
,
0000
1000
0000
0001
,
0000
1001
0000
0110
,
0000
0001
0000
1000
,
0000
0001
0000
0001
,
0000
1000
0000
1000
,
0000
0001
0000
1000
,
0000
1000
0000
0001
,
0000
0010
0000
0010
,
0000
0100
0000
0100
,
0000
1000
0000
0001
,
0000
0001
0000
0001
,
0000
1000
0000
1001
,
0000
0001
0000
1001
,
0000
0010
0000
0100
,
0000
0100
0000
1001
,
0000
0001
0000
1000
,
0000
0010
0000
0100
,
0000
0001
0000
1000
,
0000
0010
0000
0100
,
0000
0001
0001
0001
,
0000
1000
1000
1000
,
0000
0001
0000
0001
,
0000
0000
0000
0000
,
0000
0010
0000
0010
,
0000
0100
0000
0100
,
0000
0001
0000
1000
,
0000
1000
0000
1000
,
0000
0001
0000
1001
,
0000
0010
0000
0110
,
0000
0010
0000
1000
,
1000
0000
0010
0000
,
0000
1000
0000
1000
,
0000
0001
0000
0001
,
0000
0100
0000
0010
,
0000
0100
0000
0001
,
0000
0010
0000
1001
,
0000
0100
0000
1001
,
0000
0110
0000
1001
,
0000
0100
0000
1001
,
0000
0000
0000
0000
,
1000
1000
1000
0000
,
0001
0001
0001
0000
,
0000
0000
0000
0000
;

//---------------dance-single - ----------------
#NOTES:
     dance-single:
     :
     Easy:
     4:
     :
0000
0000
0000
0000
,
0000
0000
0000
0000
,
0000
0000
0000
0000
,
0000
0001
0000
1000
,
0001
1000
0001
1000
,
0000
0001
0000
1001
,
0000
1000
0000
1001
,
0000
0010
0000
0100
,
0010
0100
0010
1001
,
0000
0001
0000
0001
,
0000
1000
0000
1001
,
0000
0010
0000
0100
,
0000
0010
0000
0110
,
0000
1000
0000
1001
,
0000
0010
0000
0110
,
1000
0100
0010
0001
,
0001
0010
0100
1000
,
0000
1001
0000
0110
,
0000
1000
0100
0001
,
0000
1001
0000
0110
,
0000
0001
0100
1000
,
0000
0001
0000
0001
,
0000
1000
0000
1000
,
0000
0001
0000
1000
,
0000
1000
0000
0001
,
0000
0010
0000
0010
,
0000
0100
0000
0100
,
0000
1000
0000
0001
,
1000
0001
1000
0001
,
0000
1000
0000
1001
,
0000
0001
0000
1001
,
0000
0010
0000
0100
,
0010
0100
0010
1001
,
0000
0001
0000
1000
,
0000
0010
0000
0100
,
0001
0001
1000
1000
,
0010
0010
0100
0100
,
0000
0001
0001
0001
,
0000
1000
1000
1000
,
0000
0001
1000
0001
,
2000
0000
0000
3000
,
0000
0010
0000
0010
,
0000
0100
0000
0100
,
0000
0001
0000
1000
,
0001
1000
0001
1000
,
0000
0001
0000
1001
,
0000
0010
0000
0110
,
0001
0010
0100
1000
,
1000
0100
0010
0001
,
0000
1000
0000
1000
,
0000
0001
0000
0001
,
0000
0100
0000
0010
,
1000
0100
0010
0001
,
0000
0010
0000
1001
,
0000
0100
0000
1001
,
0000
0110
0000
1001
,
0000
0100
0010
1001
,
0002
0000
0000
0003
,
2000
0000
0000
3000
,
0001
0001
1000
1000
,
2002
0000
0000
3003
,
0000
0000
0000
0000
;

//---------------dance-single - ----------------
#NOTES:
     dance-single:
     :
     Medium:
     8:
     :
0000
0000
0000
0000
,
0000
0000
0000
0000
,
0000
0000
0000
0000
,
0010
0010
0100
0100
,
1001
0110
1001
0110
,
0010
0000
0010
0000
1000
0001
0100
0000
,
0010
0000
0010
0000
1000
0001
0010
2000
,
0000
0000
0000
3000
,
0100
0001
1000
1001
,
0001
0001
1000
1001
,
0001
0100
1000
1001
,
0010
0010
0100
0110
,
1000
0100
0001
1001
,
0001
0000
1000
0000
0001
1000
0100
0000
,
1000
0001
1000
1001
,
1000
0000
0001
0000
1000
0001
0100
0000
,
0001
1000
0001
1001
,
0001
0000
1100
0000
1000
0100
0001
0000
,
0001
0000
0101
0000
0001
0100
1000
0000
,
1000
0010
0001
1001
,
0001
0010
1000
1001
,
0010
0000
1001
0000
0010
0001
0100
0000
,
0010
0000
1001
0000
0010
1000
0100
0000
,
1001
0000
0010
0100
0000
1000
0001
0000
,
0000
1001
0000
0110
0000
1000
0001
0000
,
0010
0100
0010
0100
,
1000
0001
1000
0001
,
0101
1010
0101
1010
,
0011
1100
0011
1100
,
0001
0000
1000
0000
0001
1000
0100
0000
,
1000
0000
0001
0000
1000
0001
0100
0000
,
0010
0000
1000
0000
0010
1000
0100
0000
,
0010
0000
0010
0100
0000
1000
0001
0000
,
1000
0100
0001
0100
,
1000
0100
0001
1001
,
0001
1000
0010
1000
,
0100
0010
0001
1001
,
0001
1000
0011
1010
,
0001
1100
1000
0101
,
1001
0110
1001
0110
,
2002
0000
3003
1001
,
0110
0000
1001
0000
0100
1000
0001
0000
,
0110
0000
1001
0000
0010
0100
1000
0000
,
0010
0100
0001
1000
,
0001
1000
0010
0100
0000
0010
0100
0000
,
0010
0010
0100
1001
,
0100
0100
0010
1001
,
0010
0001
0010
0000
0100
1000
0100
0000
,
2000
0000
3000
1001
,
0110
0000
0110
0000
0001
1000
0010
0000
,
1001
0000
1001
0000
0010
0100
0001
0000
,
0100
0001
1000
0010
,
0100
0001
1000
0010
0000
0100
0010
0000
,
0010
0000
0100
0000
0001
1000
0100
0000
,
0010
0000
0100
0000
1000
0001
0100
0000
,
0010
1000
0100
0000
0010
0001
0100
0000
,
0010
0100
0001
1000
0100
1000
0010
0100
,
0001
0101
1000
1100
,
1001
0110
1001
0110
,
2002
0000
0000
3003
,
1000
0001
0010
1000
0000
0000
0000
0000
,
0000
0000
0000
0000
;

//---------------dance-single - ----------------
#NOTES:
     dance-single:
     :
     Hard:
     11:
     :
0000
0000
0000
0000
,
0000
0000
0000
0000
,
0000
0000
0000
0000
,
1001
0000
1001
0000
0110
0000
0110
0001
,
0000
1000
0100
0010
0000
0011
1001
0000
,
1001
0000
0110
0000
0001
1000
0100
0010
,
0001
0000
1000
0000
0001
1000
0100
0010
,
0000
0100
0000
0010
0000
0100
1000
0100
,
0010
0001
0100
0001
1000
0001
1000
0100
,
0010
0000
0001
1000
0100
0010
0001
0100
,
0000
0100
0000
0010
0000
0010
1000
0100
,
0001
0100
1000
0010
0001
0010
1000
0100
,
0000
0010
0000
1001
0001
1000
0001
0100
,
0000
0001
1000
0100
0010
0001
1000
0100
,
0000
1000
0001
0010
0100
1000
0001
0100
,
0000
0100
0010
0100
0001
1000
0001
1000
,
0000
1001
0000
1001
0100
0000
0100
0000
,
0010
1000
0100
0010
0001
0100
0010
1000
,
0000
1000
0100
0010
0001
1000
0100
0010
,
0000
0010
0001
0010
0001
0100
0010
1000
,
0000
1001
0000
1001
0000
1001
0100
0000
,
0010
0000
0001
1000
0001
0010
0001
1000
,
0010
0000
1000
0001
0000
1000
0010
0100
,
0001
0000
1000
0001
0100
0001
1000
0001
,
0000
0010
0100
0010
0000
0100
0110
0000
,
1001
0000
1001
0000
0100
0010
0001
1001
,
0000
1001
0000
0110
0000
0110
1000
0100
,
0010
0000
0110
0000
1000
0001
0010
0100
,
0000
1000
0100
0010
0000
0001
1000
0000
,
1100
0000
0011
0001
0000
1000
0010
0100
,
0001
0100
0010
1000
0000
0001
1001
0100
,
0000
0001
0000
1001
0000
1000
0100
0010
,
0001
1000
0010
0100
0000
0001
0100
0000
,
0110
0110
1001
1001
,
0110
0000
1001
0000
0110
0000
1001
0100
,
0010
0001
1010
0101
,
0010
0000
1001
0000
1000
0001
0100
0001
,
1000
0001
0010
0000
0001
1000
0100
0000
,
0001
0100
1000
0000
0001
0100
1000
0000
,
1000
0100
0001
0010
1000
0010
0001
0100
,
2000
0000
0000
3000
,
0110
0000
1001
0000
1000
0001
0100
0010
,
0000
1001
0000
1001
0000
1001
0100
0001
,
0010
0000
0100
0000
0010
0001
0100
0010
,
0000
0010
1000
1000
0000
0100
0010
0000
,
1001
0000
1001
0000
0100
0010
1000
0010
,
0100
0000
0100
0001
0000
1000
0001
0010
,
0000
0001
0000
1000
0000
1001
0000
1001
,
0100
1000
0100
0010
0001
0010
0001
0100
,
0010
0000
0010
0000
1000
0001
1000
0001
,
0000
0100
0000
0011
0000
1000
0001
0100
,
0010
0000
1001
0000
0100
0001
0010
0001
,
0000
1000
0001
0010
0000
0001
1000
0010
,
0110
0000
1001
0000
1000
0100
0010
0001
,
0100
1000
0100
0010
0000
1000
0100
0001
,
0000
0100
0000
1000
0000
0100
0010
0001
,
1000
0100
0010
0001
0000
1000
0001
0010
,
0100
1000
0100
0010
0001
0010
0100
0000
,
0010
0001
0010
0100
1000
0100
0001
0000
,
0100
1000
0100
0000
0010
0001
0010
0000
,
0001
1000
0010
0100
0000
0000
0000
0000
;

//---------------dance-double - ----------------
#NOTES:
     dance-double:
     :
     Easy:
     5:
     :
00000000
00000000
00000000
00000000
,
00000000
00000000
00000000
00000000
,
00000000
00000000
00000000
00000000
,
00000000
00000001
00000000
00001000
,
00000000
00010000
00000000
10000000
,
00000000
10000000
00000000
00100000
,
00000000
00010000
00000000
00001000
,
00000000
00000100
00000000
00000001
,
00000001
00000010
00000100
00001000
,
00000000
00010000
00000000
00001000
,
00000000
00010000
00000000
00100000
,
00000000
00010000
00000000
00001000
,
00000000
00010000
00000000
01000000
,
00000000
10000000
00000000
00010000
,
00000000
00001000
00000000
00000001
,
00000000
00000100
00000000
00011000
,
00000000
01000000
00000000
00011000
,
00000000
00001000
00000100
00000001
,
00000000
00000001
00000010
00001000
,
00000000
00010000
01000000
10000000
,
10000000
01000000
00100000
00010000
,
00000000
00100000
00000000
01000000
,
00000000
00010000
00000000
10000000
,
10000000
01000000
00100000
00010000
,
00000000
00011000
00000000
00011000
,
00000000
00001000
00000000
00010000
,
00000000
00100000
00000000
10000000
,
00000000
10000000
00000000
00010000
,
00000000
00001000
00000000
00000001
,
00000000
00000010
00000010
00001000
,
00000000
00010000
00010000
01000000
,
00000000
01000000
00000000
10000000
,
01000000
00010000
00001000
00000100
,
00000000
00000001
00000000
00000100
,
00000000
00001000
00000000
00010000
,
00000000
00100000
00000000
10000000
,
00000000
01000000
00000000
00010000
,
00000000
00001000
00000100
00001000
,
00000000
00010000
01000000
00010000
,
01000000
01000000
00100000
00100000
,
02000000
00000000
00000000
03000000
,
00000000
00100000
00000000
00100000
,
00000000
01000000
00000000
01000000
,
00000000
10000000
00000000
00010000
,
00000000
00001000
00000000
00000001
,
00000000
00000001
00000100
00001000
,
00000000
00010000
01000000
10000000
,
00000000
00100000
00010000
00001000
,
00000200
00000000
00000000
00000300
,
00000000
00000010
00000000
00000010
,
00000000
00000100
00000000
00000100
,
00000000
00000001
00000000
00001000
,
00000000
00010000
00000000
10010000
,
00000000
01000000
00010000
00001000
,
00000000
00000100
00001000
00010000
,
00000000
00100000
00000000
10010000
,
00000000
01000000
01000000
10010000
,
00000000
00100000
00010000
00001000
,
00000000
00000010
00001000
00010000
,
00000000
00010000
00001000
00000010
,
00000200
00000000
00000000
00000300
,
00000000
00000000
00000000
00000000
;

//---------------dance-double - ----------------
#NOTES:
     dance-double:
     :
     Medium:
     9:
     :
00000000
00000000
00000000
00000000
,
00000000
00000000
00000000
00000000
,
00000000
00000000
00000000
00000000
,
00010010
00011000
00101000
00011000
,
00010100
00011000
01001000
00011000
,
00000010
00000000
00001000
00000000
00000001
00000100
00001000
00000000
,
00010000
00000000
00100000
00000000
10000000
01000000
00010000
00000000
,
00001000
01000000
00010000
00000100
,
00011000
00000010
00011000
00100000
,
00010000
00000000
10000000
00000000
00010000
01000000
10000000
00000000
,
01000000
00000000
00100000
00000000
10000000
01000000
00010000
00000000
,
00001000
00000000
00000100
00000000
00000001
00000100
00001000
00000000
,
00000100
00000000
00000010
00000000
00001000
00000100
00000001
00000000
,
00000100
00000000
00010000
00000000
00001000
00010000
00000100
00000010
,
00000000
00000010
00000100
00000000
00010000
00001000
00000100
00000000
,
00001000
00010000
01010000
11000000
,
10010000
00101000
00010100
00001001
,
00000100
00000000
00000001
00000000
00000001
00000100
00001000
00010000
,
01000000
00000000
10000000
00000000
10000000
00100000
00010000
00001000
,
00000010
00000100
00001000
00011000
,
00100000
01000000
00010000
00011000
,
00100000
00010000
10000000
10010000
,
00100000
01000000
00010000
00101000
,
00010000
00000100
00001001
00000110
,
00000000
00001001
00000000
00000110
00000000
00001000
00010000
00000000
,
00000010
00000100
00001000
00011000
,
00100000
01000000
00010000
00011000
,
00000010
00011000
00100000
00011000
,
00010100
00011000
01001000
00011000
,
00000010
00000000
00001000
00000000
00000001
00001000
00000100
00000000
,
00000010
00000000
00000001
00000000
00001000
00000001
00000100
00001000
,
00010000
01000000
10000000
00100000
,
10000000
01000000
00100000
00011000
,
00000100
00001000
00000001
00001001
,
00000010
00000100
00001000
00010100
,
00001000
01000000
00100000
11000000
,
00110000
00011000
00010100
00001010
,
00001001
00000000
00000110
00000000
00000001
00000100
00001000
00010000
,
01000000
00000000
10010000
00000000
10000000
01000000
00010000
00001000
,
00000100
00011000
01000000
00011000
,
00000020
00000000
00000030
00000101
,
00000010
00001000
00000100
00011000
,
00100000
00010000
01000000
00011000
,
00010010
00011000
01001000
00011000
,
00001100
00011000
00110000
00011000
,
00100000
00000000
10000000
00000000
00010000
01000000
10000000
00000000
,
01000000
00000000
00100000
00000000
10000000
01000000
00010000
00001000
,
00000100
00000000
00000010
00000000
00000100
00000001
00000010
00000000
,
00001001
00000110
00001100
00011000
,
00010100
00000000
00011000
00000000
00100000
00010000
01000000
00000000
,
00110000
00000000
00011000
00000000
00000100
00001000
00000001
00000000
,
00000010
00000001
00000100
00000000
00000010
00000100
00001000
00000000
,
00010000
01000000
10000000
10010000
,
00100000
01000000
00010000
00011000
,
00000010
00000100
00001000
00011000
,
00001010
00000101
00001100
00011000
,
00110000
11000000
01010000
00011000
,
00002010
00000100
00000001
00003100
,
00120000
01000000
10000000
01030000
,
00001000
00010000
00001000
00010000
,
00001000
00010000
01000000
10000000
00000000
00000000
00000000
00000000
,
00000000
00000000
00000000
00000000
;

//---------------dance-double - ----------------
#NOTES:
     dance-double:
     :
     Hard:
     12:
     :
00000000
00000000
00000000
00000000
,
00000000
00000000
00000000
00000000
,
00000000
00000000
00000000
00000000
,
00100000
00000000
01000000
00000000
00010000
00000000
00001000
00000100
,
00000000
00000001
00000100
00001000
00000000
00010000
00010000
00000000
,
00000010
00000000
00000100
00000000
00001000
00010000
01000000
10000000
,
00100000
00000000
10000000
00000000
01000000
00010000
00001000
00000200
,
00000000
00000010
00000000
00000010
00000300
00000010
00001000
00000001
,
00000100
00001000
00010000
01000000
10000000
00100000
00010000
00001000
,
00010000
00000000
00100000
01000000
00010000
01000000
10000000
01000000
,
00000000
10010000
00000000
10010000
00000000
10000000
01000000
10000000
,
00010000
10000000
01000000
00010000
00001000
00000100
00000001
00001000
,
00000000
00001001
00000000
00001001
00000000
00000010
00000001
00001000
,
00000000
00001000
00000001
00000100
00001000
00010000
01000000
00100000
,
00000000
00100000
00010000
10000000
01000000
00100000
01000000
00010000
,
00000000
00010000
00001000
00000100
00000010
00001000
00000100
00010000
,
00000000
00001000
00000000
00010000
00001000
00000000
00110000
00000000
,
10000000
00010000
01000000
00100000
00010000
00001000
00000100
00000010
,
00000000
00000010
00001000
00000001
00000010
00001000
00010000
00100000
,
00000000
00100000
01000000
00010000
10000000
01000000
00010000
00001000
,
00000000
00010100
00000000
01001000
00000000
00010000
01000000
00000000
,
10010000
00000000
10000000
01000000
00010000
00001000
00000100
00000001
,
00001001
00000000
00000001
00000100
00000000
00000001
00000010
00000100
,
00001000
00000000
00000001
00000010
00000100
00001000
00000100
00010000
,
00000000
00001000
00100000
01000000
00000000
10000000
10000000
00000000
,
10010000
00000000
01100000
00000000
10000000
01000000
00010000
00001000
,
00000000
00000110
00000000
00001001
00000000
00000010
00000001
00000100
,
00001000
00000000
00110000
00000000
00010000
10000000
01000000
00100000
,
00000000
00010000
01000000
10000000
00000000
01000000
01000000
00000000
,
00010000
00000000
00100000
01000000
00000000
00010000
00001000
00000100
,
00000001
00001000
00000100
00000001
00000000
00000100
00001000
00000001
,
00000000
00001010
00000000
00011000
00000000
00110000
01000000
10000000
,
00010000
10000000
01000000
00010000
00000000
00001000
00001000
00000000
,
00101000
00011000
00010010
00011000
,
01001000
00000000
00011000
00000000
00010100
00000000
00011000
00100000
,
00010000
00011000
00001010
00011000
,
01010000
00000000
10100000
00000000
01000000
00010000
10000000
01000000
,
00010000
00001000
00000100
00000000
00001000
00010000
01000000
00000000
,
00010000
00001000
00000010
00000000
00001000
00010000
00100000
00000000
,
10000000
01000000
00100000
00010000
01000000
00001000
00010000
00000100
,
00000020
00000000
00000030
00001100
,
00011000
00000000
00011000
00000000
00100000
10000000
01000000
01010000
,
00000000
00011000
00000000
00001100
00000000
00000001
00001000
00000100
,
00000010
00000000
00001001
00000000
00000100
00001000
00010000
01000000
,
00000000
10000000
00010000
01000000
00000000
00100000
00100000
00000000
,
10010000
00000000
01100000
00000000
10000000
01000000
00010000
00001000
,
00000100
00000000
00000001
00000100
00000000
00000010
00001000
00000100
,
00000000
00011000
00000000
00101000
00000000
00011000
00000000
00010100
,
00001000
00000001
00000100
00001000
00010000
00100000
10000000
00010000
,
10010000
00000000
01100000
00000000
10010000
01000000
00100000
00010000
,
00000000
01010000
00000000
00011000
00000000
00000010
00000100
00000001
,
00001001
00000000
00001001
00000100
00000000
00001000
00000001
00000100
,
00000000
00001000
00010000
01000000
00000000
00010000
10000000
00100000
,
01000000
00000000
10010000
00000000
00100000
10000000
00010000
10000000
,
01000000
00010000
00001000
00000100
00000000
00000001
00000010
00000100
,
00000000
00000110
00000000
00001001
00000000
00000001
00000100
00001000
,
00010000
01000000
10000000
00100000
00000000
10000000
01000000
00010000
,
00001000
00000010
00001000
00010000
00100000
00010000
00001000
00000000
,
00010000
01000000
00010000
00001000
00000100
00001000
00010000
00000000
,
01000000
10000000
00100000
00000000
00010000
00001000
00000100
00000000
,
00001000
00010000
01000000
00100000
00000000
00000000
00000000
00000000
,
00000000
00000000
00000000
00000000
;
