
//----- song ID: heal -----//
#TITLE:Healing Vision ~Angelic mix~;
#ARTIST:2MB;
#BANNER:Healing Vision ~Angelic mix~.png;
#BACKGROUND:Healing Vision ~Angelic mix~-bg.png;
#CDTITLE:./CDTitles/DDRMAX.png;
#MUSIC:Healing Vision ~Angelic mix~.ogg;
#SAMPLESTART:39.18;
#SAMPLELENGTH:15;
#DISPLAYBPM:46:196;
#BPMS:0=49.05,3=49,8=196,295=49;
#STOPS:230=0.307;
#BGSTAGE:3;
#NOTES:
     dance-single:
     :
     Beginner:
     5:
     :
0000
0000
0000
0000
,
0000
0000
0000
0000
,
0000
1000
1000
1000
,
0000
0001
0001
0001
,
0000
1000
1000
1000
,
0000
0001
0001
0001
,
0000
0100
0100
0100
,
0000
0001
0001
0001
,
0000
1000
1000
1000
,
0000
0100
0100
0100
,
0100
0000
0000
0000
,
0001
0000
0000
0000
,
0001
0000
0000
0000
,
0001
0000
0000
0000
,
1000
0000
0000
0000
,
1000
0000
0000
0000
,
1000
0000
0000
0000
,
0010
0010
0010
0000
,
0001
0000
0000
0000
,
1000
0000
0000
0000
,
0001
0000
0000
0000
,
1000
0000
0000
0000
,
0110
0000
0000
0000
,
1001
0000
0000
0000
,
0110
0000
0000
0000
,
1000
1000
1000
0000
,
0010
0010
0010
0000
,
0001
0001
0001
0000
,
0100
0100
0100
0000
,
1000
1000
1000
0000
,
0100
0100
0100
0000
,
0010
0010
0010
0000
,
0001
0001
0001
0000
,
0100
0100
0100
0000
,
0010
0010
0010
0010
,
0010
0010
0010
0010
,
0000
0010
0000
0100
,
0000
1000
0000
0100
,
0000
0100
0000
0100
,
0000
0001
0000
0001
,
0000
0100
0000
0010
,
0000
0001
0000
0010
,
0010
0000
0000
0001
,
0000
0000
0000
0001
,
0000
0000
0000
0001
,
0000
0000
0001
0001
,
0001
0001
0000
0000
,
0010
0010
0000
0000
,
1000
1000
0000
0000
,
0100
0100
0100
0100
,
0100
0000
0000
0000
,
1001
0000
0000
0000
,
0110
0000
0000
0000
,
1001
0000
0000
0000
,
0001
0001
0000
0000
,
1000
1000
0000
0000
,
1000
1000
1000
1000
,
1000
1000
1000
0000
,
0000
0001
0001
0000
,
0000
0001
0001
0000
,
0000
1000
1000
0000
,
0000
1000
1000
0000
,
0000
0010
0010
0000
,
0000
0010
0010
0000
,
0000
0001
0000
0000
,
0000
0001
0000
0000
,
0000
0100
0100
0000
,
0000
0100
0100
0000
,
0000
0010
0010
0000
,
0000
0010
0010
0000
,
0000
1000
1000
1000
,
0000
0001
0001
0001
,
0000
0010
0010
0010
,
0000
0100
0100
0100
,
0000
0000
0000
0000
;
#NOTES:
     dance-single:
     :
     Easy:
     7:
     :
0000
0000
0000
0000
,
0000
0000
0000
0000
,
0011
1000
1000
1000
,
1000
0100
0001
0010
,
0010
1000
0001
1000
,
0010
0001
1000
0001
,
1010
0001
0001
0001
,
0001
0100
1000
0010
,
0010
0001
1000
0001
,
0010
1000
0001
1000
,
0001
0100
1000
0100
,
0001
0100
1000
0010
,
0001
0100
1000
0100
,
0001
0100
1000
0010
,
0010
0001
0010
1000
,
0010
0001
0010
1000
,
0010
0001
0100
0100
,
0010
1000
0100
0100
,
1000
0001
0001
1000
,
0010
1000
0001
1000
,
0001
1000
1000
0001
,
0010
0001
1000
0001
,
0010
0000
0000
0010
0000
0000
0000
0000
,
0010
0000
0000
1001
0000
0000
0000
0000
,
1001
0000
0000
0110
0000
0000
0000
0000
,
0010
0001
0100
1000
,
0010
0010
0010
0010
,
0001
0001
1000
0001
,
0001
0010
0001
0100
,
0010
0001
0001
0100
,
0100
0100
0100
0100
,
1000
1000
0001
1000
,
1000
0100
1000
0010
,
0100
1000
1000
0000
,
0010
0010
0010
0010
,
1000
1000
0001
1000
,
1000
0010
1000
0100
,
0010
1000
1000
0100
,
0100
0100
0100
0100
,
0001
0001
1000
0001
,
0001
0100
0001
0010
,
0100
0001
0001
0010
,
0010
1001
0100
0001
,
0010
1000
0100
0001
,
0001
1000
0100
0001
,
0010
1000
0100
0001
,
0010
1001
0100
1000
,
0010
0001
0100
1000
,
1000
0001
0100
1000
,
1001
0000
1001
0000
1000
0001
1000
0001
,
1000
0000
0000
0000
,
0000
0000
0000
0000
,
0000
0000
0000
0000
,
0000
0000
0000
0000
,
0001
0001
0100
0001
,
0010
0001
0100
1000
,
1000
1000
0100
1000
,
1000
0000
0100
0000
0001
0000
0001
0100
,
1000
0100
0001
0100
,
1000
0000
0100
0000
0001
0000
0001
0100
,
1000
0100
0001
0010
,
1000
0000
0100
0000
0001
0000
1000
0100
,
0001
0100
1000
0100
,
0001
0000
0100
0000
1000
0000
1000
0100
,
0001
0100
1000
0100
,
0001
0100
1000
1001
,
0001
0010
1000
0010
,
0001
0100
0100
0010
,
1000
0010
0001
0010
,
1000
0100
0100
1000
,
0100
0001
0100
1000
,
0100
0001
0001
1000
,
0001
0010
1000
0100
,
1000
0000
0000
0000
0100
0000
0000
0000
0100
0000
0000
0000
0001
0001
0000
0000
,
0000
0000
0000
0000
;
#NOTES:
     dance-single:
     :
     Medium:
     11:
     :
0000
0000
0000
0000
,
0000
0000
0000
0000
,
0011
0000
1000
0001
1000
0000
1000
0000
,
1000
0101
0001
0010
,
0010
0000
1000
0001
0100
0000
1000
0000
,
0010
0101
1000
0001
,
1010
0000
0001
1000
0001
0000
0001
0000
,
0001
1100
1000
0010
,
0010
0000
0001
1000
0100
0000
0001
0000
,
0010
1100
0001
1000
,
1000
0001
0100
0010
1000
0000
0100
0010
,
0001
0000
0100
0001
1000
0000
0010
0001
,
1000
0000
0100
1000
0001
0000
0100
0001
,
0010
0001
1100
0101
,
1000
0001
0100
0010
1000
0000
0100
1000
,
0001
0000
0100
0010
1000
0000
0100
1000
,
0001
0000
0100
0001
1000
0000
0100
0001
,
0010
0000
0100
1000
0010
0000
0100
0000
,
0001
0100
0001
1000
0010
0000
0100
0010
,
0001
0000
0100
0010
0100
0000
0010
1000
,
0001
0000
0100
0010
1000
0000
0100
0010
,
0001
0100
1100
0101
,
1000
0100
0001
0100
0000
0000
0000
0000
,
0001
0100
1000
0100
0000
0000
0000
0000
,
0001
1000
0001
0100
0000
0000
0000
0000
,
1000
0001
1000
0100
1000
0010
0100
0000
,
0010
0010
1010
0010
,
0001
1000
0001
0000
0010
1000
0001
0000
,
0001
0110
1001
0100
,
0010
0000
0001
0000
0001
1000
0100
0000
,
0010
0010
0011
0010
,
1000
0001
1000
0000
0010
0001
1000
0000
,
1000
0110
1001
0100
,
0010
0000
1000
0000
1000
0001
0100
0000
,
0010
0010
0011
0010
,
1000
0001
1000
0000
0010
0001
1000
0000
,
1000
0110
1001
0100
,
0010
0000
1000
0000
1000
0001
0100
0000
,
0010
0010
1010
0010
,
0001
1000
0001
0000
0010
1000
0001
0000
,
0001
0110
1001
0110
,
0011
0101
1100
1010
,
0010
0000
1000
0100
0010
0000
0001
0100
,
0010
0000
1000
0001
0100
0000
0001
0000
,
1000
0000
1100
0000
0100
0000
0001
1000
,
0010
0000
1000
0001
0100
0010
0001
0000
,
0010
0000
0101
0000
0010
0000
1000
0100
,
0010
0000
0001
1000
0100
0000
1000
0001
,
1000
0000
0001
1000
0100
0000
1000
0001
,
0010
0001
1000
0000
1000
0001
1000
0001
,
1000
0000
0001
1100
0000
0000
0000
0000
,
0011
0000
1000
0100
0000
0000
0000
0000
,
1010
0000
0001
0100
0000
0000
0000
0000
,
0110
0000
1000
0001
0000
0000
0000
0000
,
0011
0000
0001
1000
0100
0000
0001
0000
,
1010
0000
1000
0001
0100
0000
1000
0000
,
1001
0000
1000
0001
0100
0000
1000
0000
,
0110
0000
1000
0001
0100
0000
0001
1000
,
0001
0000
0010
0100
1000
0001
0100
0010
,
1000
0000
0100
0000
0001
0000
0001
0100
,
0010
0000
0100
0001
1000
0100
0010
0001
,
1000
0000
0100
0000
0001
0000
1000
0001
,
1000
0000
0010
0100
0001
1000
0100
0010
,
0001
0000
0101
0000
1100
0000
1000
0100
,
0010
0000
0100
1000
0001
0100
0010
1000
,
0001
1100
0101
0010
,
0100
0010
0100
0000
0010
0100
0001
0000
,
0001
1000
0100
0000
0100
0010
0100
0000
,
1000
0001
0010
0000
1000
0001
0010
0000
,
1000
0001
0100
0001
0100
0001
1000
0000
,
0100
1000
0001
0000
0100
0001
1000
0000
,
0100
1000
0001
0000
0001
1000
0001
0000
,
0001
1000
0010
0000
1000
0001
0100
0000
,
1000
0000
0001
0000
0100
0000
1000
0000
0010
0000
1000
0000
0001
0001
0000
0000
,
0000
0000
0000
0000
;
#NOTES:
     dance-single:
     :
     Hard:
     13:
     :
0000
0000
0000
0000
,
0000
0000
0000
0000
,
0011
0000
1000
0001
0100
0010
1000
0100
,
0010
0000
0001
1000
0100
0010
0001
0100
,
0010
0000
1000
0100
0001
0010
1000
0100
,
0010
0000
0001
0100
1000
0010
0001
0100
,
0001
0000
1000
0100
0001
0010
1000
0100
,
0010
0000
0001
0100
1000
0010
0001
0100
,
0010
0000
1000
0001
0100
0010
1000
0100
,
0010
0000
0001
0100
1000
0010
0001
0100
,
0010
0000
0001
1000
0010
0000
1000
0100
,
0010
0000
0001
0100
0001
0010
1000
0100
,
0010
0000
1000
0100
0001
0000
1000
0100
,
0010
0000
0001
0100
1000
0010
0001
0100
,
0010
0000
0001
0100
1000
0000
0001
0100
,
0010
0000
1000
0100
0001
0010
1000
0100
,
0010
0000
0001
0100
1000
0000
0001
0100
,
0010
0000
0001
1000
0010
0001
1000
0001
,
1100
0000
0001
0100
0001
0000
1000
0100
,
0010
0000
1000
0001
0100
0010
1000
0100
,
0010
0000
0001
1000
0100
0000
0001
0100
,
0010
0000
0001
1000
0100
0010
1000
0001
,
1000
0000
0010
0101
0000
0000
0000
0000
,
0001
0000
0010
1100
0000
0000
0000
0000
,
1010
0000
0010
0101
0000
0000
0000
0000
,
0001
1000
0010
0100
0001
0010
0100
0000
,
1010
0000
0010
0000
0010
0100
0010
0100
,
0001
1000
0001
0010
1000
0010
0001
1000
,
0001
0000
0010
1000
0001
1000
0100
0000
,
0010
1000
0001
1000
0001
1000
0100
0000
,
0101
0000
0100
0000
0100
0010
0100
0010
,
1000
0001
1000
0100
0001
0100
1000
0001
,
1000
0000
0100
0001
1000
0001
0010
0000
,
0100
0001
1000
0001
1000
0001
0010
0000
,
0011
0000
0010
0000
0010
0100
0010
0100
,
1000
0001
1000
0010
0001
0010
1000
0001
,
1000
0000
0010
0001
1000
0001
0100
0000
,
0010
0001
1000
0001
1000
0001
0100
0000
,
1100
0000
0100
0000
0100
0010
0100
0010
,
0001
1000
0001
0100
1000
0100
0001
1000
,
0001
0000
0100
1000
0001
1000
0010
0000
,
0100
1000
0001
0100
0001
1000
0010
0100
,
0010
0000
1100
0000
0010
0100
0001
0100
,
0010
0000
1000
0001
0100
0000
0001
0000
,
1000
0000
1100
0000
0100
1000
0001
0100
,
0001
0000
0010
0100
0001
1000
0100
0100
,
0010
0000
0101
0000
0010
0100
1000
0100
,
0010
0000
0001
1000
0100
0000
1000
0000
,
0001
0000
0101
0000
0100
0001
1000
0100
,
1000
0000
0010
0100
0001
1000
0001
0100
,
1000
0000
0100
0101
0000
0000
1010
0000
,
0001
0000
0100
1100
0000
0000
0011
0000
,
1100
0000
0010
0110
0000
0000
0011
0000
,
0101
0000
0010
0110
0000
0000
1001
0000
,
0010
0000
0100
1000
0010
0100
0001
0100
,
0001
0000
0001
0100
0001
1000
0010
0100
,
0001
0000
0010
1000
0010
0100
0010
1000
,
0100
0000
0001
1000
0010
0001
0010
0100
,
1000
0010
0100
0001
1000
0100
0010
0001
,
0100
0001
1000
0100
1000
0001
0010
0001
,
1000
0010
0100
0001
1000
0100
0010
0001
,
0100
0010
1000
0001
1000
0001
0010
1000
,
0100
0010
0001
1000
0001
1000
0100
0010
,
0001
0100
0010
1000
0001
1000
0010
0001
,
0100
0001
1000
0100
0010
0001
0100
0010
,
1000
0001
0100
0001
1000
0100
0001
0100
,
0010
1000
0001
1000
0010
0100
0001
1000
,
0100
0010
0001
0100
0001
0100
1000
0100
,
0010
0001
0010
0001
0100
0001
0010
0100
,
1000
0001
0100
0010
1000
0001
0010
1000
,
0001
0010
0001
0100
0001
1000
0100
0010
,
0001
1000
0100
1000
0001
0100
0010
0001
,
1000
0100
0010
0001
0100
0010
1000
0001
,
0010
0000
0100
0000
1000
0000
0010
0000
0100
0000
0100
0000
0001
0001
0000
0000
,
0000
0000
0000
0000
;
#NOTES:
     dance-single:
     :
     Challenge:
     16:
     :
0000
0000
0000
0000
,
0000
0000
0000
0000
,
0011
0000
0000
0000
1000
0000
0001
0000
0100
0010
1000
0000
0001
0000
0010
0000
,
0100
0000
0000
0000
0001
0000
1000
0000
0010
0100
0001
0000
1000
0000
0100
0000
,
0010
0000
0000
0000
1000
0000
0001
0000
0100
0010
1000
0000
0100
0000
0010
0000
,
0001
0000
0000
0000
1000
0000
0100
0000
0010
0001
1000
0000
0100
0000
0001
0000
,
0010
0000
0000
0000
0001
0000
0010
0000
0100
1000
0001
0000
0010
0000
1000
0000
,
0100
0000
0000
0000
1000
0000
0010
0000
0100
0001
1000
0000
0100
0000
0001
0000
,
1000
0000
0000
0000
0001
0000
0100
0000
0010
1000
0001
0000
0100
0000
1000
0000
,
0001
0000
0000
0000
1000
0000
0100
0000
0010
0001
1000
0000
0010
0000
0001
0000
,
1001
0000
0000
0000
0001
0000
1000
0000
0010
1000
0001
0000
1000
0000
0100
0000
,
0010
0000
0001
0000
0100
0000
1000
0000
0001
0100
0001
0000
1000
0000
0100
0000
,
0010
0000
0001
0000
1000
0000
0100
0000
0010
0001
1000
0000
0001
0000
0100
0000
,
0010
0000
1000
0000
0001
0000
0100
0000
0010
1000
0001
0000
1000
0000
0010
0000
,
0100
0000
0001
0000
1000
0000
0001
0000
0010
0001
1000
0000
0001
0000
0100
0000
,
0010
0000
1000
0000
0010
0000
0001
0000
1000
0010
1000
0000
0001
0000
0010
0000
,
0100
0000
1000
0000
0001
0000
0010
0000
0100
0010
0001
0000
1000
0000
0010
0000
,
0100
0000
0001
0000
1000
0000
0010
0000
0100
0010
1000
0000
0001
0000
0100
0000
,
0110
0000
0000
0000
1000
0000
0010
0000
1000
0000
0001
0000
1000
0100
0010
0000
,
0100
0000
1000
0000
0001
0100
0010
0000
0100
0000
0001
0000
1000
0100
0010
0000
,
0100
0000
1000
0000
0001
0010
0100
0000
0010
0000
0001
0000
1000
0010
0100
0000
,
0010
0000
1000
0000
0001
0010
0100
0000
0010
0000
0001
0000
1000
0010
1000
0010
,
1000
0000
1010
0110
0000
0000
0000
0000
,
0101
0000
1001
1100
0000
0000
0000
0000
,
1001
0000
0011
0110
0000
0000
0000
0000
,
1000
0000
0001
0000
0100
0000
0010
0000
1000
0000
0100
0000
0010
0100
0010
0100
,
0010
0000
0010
1000
0010
0001
0010
0100
,
0110
1000
0001
0100
0101
1000
0010
0100
,
0001
0100
1000
0010
0001
0100
1000
0010
,
2000
0001
0001
0001
3200
0010
0010
0010
,
1300
0000
0100
0010
0100
0001
0100
1000
,
1001
0001
0100
0010
0110
0100
0001
1000
,
0001
0010
1000
0100
0001
0010
1000
0100
,
1100
0001
0100
0010
0110
1000
0001
0100
,
0010
0000
0010
0001
0010
1000
0010
0100
,
0110
0001
1000
0100
1100
0001
0010
0100
,
1000
0100
0001
0010
1000
0100
0001
0010
,
0002
1000
1000
1000
0203
0010
0010
0010
,
0301
0000
0100
0010
0100
1000
0100
0001
,
1001
1000
0100
0010
0110
0100
1000
0001
,
0100
0001
0100
0001
0100
0000
0010
0000
1000
0010
1000
0010
1000
0000
0001
0000
,
1001
1000
1000
1000
1001
0001
0001
0001
,
1001
0000
0000
0000
1100
0000
0001
0000
0100
0010
1000
0000
0001
0000
0010
0000
,
0001
0000
0000
0000
0101
0000
1000
0000
0010
0100
0001
0000
1000
0000
0010
0000
,
1000
0000
0000
0000
1010
0000
0001
0000
0010
0100
1000
0000
0001
0000
0100
0000
,
0001
0000
0000
0000
0011
0000
1000
0000
0100
0010
0001
0000
0100
0000
0100
0000
,
0101
0000
0000
0000
1010
0000
1000
0000
0001
0010
0100
0000
1000
0000
0100
0000
,
1100
0000
0000
0000
0011
0000
0001
0000
1000
0100
0010
0000
0001
0000
0010
0000
,
0011
0000
0000
0000
1100
0000
1000
0000
0001
0010
0100
0000
1000
0000
0100
0000
,
0110
0000
1001
0000
2000
3002
2003
3002
,
1003
0000
0110
1100
0000
0000
1010
0000
,
0101
0000
0011
0110
0000
0000
1100
0000
,
1001
0000
1010
0110
0000
0000
0101
0000
,
1001
0000
0011
1100
0000
0000
0110
0000
,
1001
0000
0001
1000
1100
0100
0110
0010
,
0011
0000
1000
0001
0101
0100
0110
0010
,
1010
0000
0001
0010
0110
0100
1100
1000
,
1010
0000
0000
0000
0001
0000
0010
0000
0011
0000
0001
1000
0100
0000
0010
0000
,
0001
0100
0010
0000
1000
0000
0001
0000
0010
0100
1000
0000
0010
0000
1000
0000
,
0001
0100
0010
0000
1000
0000
0100
0000
1000
0001
0100
0000
0010
0000
1000
0000
,
0001
0010
0100
0000
1000
0000
0010
0000
0100
0001
1000
0000
0001
0000
0010
0000
,
0100
1000
0010
0000
0100
0000
0010
0000
0100
0001
1000
0000
0010
0000
0001
0000
,
1000
0100
0010
0000
0100
0000
1000
0000
0001
0010
0100
0000
0010
0000
0001
0000
,
1000
0010
0100
0000
0010
0000
1000
0000
0010
0100
0001
0000
0010
0000
1000
0000
,
0010
1000
0001
0000
0010
0000
0001
0000
0100
0001
1000
0000
0100
0000
0010
0000
,
0001
0100
0010
0000
1000
0000
0100
0000
0010
0001
1000
0000
0100
0000
0001
0000
,
0100
0000
0010
0000
1000
0000
0001
0000
1000
0100
0010
0001
1000
0000
0010
0000
,
0100
0000
0001
0000
1000
0000
0100
0000
0010
0001
1000
0100
0010
0000
1000
0000
,
0001
0000
0100
0000
0010
0000
1000
0000
0001
0100
0010
1000
0001
0000
0100
0000
,
0010
0000
1000
0000
0100
0000
0010
0000
0100
1000
0001
0010
0100
0000
0001
0000
,
0010
0100
1000
0000
0010
0000
0100
0000
0001
1000
0100
0010
0001
0000
1000
0000
,
0010
0100
0001
0000
1000
0000
0100
0000
1000
0010
0100
0001
0010
0000
1000
0000
,
0001
0010
0100
0000
0010
0000
0001
0000
1000
0010
0100
0001
1000
0000
0100
0000
,
0010
0001
1000
0000
0010
0000
0100
0000
0001
0010
0100
1000
0001
0001
0000
0000
,
0000
0000
1000
1010
0000
0001
0101
0000
0000
1010
1010
0000
0101
0101
0000
0000
,
0000
0000
0000
0000
;
#NOTES:
     dance-double:
     :
     Easy:
     8:
     :
00000000
00000000
00000000
00000000
,
00000000
00000000
00000000
00000000
,
00110000
10000000
10000000
10000000
,
10000000
01000000
00010000
00001000
,
00001000
00000100
00000001
00000100
,
00000001
00000010
00000100
00001000
,
00001100
00000001
00000001
00000001
,
00000001
00000100
00001000
00010000
,
00010000
01000000
10000000
01000000
,
10000000
00100000
01000000
00010000
,
00010000
01000000
10000000
01000000
,
00010000
01000000
10000000
00100000
,
00010000
01000000
10000000
01000000
,
00010000
00001000
00000100
00000001
,
00001000
00000100
00000001
00000100
,
00001000
00000100
00000001
00000010
,
00001000
00000100
00000001
00000100
,
00001000
00010000
01000000
10000000
,
00010000
10000000
10000000
01000000
,
00010000
00001000
00010000
00001000
,
00000100
00000001
00000001
00000100
,
00001000
00010000
00001000
00010000
,
00011000
00000000
00000000
01000000
00000000
00000000
00000000
00000000
,
00011000
00000000
00000000
00000100
00000000
00000000
00000000
00000000
,
00011000
00000000
00000000
00100000
00000000
00000000
00000000
00000000
,
01000000
10000000
00010000
01000000
,
10100000
01000000
00010000
00011000
,
00000010
00000011
00000100
00000001
,
00001000
00001100
00000011
00001000
,
00010000
01000000
01000000
10000000
,
01000000
01000000
01000000
01000000
,
00010000
00010000
10000000
01000000
,
00010000
00001000
00000100
00000001
,
00000100
00001000
00001000
00000000
,
00000011
00000100
00001000
00011000
,
00100000
10100000
01000000
10000000
,
00010000
01010000
10100000
00010000
,
01000000
00010000
00010000
00001000
,
00000100
00000100
00000100
00000100
,
00000001
00000001
00001000
00000001
,
00000001
00000100
00001000
00010000
,
01000000
10000000
10000000
00100000
,
00100000
00000000
00000000
00000000
,
00000000
00000000
00000000
00000010
,
00000010
00000001
00001000
00000100
,
00000010
00000001
00000100
00001000
,
00010000
00011000
01000000
00100000
,
10000000
00100000
00010000
01000000
,
10000000
01000000
00010000
00001000
,
00011000
00000000
00011000
00000000
00010000
00001000
00010000
00001000
,
00010000
00000000
00000000
00000000
,
00011000
00000000
00000000
00000100
00000000
00000000
00000000
00000000
,
00000010
00000000
00000000
00001000
00000000
00000000
00000000
00000000
,
00010000
00000000
00000000
10000000
00000000
00000000
00000000
00000000
,
10000000
10000000
01000000
10000000
,
00100000
10000000
01000000
00010000
,
00001000
00001000
00010000
00001000
,
00001000
00000000
00000100
00000000
00000001
00000000
00000001
00000100
,
00001000
00000100
00001000
00010000
,
10000000
01000000
10000000
00100000
,
10000000
01000000
00010000
00001000
,
00000100
00000000
00000001
00000000
00001000
00000000
00001000
00000100
,
00000001
00000100
00001000
00010000
,
01000000
00000000
10000000
00000000
00010000
00000000
00010000
01000000
,
10000000
01000000
10000000
00100000
,
10000000
01000000
00010000
00011000
,
00001000
00000100
00000001
00000010
,
00000100
00001000
00001000
00000001
,
00000001
00001000
00000100
00001000
,
00000001
00000010
00000100
00001000
,
00010000
00100000
01000000
10000000
,
00100000
10000000
10000000
01000000
,
00100000
10000000
01000000
00010000
,
00001000
00000000
00000000
00000000
00000100
00000000
00000000
00000000
00000100
00000000
00000000
00000000
00000001
00000001
00000000
00000000
,
00000000
00000000
00000000
00000000
;
#NOTES:
     dance-double:
     :
     Medium:
     10:
     :
00000000
00000000
00000000
00000000
,
00000000
00000000
00000000
00000000
,
00110000
00000000
10000000
00010000
10000000
00000000
10000000
00000000
,
10000000
01010000
10000000
01000000
,
00010000
00000000
00001000
00000100
00000001
00000000
00001000
00000000
,
00000010
00000101
00001000
00000001
,
00001010
00000000
00000001
00001000
00000001
00000000
00000001
00000000
,
00000001
00001100
00000001
00000100
,
00001000
00000000
00010000
01000000
10000000
00000000
00010000
00000000
,
00100000
11000000
00010000
10000000
,
00010000
10000000
01000000
00010000
00001000
00000000
00010000
00001000
,
00000100
00000000
00000001
00001000
00000100
00000000
00000001
00001000
,
00000100
00000000
00000001
00001000
00000100
00000000
00000010
00000001
,
00000100
00000010
00001010
00001001
,
00001000
00000001
00000100
00001000
00010000
00000000
00001000
00010000
,
01000000
00000000
10000000
00010000
01000000
00000000
10000000
00010000
,
01000000
00000000
10000000
00010000
01000000
00000000
00100000
10000000
,
01000000
00000000
10000000
00010000
10000000
00000000
01000000
00000000
,
00100000
10000000
00100000
01000000
00100000
00000000
10000000
01000000
,
00100000
00000000
00010000
01000000
00010000
00000000
00001000
00000100
,
00000001
00000000
00000010
00000100
00001000
00000000
00000010
00000100
,
00000001
00000100
00000101
00001100
,
00000010
00001000
00000010
00000100
00000000
00000000
00000000
00000000
,
00001000
00010000
00001000
01000000
00000000
00000000
00000000
00000000
,
00010000
00100000
00010000
01000000
00000000
00000000
00000000
00000000
,
00100000
10000000
01000000
00010000
00001000
00010000
00001000
00000000
,
00100000
00100000
00110000
00100000
,
10000000
00010000
10000000
00000000
00100000
10000000
00010000
00000000
,
01000000
01010000
00011000
00000100
,
00000010
00000000
00000001
00000000
00001000
00000001
00000100
00000000
,
00000010
00000010
00001010
00000010
,
00000001
00001000
00000001
00000000
00000100
00001000
00010000
00000000
,
00001000
00011000
01010000
00100000
,
01000000
00000000
00010000
00000000
00001000
00000100
00000001
00000000
,
00000010
00000010
00000011
00000010
,
00000001
00001000
00000001
00000000
00000010
00000001
00001000
00000000
,
00000100
00001100
00011000
01000000
,
00100000
00000000
10000000
00000000
00010000
10000000
01000000
00000000
,
00100000
00100000
00110000
00100000
,
10000000
00010000
10000000
00000000
01000000
00010000
00001000
00000000
,
00010000
00011000
00001100
00000010
,
00000011
00000101
00001100
00011000
,
00100000
00000000
00010000
01000000
00100000
00000000
10000000
01000000
,
00100000
00000000
10000000
00010000
10000000
00000000
01000000
00000000
,
00010000
00000000
00011000
00000000
00001000
00000000
00000100
00000001
,
00001000
00000000
00000100
00001000
00000100
00000010
00000001
00000000
,
00000100
00000000
00001010
00000000
00000100
00000000
00000001
00001000
,
00000100
00000000
00000010
00000001
00000100
00000000
00001000
00010000
,
00001000
00000000
00010000
01000000
10000000
00000000
00010000
10000000
,
00100000
10000000
01000000
00000000
10000000
00010000
10000000
00010000
,
10000000
00000000
00100000
01010000
00000000
00000000
00000000
00000000
,
00110000
00000000
00001000
01000000
00000000
00000000
00000000
00000000
,
00011000
00000000
00000010
00000100
00000000
00000000
00000000
00000000
,
00000101
00000000
00001000
00000001
00000000
00000000
00000000
00000000
,
00001010
00000000
00000100
00001000
00000100
00000000
00000010
00000000
,
00000101
00000000
00000001
00001000
00000100
00000000
00010000
00000000
,
00011000
00000000
00010000
01000000
10000000
00000000
00010000
00000000
,
01100000
00000000
10000000
00010000
01000000
00000000
00010000
10000000
,
00010000
00000000
00100000
01000000
10000000
00010000
01000000
00010000
,
00100000
00000000
01000000
00000000
00010000
00000000
00001000
00010000
,
00001000
00000000
00000100
00000001
00001000
00000100
00000010
00000001
,
00001000
00000000
00000100
00000000
00000010
00000000
00000001
00001000
,
00000001
00000000
00000010
00000100
00001000
00000001
00000100
00000001
,
00001000
00000000
00001100
00000000
00011000
00000000
00010000
00001000
,
00010000
00000000
01000000
10000000
00100000
01000000
00010000
10000000
,
01000000
11000000
01010000
10000000
,
00010000
01000000
00010000
00000000
00100000
00001000
00010000
00000000
,
00001000
00000100
00000001
00000000
00000010
00000100
00000010
00000000
,
00000001
00001000
00000010
00000000
00000001
00001000
00000010
00000000
,
00000100
00001000
00010000
00001000
00010000
00001000
00010000
00000000
,
01000000
10000000
00010000
00000000
01000000
00100000
01000000
00000000
,
00010000
00100000
01000000
00000000
10000000
00010000
10000000
00000000
,
01000000
00010000
00001000
00000000
00001000
00000100
00000001
00000000
,
00001000
00000000
00000001
00000000
00000100
00000000
00000001
00000000
00000010
00000000
00000001
00000000
00001000
00001000
00000000
00000000
,
00000000
00000000
00000000
00000000
;
#NOTES:
     dance-double:
     :
     Hard:
     14:
     :
00000000
00000000
00000000
00000000
,
00000000
00000000
00000000
00000000
,
00110000
00000000
10000000
00010000
01000000
00100000
10000000
01000000
,
00100000
00000000
00010000
10000000
01000000
00010000
00001000
00000100
,
00000001
00000000
00001000
00000100
00001000
00000010
00000100
00000001
,
00000100
00000000
00000001
00000010
00000100
00001000
00010000
01000000
,
00010000
00000000
10000000
01000000
00100000
00010000
10000000
01000000
,
00100000
00000000
00010000
00100000
01000000
10000000
01000000
00010000
,
00001000
00000000
00000100
00000001
00001000
00000010
00001000
00000100
,
00000010
00000000
00000001
00000100
00001000
00000010
00000001
00000100
,
00000010
00000000
00000001
00000100
00001000
00000000
00010000
01000000
,
10000000
00000000
00010000
01000000
00010000
00100000
10000000
01000000
,
00100000
00000000
10000000
01000000
00010000
00000000
00001000
00000100
,
00000001
00000000
00001000
00000100
00000001
00000010
00001000
00000100
,
00000010
00000000
00000001
00000100
00001000
00000000
00010000
01000000
,
00100000
00000000
00010000
10000000
01000000
00100000
00010000
01000000
,
00100000
00000000
10000000
01000000
00010000
00000000
00001000
00000100
,
00000001
00000000
00001000
00000001
00000010
00000001
00001000
00000001
,
00001100
00000000
00001000
00000100
00001000
00000000
00000010
00001000
,
00000100
00000000
00000010
00000100
00001000
00010000
01000000
10000000
,
00100000
00000000
00010000
10000000
01000000
00000000
00010000
00001000
,
00000100
00000000
00000001
00000100
00001000
00000000
00000001
00001000
,
00000001
00000000
00000010
00000101
00000000
00000000
00000000
00000000
,
00001000
00000000
00000100
00001100
00000000
00000000
00000000
00000000
,
00011000
00000000
01000000
01010000
00000000
00000000
00000000
00000000
,
10000000
00010000
00100000
01000000
00010000
10000000
00010000
10000000
,
10100000
00000000
01000000
00000000
00001000
00010000
00001000
00010000
,
00000010
00000000
00000011
00000000
00000100
00001000
00000001
00000010
,
00001000
00000000
00001100
00000000
00000010
00000100
00001000
00000100
,
00001000
00010000
00001000
00010000
00001000
00010000
00000100
00000000
,
00011000
00000000
01000000
00000000
01000000
00100000
01000000
00100000
,
00010000
10000000
00010000
01000000
00001000
01000000
00010000
01000000
,
10000000
00000000
01000000
00010000
10000000
00010000
00100000
00000000
,
01000000
00010000
00001000
00010000
00001000
00000000
00001100
00000000
,
00000011
00000000
00000100
00000000
00010000
00001000
00010000
00001000
,
00100000
00000000
10100000
00000000
01000000
00010000
10000000
00100000
,
00010000
00000000
01010000
00000000
00100000
01000000
00010000
01000000
,
00010000
00001000
00010000
00001000
00010000
00001000
01000000
00000000
,
00011000
00000000
00000100
00000000
00000100
00000010
00000100
00000010
,
00001000
00000001
00001000
00000100
00010000
00000100
00001000
00100000
,
00010000
00000000
00100000
10000000
00010000
10000000
01000000
10000000
,
01000000
00000000
00010000
00001000
00000100
00000000
00000010
00000100
,
00000010
00000000
00000101
00000000
00000010
00000100
00000001
00000100
,
00000010
00000000
00000001
00000100
00001000
00000000
00010000
00000000
,
01000000
00000000
11000000
00000000
01000000
10000000
00010000
01000000
,
00010000
00000000
00100000
01000000
00010000
10000000
01000000
00000000
,
00010000
00000000
00011000
00000000
00000010
00001000
00000100
00001000
,
00000100
00000000
00010000
00001000
00000100
00000000
00000001
00000000
,
00001000
00000000
00001100
00000000
00000100
00000001
00001000
00000100
,
00010000
00000000
00001000
00000000
00001000
00010000
00001000
00010000
,
00000100
00000000
00001000
00001100
00000000
00000000
00011000
00000000
,
01000000
00000000
00010000
01010000
00000000
00000000
00110000
00000000
,
11000000
00000000
00100000
01100000
00000000
00000000
00001000
00000000
,
00011000
00000000
00000010
00000110
00000000
00000000
00001001
00000000
,
00000010
00000000
00000100
00000001
00000010
00000100
00001000
00000100
,
00001000
00000000
00000010
00000100
00010000
00001000
00010000
01000000
,
10000000
00000000
00100000
10000000
00100000
01000000
00100000
10000000
,
01000000
00000000
00100000
00001000
00000100
00000001
00000010
00000100
,
00001000
00000010
00000100
00000001
00001000
00000010
00000100
00001000
,
00010000
01000000
10000000
01000000
10000000
00010000
00100000
00010000
,
10000000
01000000
00100000
00010000
10000000
01000000
00010000
00001000
,
00000100
00000001
00001000
00000001
00001000
00000001
00000010
00001000
,
00000100
00000010
00000100
00001000
00000001
00001000
00000001
00001000
,
00000010
00000100
00001000
00010000
01000000
10000000
00100000
00010000
,
01000000
00010000
10000000
01000000
00100000
00010000
01000000
00100000
,
10000000
01000000
10000000
01000000
00010000
00001000
00000010
00001000
,
00000001
00000100
00000001
00000010
00000100
00001000
00000001
00000100
,
00000010
00001000
00000100
00000001
00000100
00001000
00000010
00000001
,
00000100
00001000
00010000
00001000
00010000
01000000
10000000
01000000
,
10000000
00010000
01000000
00100000
10000000
00010000
00100000
10000000
,
00010000
00100000
00010000
01000000
00010000
10000000
01000000
00100000
,
00010000
10000000
01000000
00010000
00001000
00000100
00000001
00000100
,
00001000
00000100
00000010
00000001
00000100
00000010
00001000
00000001
,
00000010
00000000
00000100
00000000
00001000
00000000
00010000
00000000
01000000
00000000
01000000
00000000
00010000
00010000
00000000
00000000
,
00000000
00000000
00000000
00000000
;
#NOTES:
     dance-double:
     :
     Challenge:
     16:
     :
00000000
00000000
00000000
00000000
,
00000000
00000000
00000000
00000000
,
00110000
00000000
10000000
01000000
00010000
00001000
00000100
00000001
,
00000010
00000000
00000100
00000000
00001000
00000000
00000010
00000000
00000100
00000001
00001000
00000000
00000010
00000000
00000100
00000000
,
00001000
00010000
01000000
10000000
01000000
10000000
00010000
00100000
,
00010000
00000000
10000000
00000000
01000000
00000000
00100000
00000000
00010000
10000000
01000000
00000000
00010000
00000000
00001000
00000000
,
00000100
00000001
00001000
00000001
00001000
00000001
00000010
00001000
,
00000100
00000000
00000010
00000000
00000100
00000000
00001000
00000000
00000001
00001000
00000001
00000000
00001000
00000000
00000010
00000000
,
00000100
00001000
00010000
01000000
10000000
00100000
00010000
01000000
,
00010000
00000000
10000000
00000000
01000000
00000000
00100000
00000000
00010000
01000000
00100000
00000000
10000000
00000000
01000000
00000000
,
10000000
01000000
00010000
00001000
00000010
00001000
00000001
00000100
,
00000001
00000000
00000010
00000000
00000100
00000000
00001000
00000000
00000001
00000100
00000010
00000000
00001000
00000000
00000100
00000000
,
00000001
00000100
00001000
00000010
00000001
00000100
00001000
00010000
,
00001000
00000000
00010000
00000000
01000000
00000000
10000000
00000000
01000000
10000000
00010000
00000000
01000000
00000000
00100000
00000000
,
10000000
00010000
00100000
10000000
00010000
00100000
00010000
01000000
,
00010000
00000000
10000000
00000000
01000000
00000000
00100000
00000000
00010000
10000000
01000000
00000000
00010000
00000000
00001000
00000000
,
00000100
00000001
00000100
00001000
00000100
00000010
00000001
00000100
,
00000010
00000000
00001000
00000000
00000001
00000000
00000010
00000000
00000100
00001000
00010000
00000000
00100000
00000000
00100000
00000000
,
10010000
00000000
00000000
00000000
10000000
00000000
00100000
00000000
10000000
00000000
00010000
00000000
01000000
00001000
00010000
00000000
,
00000100
00000000
00001000
00000000
00000010
00000000
00000100
00000000
00000001
00000000
00000010
00000000
00000100
00001000
00000001
00000000
,
00000100
00000000
00001000
00000000
00010000
00000000
00100000
00000000
10000000
00000000
00010000
00000000
10000000
01000000
00100000
00000000
,
01000000
00000000
10000000
00000000
00100000
00000000
00010000
00000000
00001000
00000000
00000100
00000000
00000001
00001000
00000001
00001000
,
00000001
00000000
00001100
00010100
00000000
00000000
00000000
00000000
,
00011000
00000000
01001000
01010000
00000000
00000000
00000000
00000000
,
10010000
00000000
10100000
01100000
00000000
00000000
00000000
00000000
,
10000000
00000000
01000000
00000000
00100000
00000000
00010000
00000000
00001000
00000000
00000100
00000000
00000010
00000001
00000010
00000001
,
00000010
00000000
00000001
00000100
00000010
00001000
00000010
00010000
,
00001000
00010000
00100000
00010000
00001000
00000100
00001000
00010000
,
00100000
01000000
00010000
00100000
01000000
10000000
01000000
00010000
,
00002000
01000000
01000000
01000000
00023000
00000010
00000010
00000010
,
00031000
00000000
00010000
00001000
00100000
00010000
10000000
01000000
,
00010000
00001000
00000010
00001000
00010000
01000000
00010000
00001000
,
00010000
00000100
00001000
00000010
00000100
00001000
00000001
00000010
,
00000100
00001000
00010000
00100000
01000000
10000000
01000000
00100000
,
00010000
00000000
10000000
01000000
00100000
00010000
00100000
00001000
,
00010000
00001000
00000010
00001000
00010000
01000000
00010000
00001000
,
00000010
00000100
00001000
00000010
00000100
00000001
00000100
00001000
,
00020000
00000100
00000100
00000100
00032000
00100000
00100000
00100000
,
00013000
00000000
00001000
00010000
00000010
00001000
00000001
00000100
,
00001000
00010000
00100000
00010000
00001000
00000100
00001000
00010000
,
00001000
01000000
00010000
00100000
01000000
00010000
01000000
10000000
,
00010000
00010000
00100000
00100000
00001000
00001000
00010000
00010000
,
00000100
00000000
00000000
00000000
00001100
00000000
00000001
00000000
00000010
00000100
00001000
00000000
00000001
00000000
00000100
00000000
,
00000010
00000000
00000000
00000000
00000101
00000000
00001000
00000000
00000010
00010000
00001000
00000000
00100000
00000000
00010000
00000000
,
01000000
00000000
00000000
00000000
01100000
00000000
10000000
00000000
00100000
01000000
00010000
00000000
00100000
00000000
00010000
00000000
,
10000000
00000000
00010000
10000000
01000000
00100000
01000000
00100000
,
00110000
00000000
00000000
00000000
00100000
00000000
00001000
00000000
00010000
00000100
00001000
00000000
00000001
00000000
00000010
00000000
,
00000110
00000000
00000000
00000000
00000100
00000000
00001000
00000000
00000010
00010000
00001000
00000000
00100000
00000000
00010000
00000000
,
10010000
00000000
00000000
00000000
10000000
00000000
00100000
00000000
01000000
00001000
00010000
00000000
00000100
00000000
00001000
00000000
,
00001001
00000000
00000110
00000000
00000002
00002003
00003002
00002003
,
00003001
00000000
00011000
00110000
00000000
00000000
11000000
00000000
,
00110000
00000000
00011000
00001010
00000000
00000000
00000101
00000000
,
00000011
00000000
00001100
00011000
00000000
00000000
01010000
00000000
,
10100000
00000000
01010000
00011000
00000000
00000000
00001100
00000000
,
00001001
00000000
00000001
00000100
00000010
00001000
00000100
00010000
,
00011000
00000000
00001000
00100000
00010000
10000000
01000000
00100000
,
01100000
00000000
01000000
00100000
00010000
00001000
00000100
00000010
,
00000110
00000000
00000000
00000000
00000100
00000000
00001000
00000000
00000001
00000000
00000001
00000100
00000010
00000000
00001000
00000000
,
00000100
00000000
00010000
00000000
00001000
00000000
00010000
00000000
00001000
00100000
00010000
00000000
10000000
00000000
01000000
00000000
,
00100000
00000000
00010000
00000000
01000000
00000000
00010000
00000000
00100000
00001000
00010000
00000000
00000100
00000000
00001000
00000000
,
00000010
00000000
00000100
00000000
00000001
00000000
00000010
00000000
00000100
00001000
00000001
00000000
00000010
00000000
00001000
00000000
,
00010000
00000000
01000000
00000000
10000000
00000000
00010000
00000000
10000000
01000000
10000000
00000000
00010000
00000000
00100000
00000000
,
10000000
00000000
01000000
00000000
00010000
00000000
00001000
00000000
00000010
00000001
00001000
00000000
00000100
00000000
00000001
00000000
,
00001000
00000000
00000010
00000000
00000100
00000000
00000001
00000000
00000010
00000100
00001000
00000000
00000010
00000000
00000001
00000000
,
00001000
00000000
00000100
00000000
00000010
00000000
00000001
00000000
00000100
00000010
00001000
00000000
00000100
00000000
00000010
00000000
,
00001000
00000000
00010000
00000000
01000000
00000000
00100000
00000000
10000000
00010000
00100000
00000000
00010000
00000000
10000000
00000000
,
01000000
00000000
00010000
00000000
00001000
00000000
00000010
00000000
00000001
00000100
00000001
00000100
00000010
00000000
00001000
00000000
,
00000001
00000000
00000100
00000000
00001000
00000000
00010000
00000000
00100000
10000000
00010000
10000000
00010000
00000000
01000000
00000000
,
00001000
00000000
00010000
00000000
00000100
00000000
00001000
00000000
00000001
00000010
00000100
00001000
00000100
00000000
00010000
00000000
,
00001000
00000000
00100000
00000000
00010000
00000000
01000000
00000000
00100000
10000000
00010000
01000000
00010000
00000000
01000000
00000000
,
10000000
00000000
00100000
00000000
01000000
00000000
00010000
00000000
01000000
00001000
00010000
00001000
00010000
00000000
00000100
00000000
,
00001000
00000000
00000010
00000000
00000001
00000000
00000100
00000000
00000010
00001000
00000001
00001000
00000001
00000000
00000010
00000000
,
00001000
00000000
00000001
00000000
00000100
00000000
00001000
00000000
00010000
00100000
01000000
00100000
01000000
00000000
00010000
00000000
,
10000000
00000000
01000000
00000000
00100000
00000000
00010000
00000000
00100000
00001000
00010000
00001000
00010000
00010000
00000000
00000000
,
00000000
00000000
00000100
00001100
00000000
00000001
00000011
00000000
00000000
00001100
00001100
00000000
00011000
00011000
00000000
00000000
,
00000000
00000000
00000000
00000000
;
