
//----- song ID: styl -----//
#TITLE:DIVE(more deep & deeper style);
#ARTIST:BeForU;
#BANNER:DIVE(more deep & deeper style).png;
#BACKGROUND:DIVE(more deep & deeper style)-bg.png;
#CDTITLE:./CDTITLES/DANCE DANCE REVOLUTION HOME VERSION.PNG;
#MUSIC:DIVE(more deep & deeper style).ogg;
#SAMPLESTART:40.175;
#SAMPLELENGTH:15;
#DISPLAYBPM:155;
#BPMS:0=158.7,4=155;
#NOTES:
     dance-single:
     :
     Beginner:
     2:
     :
0000
0000
0000
0000
,
0000
0000
0000
0000
,
0000
0000
0000
0000
,
0000
0000
0000
0000
,
0000
0000
0000
0000
,
0000
1000
0000
0000
,
0000
0001
0000
0000
,
0000
0001
0000
0100
,
0000
1000
0000
0010
,
0000
0000
0000
0000
,
0000
0100
0000
0100
,
0000
0100
0000
0100
,
0000
0010
0000
0010
,
0000
0010
0000
0010
,
0000
1000
0000
1000
,
0000
0001
0000
0001
,
0000
0100
0100
0100
,
0000
0010
0010
0010
,
0010
0000
0000
0000
,
0100
0000
0000
0000
,
0001
0000
0000
0000
,
1000
0000
0000
0000
,
0100
0000
0000
0000
,
0100
0000
0000
0000
,
0001
0000
0001
0000
,
1000
0000
0000
0000
,
0010
0010
0010
0010
,
0010
0010
0010
0000
,
1000
0000
1000
0000
,
0001
0000
1000
0000
,
0100
0100
0100
0000
,
0001
0000
1000
0000
,
0001
0000
1000
0000
,
0010
0010
0010
0000
,
0100
0000
0000
0000
,
0100
0000
0000
0000
,
0001
0000
0000
0000
,
1000
0000
0000
0000
,
1000
0000
0000
0000
,
0001
0000
0000
0000
,
1000
0000
0000
0000
,
0001
0000
0000
0000
,
0100
0000
0000
0000
,
0000
0000
0000
0100
,
0100
0000
0001
0000
,
1000
0000
1000
0000
,
0010
0000
0100
0000
,
0001
0000
1000
0000
,
0010
0000
0100
0000
,
0001
0001
0001
0000
,
1000
0000
0100
0000
,
0001
0000
0010
0000
,
1000
0000
1000
0000
,
0001
0000
0001
0000
,
0100
0000
0001
0000
,
1000
0000
0010
0000
,
0100
0000
0100
0000
,
1000
1000
1000
1000
,
1000
0000
0001
0000
,
1000
0000
0001
0000
,
1000
0000
0001
0000
,
1000
0000
1001
0000
,
0000
0000
0000
0000
;
#NOTES:
     dance-single:
     :
     Easy:
     5:
     :
0000
0000
0000
0000
,
0000
0000
0000
0000
,
0000
0000
0000
0000
,
0000
0000
0000
0000
,
0000
0000
0000
0000
,
1000
0001
0100
0000
,
0001
1000
0100
0000
,
0001
0000
0100
0000
,
1000
0000
0010
0000
,
0000
0000
0000
0000
,
0000
0001
0000
1000
,
0001
0100
0001
0000
,
1000
0000
0001
0000
,
1000
0100
1000
0000
,
0001
1000
0001
0100
,
1000
0001
1000
0100
,
0001
0000
0100
0000
,
0010
0001
0100
0100
,
0010
0000
0000
0000
,
0100
0000
0000
0000
,
0010
0000
0001
0000
,
1000
0000
0000
0000
,
0010
0001
0001
0100
,
0100
1000
1000
0000
,
0010
0000
0001
0000
,
0100
0000
1001
0110
,
0010
0000
0010
0000
,
1000
0001
0100
0000
,
1000
0000
0001
0000
,
1000
0001
1000
0100
,
0010
0000
0100
0000
,
0001
0000
1000
0000
,
0010
0001
0100
1000
,
0001
0001
0001
0001
,
1000
0000
0100
0000
,
0001
0000
0100
0000
,
0001
0000
0100
0000
,
1000
0000
0100
0000
,
1000
0100
0100
0000
,
0001
0100
0100
0000
,
1000
1000
0100
0000
,
0001
0001
0100
1000
,
0010
0000
0000
0000
,
0100
0000
0100
0000
,
1000
0000
0001
0000
,
1000
0001
1000
0100
,
0010
0000
0100
0000
,
0001
0000
1000
0000
,
0010
0001
0100
1000
,
0001
0001
0001
0001
,
0010
0000
0010
0000
,
0001
1000
0100
0000
,
0001
0000
1000
0000
,
0001
1000
0001
0100
,
0010
0000
0100
0000
,
1000
0000
0001
0000
,
0010
1000
0100
0001
,
1000
1000
1000
1000
,
1000
0100
0001
0100
,
1000
0100
0001
0100
,
1000
0100
0001
0100
,
1000
0100
1001
0000
,
0000
0000
0000
0000
;
#NOTES:
     dance-single:
     :
     Medium:
     7:
     :
0000
0000
0000
0000
,
0000
0000
0000
0000
,
0000
0000
0000
0000
,
0000
0000
0000
0000
,
0000
0000
0000
0000
,
0010
0001
1000
0101
,
0010
1000
0001
1100
,
0001
0100
0001
1000
,
0001
0000
1000
0000
0001
1000
0001
0100
,
0000
0000
0000
0000
,
0001
0110
0100
1001
,
1000
0001
0100
0100
,
0001
1000
0100
0000
0001
0000
0100
0000
,
0001
1000
0100
0100
,
0010
0101
1000
0001
,
0010
1100
0001
1000
,
1000
0001
0100
0000
1000
0000
0100
0000
,
0001
0000
0100
0000
1000
0001
0100
0000
,
0010
0000
0000
0000
,
1001
0000
0100
0000
,
0010
1000
0001
0100
,
1000
0000
0001
0000
1000
0000
0001
1000
,
0100
1000
0001
1100
,
1000
0000
0101
0000
1000
0000
0100
0010
,
0100
0000
0000
1000
0001
0000
0000
1000
,
0000
0001
1000
0001
0000
0100
0000
0000
,
0010
0101
1000
0001
,
0100
0001
1000
0100
,
1000
0001
0100
0000
0001
0000
0100
0000
,
1000
1100
0001
0100
,
1000
0000
1000
0000
0001
0100
0001
0000
,
0010
0001
0100
1100
,
0010
0000
1000
0000
0001
1000
0100
0000
,
0001
0001
0001
0001
,
1001
0010
0001
0001
,
0010
0001
1000
1100
,
0000
0010
1000
1000
,
0010
1000
0001
0101
,
1000
1000
0001
0001
,
0010
0001
1000
1100
,
0010
0010
1000
1000
,
0010
0000
1000
0000
0001
1000
0001
1000
,
0000
0000
0000
0000
,
0000
0000
0000
0000
0000
0001
1000
0000
,
0010
0101
1000
0001
,
0100
0001
1000
0100
,
1000
0100
0001
0100
,
1000
1100
0001
0100
,
1000
0000
1000
0000
0001
0100
0001
0000
,
0010
0001
0100
1100
,
0010
1100
0001
1000
,
0100
1000
0001
0100
,
0001
1000
0100
0000
1000
0000
0100
0000
,
0001
0101
1000
0100
,
0001
0000
0001
0000
1000
0100
1000
0000
,
0010
0001
0100
1100
,
0010
0000
1000
0000
0001
1000
0100
0000
,
1000
0000
1000
0001
0000
0100
0100
0000
,
1000
1000
0001
0100
,
1000
0000
0100
0000
0001
1000
0100
0000
,
1000
0100
0001
0100
,
1000
0001
1000
0100
0000
0000
0000
0000
,
0000
0000
0000
0000
;
#NOTES:
     dance-single:
     :
     Hard:
     10:
     :
0000
0000
0000
0000
,
0000
0000
0000
0000
,
0000
0000
0000
0000
,
0000
0000
0000
0000
,
0000
0000
0000
0000
,
0010
1000
0101
0000
1000
0000
0100
0000
,
0010
0100
1000
0000
0001
0000
1100
0000
,
0001
1000
0100
0000
0001
1000
0100
0000
,
0001
1000
0100
0000
0001
1000
0100
0001
,
0000
0000
0000
0000
,
0001
0000
0110
0000
0100
0010
1000
0000
,
1000
0000
0001
0000
0100
0010
0100
0000
,
0001
1000
0100
0000
0001
0000
1100
0000
,
0001
0100
1000
0000
0100
0000
0100
0000
,
0010
1000
0101
0000
1000
0000
0001
0000
,
0010
0001
1100
0000
0001
0000
1000
0000
,
1000
0001
0100
0000
0001
1000
0100
0000
,
0001
1000
0100
1000
0010
0100
0001
0100
,
1000
0000
0001
0000
,
1000
0001
1000
0000
0001
0000
0100
0000
,
0010
0001
1000
0000
0001
0000
0100
0000
,
1000
0100
0001
0000
1000
0000
0001
1000
,
0101
1000
0001
1100
,
1000
0000
0101
0000
1000
0000
0100
0010
,
1001
0000
0000
1000
0110
0000
0000
1100
,
0000
0010
1000
0001
0000
0110
0000
0000
,
0010
1000
0100
0000
1000
0000
0001
0000
,
0100
0001
1000
0010
0100
0001
0100
0010
,
1000
0001
1000
0000
1000
0001
1100
0000
,
1000
0001
1000
0100
0010
0100
1000
0010
,
1000
0001
1000
0000
0001
0100
0001
0000
,
0010
0001
1000
0010
0100
0001
1000
0100
,
0010
0001
1000
0000
0001
1000
0100
0000
,
0001
0010
0001
1000
0001
0100
0001
1000
,
0010
1000
0000
0001
0000
0100
0000
1000
,
0010
0001
0000
1000
0000
0100
0000
0001
,
0010
1000
0100
0001
0000
0100
0000
1100
,
0010
0001
0100
1000
0000
0100
0000
1100
,
0010
0001
0100
0000
0010
0100
1000
0000
,
0100
0010
0100
0000
0001
1000
0100
0000
,
0010
0100
1000
0000
1000
0001
0100
0000
,
0010
1000
0001
0000
0001
1000
0001
1000
,
0010
0101
1000
0001
,
0010
0100
1000
0001
0000
1001
0000
0000
,
1000
0001
1000
0000
1000
0001
1100
0000
,
1000
0100
1000
0100
0010
0001
0100
0010
,
1000
0001
1000
0000
0001
0100
0001
0000
,
0010
0001
1000
0010
0100
0001
1000
0100
,
0010
0001
1000
0000
0001
1000
0100
1000
,
0001
0010
0100
1000
0010
0100
0001
1000
,
0001
0010
0100
1000
0010
0100
0001
0000
,
0001
0010
0100
1000
0000
1001
0000
1000
,
0001
1000
0100
0010
0100
0000
1000
0000
,
0001
1000
0101
0000
1000
0001
0100
0000
,
0001
1000
0010
0100
0001
0100
0001
0000
,
0010
1000
0001
0000
0100
0000
1100
0000
,
0010
0001
1000
0000
0001
1000
0100
0000
,
1001
0000
1000
0101
0000
0001
1100
0000
,
1001
0000
1000
0000
0001
1000
0100
0000
,
1000
0000
0101
0000
0001
1000
0100
0000
,
1000
0101
0001
1100
,
1000
0001
0101
1100
0000
0000
0000
0000
,
0000
0000
0000
0000
;
#NOTES:
     dance-double:
     :
     Easy:
     4:
     :
00000000
00000000
00000000
00000000
,
00000000
00000000
00000000
00000000
,
00000000
00000000
00000000
00000000
,
00000000
00000000
00000000
00000000
,
00000000
00000000
00000000
00000000
,
00011000
00010000
00010000
00000000
,
00011000
00001000
00001000
00000000
,
00000010
00000000
00001000
00000000
,
00010000
00000000
01000000
00000000
,
00000000
00000000
00000000
00000000
,
00000000
00010000
00000000
01000000
,
00010000
01000000
00010000
00000000
,
01000000
00000000
00000000
00000000
,
00010000
00001000
00000010
00000000
,
00000010
00000000
00000000
00000000
,
00001000
00000010
00001000
00000000
,
00001000
00000000
00000100
00000000
,
00000010
00000010
00001000
00001000
,
00010000
00000000
00000000
00000000
,
01000000
00000000
00000000
00000000
,
00100000
00000000
00000000
00000000
,
00010000
00000000
00000000
00000000
,
00100000
00010000
00010000
00001000
,
00001000
00000100
00000100
00000000
,
00000010
00000000
00001000
00000000
,
00000100
00000000
00011000
00011000
,
00000010
00000000
00000000
00000000
,
00001000
00010000
00000100
00000000
,
00001000
00000000
00001000
00000000
,
00001000
00010000
01000000
00000000
,
00010000
00000000
01000000
00000000
,
00010000
00000000
00001000
00000000
,
00000010
00001000
00010000
01000000
,
00010000
00010000
00010000
00010000
,
00001000
00000000
00000000
00000000
,
00000010
00000000
00000000
00000000
,
00001000
00000000
00010000
00000000
,
00001000
00000000
01000000
00000000
,
00100000
00010000
00010000
00000000
,
00001000
00000100
00000100
00000000
,
00001000
00001000
00010000
00000000
,
00010000
00010000
00000100
00001000
,
00010000
00000000
00000000
00000000
,
00000000
00000000
00000000
00000000
,
00000010
00000000
00010000
00000000
,
00001000
00010000
00001000
00010000
,
01000000
00000000
00000000
00000000
,
00010000
00000000
00001000
00000000
,
00000010
00000000
00010000
00010000
,
00001000
00010000
00001000
00010000
,
00000010
00000000
00000010
00000000
,
00001000
00010000
00000100
00000000
,
00001000
00000000
00001000
00000000
,
00001000
00010000
01000000
00000000
,
00010000
00000000
01000000
00000000
,
00010000
00000000
00001000
00000000
,
00000010
00001000
00010000
01000000
,
00010000
00010000
00010000
00010000
,
00001000
00001000
01000000
00000000
,
00001000
00010000
00000100
00000000
,
00100000
00010000
00001000
00000100
,
00011000
00011000
00011000
00000000
,
00000000
00000000
00000000
00000000
;
#NOTES:
     dance-double:
     :
     Medium:
     7:
     :
00000000
00000000
00000000
00000000
,
00000000
00000000
00000000
00000000
,
00000000
00000000
00000000
00000000
,
00000000
00000000
00000000
00000000
,
00000000
00000000
00000000
00000000
,
00100000
10000000
00010000
11000000
,
00010000
00001000
00000100
00000101
,
00001000
00000100
00001000
00000001
,
00000010
00000000
00000100
00000000
00010000
00001000
00010000
00000100
,
00000000
00000000
00000000
00000000
,
00010000
00011000
01000000
01100000
,
00010000
10000000
01000000
01000000
,
10000000
00010000
01000000
00000000
00010000
00000000
10000000
00000000
,
01000000
00010000
00001000
00001000
,
00010000
00011000
00001000
00000100
,
00000001
00001001
00000010
00000100
,
00001000
00000001
00000100
00000000
00000010
00000000
00000100
00000000
,
00000001
00000000
00001000
00000000
00000010
00001000
00000100
00000000
,
00001000
00000000
00000000
00000000
,
00011000
00000000
00000000
00000000
,
00100000
10000000
00010000
01000000
,
10000000
00000000
01000000
00000000
10000000
00000000
00010000
10000000
,
01000000
00010000
00001000
00011000
,
01000000
00000000
00011000
00000000
00000100
00000000
00000010
00000100
,
00000010
00000000
00000000
00001000
00000001
00000000
00000000
00001000
,
00000000
00000010
00000100
00001000
00000000
00010000
00000000
00000000
,
00010000
01010000
01000000
10000000
,
00010000
01000000
10000000
00100000
,
00010000
00001000
00000100
00000000
00000001
00000000
00000010
00000000
,
00000100
00000101
00001000
00001100
,
00001000
00000000
00000010
00000000
00000100
00000001
00000100
00000000
,
00000001
00000100
00001000
00011000
,
00010000
00000000
01000000
00000000
10000000
00010000
01000000
00000000
,
00100000
00010000
00001000
00000100
,
00001001
00000001
00001000
00001000
,
00010000
01000000
10000000
11000000
,
00000000
00100000
10000000
10000000
,
00100000
00010000
00001000
01000000
,
00100000
10000000
01000000
00010000
,
00000010
00001000
00010000
00000100
,
00000010
00000001
00000100
00001000
,
00001000
00000000
00010000
00000000
00001000
00010000
00001000
00010000
,
00000000
00000000
00000000
00000000
,
00000000
00000000
00000000
00000000
00000000
00010000
00001000
00000000
,
01000000
00011000
00001000
00000100
,
00000001
00000010
00000100
00001000
,
00000010
00000010
00001000
00010000
,
01000000
01100000
10000000
00010000
,
01000000
00000000
00010000
00000000
10000000
00010000
10000000
00000000
,
10010000
01010000
00001010
00000110
,
00000010
00000100
00000001
00001000
,
00001100
00000101
00000001
00000100
,
00000010
00000100
00001000
00000000
00010000
00000000
01000000
00000000
,
10000000
11000000
00010000
01000000
,
00100000
00000000
00100000
00000000
10000000
01000000
10000000
00000000
,
01000000
00010000
00001000
00011000
,
00001000
00000000
00000100
00000000
00000001
00001000
00000100
00000000
,
00000010
00000000
00001000
00010000
00000000
00000100
00010000
00000000
,
00001000
00001000
00010000
01000000
,
10000000
00100000
00010000
01000000
,
10000000
01000000
00010000
00001000
,
00010000
00001000
00010000
00000100
00000000
00000000
00000000
00000000
,
00000000
00000000
00000000
00000000
;
#NOTES:
     dance-double:
     :
     Hard:
     9:
     :
00000000
00000000
00000000
00000000
,
00000000
00000000
00000000
00000000
,
00000000
00000000
00000000
00000000
,
00000000
00000000
00000000
00000000
,
00000000
00000000
00000000
00000000
,
10000000
01010000
00100000
00001000
,
00100000
00010000
00000000
00000100
00000000
00000000
00000000
00000001
,
00000001
00000010
00000000
00000100
00000100
00001000
00000000
01000000
,
00100000
00010000
00000000
00000100
00010000
00001000
00010000
00000100
,
00000000
00000000
00000000
00000000
,
00001000
00000000
00000110
00000000
00000001
00000010
00000100
00000000
,
00000001
00000000
00001000
00000000
00000010
00000100
00000010
00000000
,
00001000
00010000
00001000
00000000
00010000
00000000
00001100
00000000
,
00000001
00001000
00010000
01010000
,
00001000
00010000
01000000
00000000
10000000
00000000
00010000
00000000
,
00100000
00010000
00001000
00000000
00000100
00000000
00000001
00000000
,
00000101
00000000
00001100
00000000
00001000
00000010
00000100
00000000
,
00000001
00000010
00000100
00000000
00010000
00001000
00010000
00000100
,
00000010
00000000
00000000
00000000
,
00000100
00001000
00000100
00000000
00000001
00000000
00000100
00000000
,
00000010
00000001
00000100
00000000
00001000
00000000
00010000
00000000
,
00001000
00010000
00001000
00000000
01000000
00000000
00010000
00100000
,
01000000
10000000
00010000
11000000
,
00100000
00000000
00110000
00000000
00001000
00000000
00010000
00001000
,
00010000
00000000
00000000
00000010
00000100
00000000
00000000
00000101
,
00000000
00000010
00000001
00001000
00000000
00000110
00000000
00000000
,
00000001
00000100
00001000
00000000
00010000
00000000
01000000
00000000
,
10000000
00010000
01000000
00100000
01000000
00010000
00100000
01000000
,
00010000
00001000
00000100
00000000
00000001
00000000
00001100
00000000
,
00001000
00000000
00001000
00000000
00000010
00000100
00000100
00000100
,
00000001
00000100
00001000
00000000
00000001
00000000
00000100
00000000
,
00000001
00000100
00001000
00100000
01000000
10000000
00010000
00000000
,
01000000
10000000
00100000
00000000
10000000
00000000
01000000
00000000
,
00010000
00001000
00000100
00000001
00001000
00000001
00000100
00000000
,
00000010
00001000
00000001
00000000
00001000
00000000
00000101
00000000
,
00000010
00000001
00001000
00000000
00000001
00000000
00001100
00000000
,
00000010
00001000
00000100
00000000
00010000
00000000
00110000
00000000
,
00100000
00001000
00010000
00000000
10000000
00000000
01100000
00000000
,
10000000
00010000
01000000
00000000
10000000
00100000
10000000
00000000
,
00010000
10000000
01000000
00000000
00010000
00001000
00000100
00000000
,
00000001
00001000
00000001
00000000
00000010
00001000
00000100
00000000
,
00000100
00001000
00000010
00000000
00010000
00001000
00010000
00001000
,
00000000
00000000
00000000
00000000
,
00000000
00000000
00000000
00000000
00000000
01010000
00000000
00000000
,
00010000
01000000
00010000
00000000
00100000
00010000
01000000
00000000
,
00010000
00001000
00000010
00000100
00000001
00000010
00000100
00001000
,
00000001
00001000
00000001
00000000
00001000
00000100
00001000
00000000
,
00000010
00000100
00000010
00000100
00001000
00010000
01000000
00000000
,
00100000
00010000
10000000
00000000
00010000
10000000
01000000
10000000
,
00010000
00100000
01000000
10000000
00100000
10000000
01010000
00000000
,
00010000
00000000
00000100
00000000
00000010
00000001
00001000
00000000
,
00000001
00000010
00000100
00001000
00000000
00001001
00000000
00000000
,
00000010
00000100
00001000
00010000
00001000
00000000
00010000
00000000
,
00100000
00000000
00010000
00000000
00100000
10000000
01000000
00100000
,
00010000
10100000
01000000
00010000
,
10000000
01000000
00010000
00000010
00000100
00000001
00001000
00000000
,
00000010
00001000
00000001
00000000
00000010
00001000
00000100
00000000
,
00001010
00000000
00001000
00011000
00000000
00010000
01010000
00000000
,
00010000
00000000
01000000
00000000
10000000
00010000
01000000
00000000
,
10000000
00000000
01010000
00000000
00010000
10000000
01000000
00000000
,
00010000
00011000
00000100
00001100
,
00000001
00001000
00001100
00000101
00000000
00000000
00000000
00000000
,
00000000
00000000
00000000
00000000
;
