#TITLE:snow storm;
#SUBTITLE:;
#ARTIST:dj TAKA;
#TITLETRANSLIT:;
#SUBTITLETRANSLIT:;
#ARTISTTRANSLIT:;
#GENRE:TRANCE;
#CREDIT:;
#BANNER:snow storm.png;
#BACKGROUND:snow storm-bg.png;
#LYRICSPATH:;
#CDTITLE:CDTitle.png;
#MUSIC:snow storm.ogg;
#OFFSET:0.134000;
#SAMPLESTART:1.480000;
#SAMPLELENGTH:13.260000;
#SELECTABLE:YES;
#DISPLAYBPM:145.000000;
#BPMS:0.000000=145.000000
;
#STOPS:
;
#BGCHANGES:-1.468=snow storm.avi=1.000=1=0=0=StretchNoLoop==CrossFade==,
312.000=snow storm-bg.png=1.000=1=0=1===CrossFade==,
99999=-nosongbg-=1.000=0=0=0 // don't automatically add -songbackground-
;
#KEYSOUNDS:;
#ATTACKS:;

//---------------dance-single - DDRDAIKENKAI----------------
#NOTES:
     dance-single:
     DDRDAIKENKAI:
     Challenge:
     12:
     0.982494,1.006818,0.111046,0.362751,1.473212,929.000000,914.000000,15.000000,49.000000,0.000000,0.000000,0.982494,1.006818,0.111046,0.362751,1.473212,929.000000,914.000000,15.000000,49.000000,0.000000,0.000000:
// measure 0
0000
0000
0000
0000
,  // measure 1
2000
0000
3100
0000
0001
0100
0000
0100
2000
0000
3010
0000
0001
0010
0000
0010
,  // measure 2
2000
0000
3100
0000
0001
0100
0000
0100
2000
0000
3001
0000
1001
0000
0001
1000
,  // measure 3
0002
0000
0103
0000
0010
1000
0000
1000
0020
0000
0130
0000
0001
0010
0000
0010
,  // measure 4
0002
0000
0103
0000
0010
1000
0000
1000
0020
0000
0130
0000
0101
0000
0001
0010
,  // measure 5
0200
0000
1300
0000
0010
0001
0000
0001
0020
0000
1030
0000
0100
0001
0000
0001
,  // measure 6
0200
0000
1300
0000
0010
0001
0000
0001
0020
0000
1030
0000
1100
0000
0100
1000
,  // measure 7
0020
0000
0130
0000
0001
0010
0000
0010
0002
0000
0103
0000
0010
1000
0100
0010
,  // measure 8
0001
0000
0000
0000
0000
0000
0001
0000
0000
0100
0000
0000
0010
0000
0000
0000
0000
0000
0010
0000
0000
1000
0000
0000
0100
0000
0000
0000
0000
0000
0100
0000
0000
1000
0000
0000
0010
0000
0000
0000
0000
0000
0010
0000
0100
0000
0010
0000
,  // measure 9
2000
0000
3100
0000
0010
0100
0000
0100
2000
0000
3010
0000
0100
0001
0000
0001
,  // measure 10
2000
0000
0000
0000
0000
0000
3100
0000
0000
0000
0000
0000
0010
0000
0000
0100
0000
0000
0000
0000
0000
0100
0000
0000
2000
0000
0000
0000
0000
0000
3001
0000
0000
0000
0000
0000
1001
0000
0000
0000
0000
0000
1000
0000
0100
0000
1000
0000
,  // measure 11
0020
0000
1030
0000
0100
0010
0000
0020
0032
0003
0100
0000
0001
0010
0000
0010
,  // measure 12
0100
0000
0000
1000
0000
0000
0000
0000
0000
1000
0000
0000
0010
0000
0000
0001
0000
0000
0000
0000
0000
0001
0000
0000
0010
0000
0000
0100
0000
0000
0000
0000
0000
0100
0000
0000
0001
0000
0000
0010
0000
0000
0100
0000
0010
0000
0100
0000
,  // measure 13
2000
0000
3010
0000
1000
0100
0000
2000
3020
0000
0130
0000
0001
0010
0000
0002
,  // measure 14
0203
0000
0310
0000
0100
0001
0000
0020
0230
0000
1300
0000
0100
0000
0010
0001
,  // measure 15
2000
0000
0100
0000
3100
0010
0000
0010
0002
0000
0100
0000
0103
0010
0000
0010
,  // measure 16
1000
0100
0000
0100
1000
0010
0000
0010
1000
0100
0000
0100
2000
0000
0000
0000
,  // measure 17
3100
0000
0100
0010
0000
0010
0001
0000
0001
0100
0000
0100
0010
0000
0010
0001
,  // measure 18
0000
0001
0010
0000
0010
1000
0000
1000
0001
0000
0001
0010
0100
1000
0010
0100
,  // measure 19
0001
0010
0001
0100
0010
0000
0010
1000
0000
1000
0100
0000
0100
0010
0000
0010
,  // measure 20
0001
0010
0100
1000
0010
0000
0010
1000
0000
1000
0001
0000
0001
0010
0000
0010
,  // measure 21
0001
0000
0001
0100
0000
0100
0010
0000
0010
1000
0100
1000
0010
0000
0010
0001
,  // measure 22
0000
0001
0010
0000
0010
0100
0000
0100
0001
0000
0001
0010
0100
1000
0010
0100
,  // measure 23
0001
0100
0010
1000
0100
0000
0100
1000
0000
1000
0001
0000
0001
0010
0001
0100
,  // measure 24
0010
0000
0000
1000
0000
0000
0010
0000
0000
1000
0000
0000
0100
0000
0000
0010
0000
0000
0100
0000
0000
0010
0000
0000
0001
0000
0000
0100
0000
0000
0001
0000
0000
0010
0000
0000
0100
0000
0000
0010
0000
0000
0100
0000
1000
0000
0001
0000
,  // measure 25
1000
0100
1000
0010
0100
0010
1000
0100
1000
0001
0010
0001
1000
0010
1000
0001
,  // measure 26
0100
0001
1000
0010
1000
0100
0010
0100
1000
0010
0100
0010
0001
0010
1000
0100
,  // measure 27
0010
0100
1000
0001
0010
0001
0010
0100
1000
0100
1000
0010
1000
0001
0100
0001
,  // measure 28
0010
0100
1000
0100
0010
0001
1000
0001
0100
0010
1000
0010
0001
0010
1000
0100
,  // measure 29
0010
0001
0010
0001
0100
0001
1000
0100
1000
0010
0100
0010
1000
0100
1000
0001
,  // measure 30
0010
0001
0100
0010
0100
0010
1000
0010
1000
0100
1000
0100
0010
0100
1000
0010
,  // measure 31
0100
0001
0010
0100
1000
0010
0100
0001
0010
0001
0100
0010
0100
0001
1000
0100
,  // measure 32
1000
0001
0000
0001
0010
0100
0000
0100
0010
0001
0000
0001
1000
0000
0000
0000
,  // measure 33
2002
0000
0000
0000
,  // measure 34
0000
0000
0000
0000
,  // measure 35
0000
0000
0000
0000
,  // measure 36
0000
0000
3003
0000
,  // measure 37
2000
3000
2000
3100
,  // measure 38
0020
0000
0130
0000
1000
0100
0010
0001
,  // measure 39
1000
0000
0001
0000
0010
0000
0100
0000
1000
0010
0100
0001
0010
0001
0100
0010
,  // measure 40
1000
0000
0000
0000
0000
0000
1000
0100
0010
0000
0000
0000
0001
0000
0000
0000
,  // measure 41
4000
3400
0340
0430
4300
3400
0304
0403
,  // measure 42
0304
0043
4030
3400
0304
0403
4300
3040
,  // measure 43
0034
0403
4300
3040
0430
0304
0043
0430
,  // measure 44
1300
0000
0000
0000
0100
0100
0000
0000
0010
0000
0000
0000
0001
0000
0000
0000
,  // measure 45
1100
0000
0100
1000
0000
0100
1000
0100
1000
0000
0100
1000
0000
0100
1000
0100
,  // measure 46
0010
0000
0100
0010
0000
0100
0010
0100
0010
0000
0100
0010
0000
0100
0010
0100
,  // measure 47
0010
0000
0001
0010
0000
0001
0010
0001
1000
0000
0001
1000
0000
0001
1000
0001
,  // measure 48
0100
0020
0000
1030
0100
1000
0010
0002
0000
0013
1000
0100
0010
0100
1000
0001
,  // measure 49
0010
0001
0100
0001
0010
0001
0100
0001
0010
0001
0100
0001
0010
0001
0100
0001
,  // measure 50
1000
0001
0100
0001
1000
0001
0100
0001
1000
0001
0100
0001
1000
0001
0100
0001
,  // measure 51
1000
0001
0010
0100
1000
0010
0100
0001
0010
0001
0100
0010
1000
0100
0010
0001
,  // measure 52
0100
0010
1000
0100
0010
0001
1000
0010
0100
0001
1000
0001
0100
0001
1000
0001
,  // measure 53
0011
0000
0010
0001
1000
0000
0001
0000
0101
0001
0100
0010
1000
0000
0010
0000
,  // measure 54
1010
0000
0010
1000
0001
0000
1000
0000
1100
1000
0100
0010
0001
0000
0100
0000
,  // measure 55
0010
0100
1000
0100
0010
0100
1000
0100
0010
0100
1000
0100
0010
0100
1000
0100
,  // measure 56
0010
0100
0001
0010
0100
1000
0100
0010
0001
0100
0010
1000
0100
1000
0010
0100
,  // measure 57
0001
0000
0001
0000
0001
0000
0001
0000
0001
0100
0010
0100
1000
0000
0100
0000
,  // measure 58
0010
0000
0010
0000
0010
1000
0010
0100
0010
1000
0100
0010
0001
0010
0100
1000
,  // measure 59
0001
0100
0010
1000
0001
1000
0010
0100
0001
0010
0100
1000
0001
1000
0100
0010
,  // measure 60
0001
0100
0010
1000
0001
0010
0100
1000
0001
1000
0100
0010
0001
1000
0010
0100
,  // measure 61
0010
0000
0100
0001
0010
0000
0100
1000
0010
0000
0100
0001
0010
0100
1000
0010
,  // measure 62
1000
0000
0010
1000
0000
0010
1000
0010
1000
0000
1000
0000
1000
0010
0100
0001
,  // measure 63
0010
0000
0001
0010
0000
0001
0010
0001
0010
0000
0010
0000
0010
0001
0010
0001
,  // measure 64
0100
0001
1000
0010
1000
0001
0010
0001
1000
0100
1000
0010
0100
0001
0010
0001
,  // measure 65
1000
0010
0100
0002
0000
0103
0010
0100
0001
0100
0010
2000
0000
3100
0010
0001
,  // measure 66
1000
0100
0010
0100
1000
0100
0010
0100
0001
0100
0010
0100
1000
0100
0010
0100
,  // measure 67
1000
0010
0100
0010
1000
0010
0100
0010
0001
0010
0100
0010
1000
0010
0100
0010
,  // measure 68
1000
0100
0010
0100
0001
0100
1000
0010
0100
0001
0100
0010
0100
1000
0100
0001
,  // measure 69
1000
0100
0010
0001
0100
0001
0010
0100
1000
0010
0100
0001
0010
0001
0100
0010
,  // measure 70
1010
0000
0000
0000
0010
0000
1000
0000
0002
0003
0000
0000
1000
0000
0000
0000
1100
0000
1000
0000
0100
0000
0010
0000
0002
0003
0000
0000
0100
0000
0000
0000
,  // measure 71
0101
0000
0000
0000
0100
0000
0001
0000
2000
3000
0000
0000
0001
0000
0000
0000
0011
0000
0001
0000
0010
0000
0100
0000
2000
3000
0000
0000
0100
0000
0000
0000
,  // measure 72
0001
0100
0010
0100
0001
0100
0010
0100
0001
0100
0010
0100
0001
0100
0010
0100
,  // measure 73
0001
0100
0010
0001
0100
0010
1000
0100
0010
0100
1000
0010
0100
0001
0010
0100
,  // measure 74
1100
0000
1000
0000
1000
0000
1000
0000
1000
0001
1000
0100
0010
0000
0100
0000
,  // measure 75
0010
0000
0010
0000
0010
0100
0010
0001
0010
0100
0010
0001
1000
0001
0010
0100
,  // measure 76
2000
3010
0100
0001
0010
0001
0100
0010
2000
3100
0010
0001
1000
0001
0010
0100
,  // measure 77
2000
3010
0100
0001
1000
0100
0010
0001
2000
3001
0010
0100
1000
0001
0100
0010
,  // measure 78
0002
0000
0000
0000
,  // measure 79
0000
0000
0000
0000
,  // measure 80
0003
0000
0000
0000
;

//---------------dance-single - DDRDAIKENKAI----------------
#NOTES:
     dance-single:
     DDRDAIKENKAI:
     Hard:
     9:
     0.634549,0.740308,0.029612,0.148062,0.322034,600.000000,596.000000,4.000000,20.000000,0.000000,0.000000,0.634549,0.740308,0.029612,0.148062,0.322034,600.000000,596.000000,4.000000,20.000000,0.000000,0.000000:
// measure 0
0000
0000
0000
0000
,  // measure 1
1000
0000
0100
0000
0001
0000
0000
0001
0100
0000
1000
0000
0010
0000
0000
0010
,  // measure 2
0001
0000
0010
0000
1000
0000
0000
1000
0100
0000
0010
0000
0001
0000
0100
0000
,  // measure 3
0010
0000
1000
0000
0100
0000
0000
0100
1000
0000
0010
0000
0100
0000
0000
0100
,  // measure 4
0001
0000
0010
0000
0100
0000
0000
0100
0010
0000
0001
0000
0100
0000
0010
0000
,  // measure 5
1000
0000
0001
0000
0010
0000
0000
0010
0001
0000
1000
0000
0010
0000
0000
0010
,  // measure 6
1000
0000
0001
0000
0010
0000
0000
0010
0001
0000
0100
0000
0010
0000
1000
0000
,  // measure 7
0100
0000
0010
0000
0001
0000
0000
0001
0010
0000
0100
0000
1000
0000
0000
1000
,  // measure 8
0010
0000
0000
0010
0100
0000
0000
0100
0001
0000
0000
0001
1000
0000
0000
1000
,  // measure 9
0100
0000
0010
0000
0001
0000
0000
0001
0100
0000
0010
0000
1000
0000
0000
1000
,  // measure 10
0010
0000
0100
0000
0001
0000
0000
0001
0010
0000
0100
0000
1000
0000
0010
0000
,  // measure 11
1000
0000
0100
0000
1000
0000
0000
1000
0001
0000
0100
0000
0001
0000
0000
0001
,  // measure 12
0010
0000
0000
0010
1000
0000
0000
1000
0010
0000
0000
0010
0001
0000
0100
0000
,  // measure 13
0010
0000
0001
0000
0010
0000
0000
0010
1000
0000
0100
0000
0001
0000
0000
0001
,  // measure 14
0100
0000
1000
0000
0010
0000
0000
0010
1000
0000
0100
0000
0010
0000
0100
0000
,  // measure 15
1000
0010
1000
0000
1000
0001
1000
0000
,  // measure 16
1000
0000
0000
1000
0100
0000
0000
0100
0010
0000
0000
0010
0001
0000
0000
0001
,  // measure 17
1000
0100
1000
0010
1000
0001
1000
0100
,  // measure 18
0010
0000
0001
0000
0100
0000
0001
0000
0010
0000
0100
0000
1000
0000
0010
1000
,  // measure 19
0100
1000
0001
0100
0001
1000
0010
1000
,  // measure 20
0001
0000
0010
0000
0001
0000
0100
0000
0010
0000
1000
0000
0100
0000
1000
0010
,  // measure 21
0100
0001
0100
0010
1000
0001
0010
0001
,  // measure 22
0100
0000
0010
0000
1000
0000
0100
0000
0010
0000
0001
0000
0100
0000
0001
0010
,  // measure 23
0100
0000
1000
0000
0001
0000
0100
0000
0010
0000
1000
0000
0100
0000
1000
0001
,  // measure 24
1000
0000
0001
0100
0001
0000
0100
0010
0100
0000
0010
1000
0010
0000
1000
0100
,  // measure 25
1000
0001
0010
0100
1000
0010
1000
0100
,  // measure 26
0010
0000
0001
0000
0100
0000
0010
0000
1000
0000
0100
0000
0010
0000
0001
0100
,  // measure 27
0010
0000
0100
0000
0001
0000
0010
0000
0100
0000
1000
0000
0010
0000
1000
0001
,  // measure 28
1000
0001
0000
1000
0100
1000
0000
0100
0010
0100
0000
0010
0001
0000
1000
0000
,  // measure 29
0001
0100
0010
0100
0001
0010
0100
0010
,  // measure 30
0001
0000
1000
0000
0010
0000
0100
0000
0001
0000
0100
0000
0010
0000
1000
0100
,  // measure 31
1000
0100
1000
0100
0010
0001
0010
0001
,  // measure 32
1000
0010
0000
0010
0100
0010
0000
0010
1000
0000
0001
0000
1000
0000
0001
0000
,  // measure 33
2002
0000
0000
0000
,  // measure 34
0000
0000
0000
0000
,  // measure 35
0000
0000
0000
0000
,  // measure 36
0000
0000
3003
0000
,  // measure 37
1000
0000
1000
0100
,  // measure 38
0010
0000
0100
0000
1000
0100
0010
0001
,  // measure 39
1000
0001
0010
0100
1000
0100
0010
0100
,  // measure 40
1000
0000
0000
0000
0000
0000
0100
1000
0100
0000
0000
0000
0010
0000
0000
0000
,  // measure 41
0002
0203
2300
3200
,  // measure 42
0320
2030
3200
0320
,  // measure 43
2030
3020
0032
2003
,  // measure 44
3002
0000
0200
0303
,  // measure 45
0101
0100
0001
0100
0010
1000
0010
1000
,  // measure 46
0100
1000
0100
1000
0010
0001
0010
0001
,  // measure 47
0010
0100
0010
0100
0001
1000
0001
1000
,  // measure 48
0100
0010
0001
0100
0001
0010
0100
1000
,  // measure 49
0010
0001
0010
1000
0010
0001
0010
1000
,  // measure 50
0100
0001
0100
1000
0100
0001
0100
1000
,  // measure 51
0010
1000
0100
0010
0001
0100
0010
1000
,  // measure 52
0100
0000
1000
0000
0010
0000
0100
0000
0001
0010
0000
0010
0100
0000
1000
0000
,  // measure 53
1010
0000
1000
0010
1000
0000
0010
0000
0100
0010
0100
0010
0100
0000
0010
0000
,  // measure 54
0100
0000
0001
0100
0001
0000
0100
0000
0001
0010
0001
0010
0001
0000
0010
0000
,  // measure 55
0100
1000
0100
0010
0100
1000
0100
0010
,  // measure 56
0100
0000
1000
0000
0010
0000
0100
0000
0001
0010
0000
0010
0100
0000
1000
0000
,  // measure 57
0001
1000
0001
1000
0010
0100
0001
1000
,  // measure 58
0100
0010
0100
0010
0001
1000
0001
0010
,  // measure 59
0100
0010
0001
1000
0100
0010
0001
1000
,  // measure 60
0010
0100
0001
0010
1000
0010
0001
0100
,  // measure 61
0020
0000
0000
0000
,  // measure 62
1030
0000
0100
0000
1000
0000
0100
0000
0010
0000
0010
0000
0010
0100
0010
0100
,  // measure 63
1000
0000
0010
0000
1000
0000
0010
0000
0100
0000
0100
0000
0100
0001
0100
0001
,  // measure 64
0010
1000
0010
0001
0100
1000
0100
0001
,  // measure 65
0010
0000
0100
2000
0000
0000
3010
0000
0100
0000
0001
2000
0000
0000
3100
0000
,  // measure 66
0010
1000
0010
0001
0010
1000
0010
0001
,  // measure 67
0100
1000
0100
0001
0100
1000
0100
0001
,  // measure 68
0010
0100
1000
0010
0100
0001
0010
0100
,  // measure 69
1000
0100
0010
0001
0100
0010
1000
0100
,  // measure 70
1100
0000
0100
1000
0100
0000
0010
0000
0001
0100
0001
0100
0001
0000
0100
0000
,  // measure 71
0010
0000
1000
0001
1000
0000
0010
0000
0100
0001
0100
0001
0100
0000
0010
0000
,  // measure 72
0100
0001
0010
0001
0100
0001
0010
0001
,  // measure 73
0100
0010
0100
0001
0010
0100
1000
0001
,  // measure 74
1000
0000
1000
0000
0001
0000
0001
0000
0100
0010
0100
0010
1000
0000
0100
0000
,  // measure 75
0010
0000
0010
0000
0001
0100
0001
0000
1000
0100
1000
0000
0001
1000
0001
0000
,  // measure 76
1000
0010
1000
0000
0100
0000
0100
0000
1000
0001
1000
0000
0010
0000
0010
0000
,  // measure 77
0100
0001
0100
0000
0010
1000
0010
0000
1000
0001
1000
0100
1000
0001
0100
0010
,  // measure 78
0200
0000
0000
0000
,  // measure 79
0000
0000
0000
0000
,  // measure 80
0300
0000
0000
0000
;

//---------------dance-single - DDRDAIKENKAI----------------
#NOTES:
     dance-single:
     DDRDAIKENKAI:
     Medium:
     6:
     0.447357,0.503409,0.259108,0.496006,0.040717,423.000000,388.000000,35.000000,67.000000,0.000000,0.000000,0.447357,0.503409,0.259108,0.496006,0.040717,423.000000,388.000000,35.000000,67.000000,0.000000,0.000000:
0000
0000
0000
0000
,
1002
0103
0201
0310
,
0120
0000
0130
0000
2010
0000
3100
0010
,
0002
0103
0210
0310
,
2010
0000
3010
0000
1200
0000
1300
0100
,
0020
0031
0102
0103
,
1020
0000
1030
0000
1200
0000
1300
0001
,
0020
0000
0031
0000
0102
0000
0103
0010
,
2000
0000
3200
0000
0302
0000
0013
1000
,
2001
3010
1020
0130
,
0210
0000
0310
0000
0102
0000
0013
0100
,
2000
3010
0120
0130
,
0002
0000
0023
0000
0230
0000
1300
0100
,
0020
0031
2010
3100
,
0012
0000
1003
0000
0201
0000
0310
1000
,
0200
1300
2010
3010
,
0200
0302
2003
3020
,
1030
0011
1000
1100
,
0001
0000
0101
0000
1000
0000
1010
0010
,
0100
0101
0010
0110
,
0100
0000
1100
0000
1000
0000
1001
0001
,
0100
0110
0010
1001
,
1000
0000
1010
0000
0001
0000
0101
0001
,
1000
0000
0011
0000
1000
0000
0101
0100
,
0020
0000
2030
0000
3200
0000
1300
0001
,
1000
0100
0010
0000
0010
0001
0100
0000
,
0100
0010
1000
0000
1000
0100
0001
0000
,
0001
0000
0100
0000
0010
0000
0000
0000
0010
0000
0001
0000
0100
0000
0000
0100
,
0020
0000
2030
0000
3200
0000
1300
0100
,
1000
0001
0010
0000
0001
0010
1000
0000
,
0010
0001
1000
0000
0010
0100
1000
0000
,
0100
0001
1000
0000
0100
0010
0001
0000
,
0020
0000
0230
0000
1300
0001
1000
0001
,
2002
0000
0000
0000
,
0000
0000
0000
0000
,
0000
0000
0000
0000
,
0000
0000
3003
0000
,
1000
0000
1000
0100
,
0010
0000
0010
0001
,
0100
0000
0100
0010
,
1000
0000
0001
0000
,
2000
3200
2300
3200
,
0320
0032
0023
0032
,
0203
0320
2030
3002
,
2003
0000
0200
3300
,
1000
0000
0100
0000
0001
0000
0000
0001
0000
0000
0100
0000
0010
0000
0000
0000
,
0001
0000
0100
0000
1000
0000
0000
1000
0000
0000
0100
0000
0010
0000
0000
0000
,
1000
0000
0100
0000
1000
0000
0000
1000
0000
0000
0001
0000
0010
0000
0000
0000
,
0100
0000
0010
0000
0001
0000
0000
1000
0000
0000
0100
0000
0010
0000
0000
0000
,
0100
0000
1000
0000
0010
0000
0000
0001
0000
0000
0010
0000
1000
0000
0000
0000
,
0001
0000
0100
0000
1000
0000
0000
0100
0000
0000
0010
0000
1000
0000
0000
0000
,
0001
0000
0010
0000
0100
0000
0000
1000
0000
0000
0001
0000
0100
0000
0000
0000
,
0010
0000
1000
0000
0100
0000
0010
0000
0001
0000
0000
1000
0010
0000
0000
0000
,
0100
0001
0100
0000
0010
1000
0100
0000
,
0100
0001
0100
0000
0010
0001
0100
0000
,
0100
1000
0100
0000
1000
0010
1000
0000
,
0010
0001
0010
0000
0001
0100
0001
0000
,
1000
0001
1000
0001
1000
0100
0010
0000
,
0001
1000
0001
1000
0001
0010
0100
0000
,
1000
0010
1000
0000
0001
0100
0001
0000
,
1000
0001
1000
0001
1000
0001
0100
0010
,
0020
0000
0000
0030
,
1000
0000
0000
0001
0000
0000
1000
0000
0100
0000
0100
0000
0010
0000
0000
0000
,
0001
0000
0000
1000
0000
0000
0001
0000
0100
0000
0100
0000
0010
0000
0000
0000
,
1000
0100
0001
0000
0001
0100
1000
0000
,
0001
0010
1000
0000
1000
0010
0001
0000
,
1000
0100
1000
0100
1000
0100
0010
0000
,
0001
0100
0001
0100
0001
0100
0010
0000
,
1000
0001
1000
0000
0001
1000
0001
0000
,
0100
0010
0100
0010
0100
0010
0100
0000
,
0010
1000
0100
0000
0010
0001
0100
0000
,
0001
0010
1000
0000
1000
0100
0001
0000
,
0001
0010
0001
0010
0001
0010
0001
0010
,
1000
0010
1000
0010
1000
0010
1000
0010
,
0002
0000
0010
0000
0103
0001
1000
0010
,
0200
0000
0301
0010
0001
0010
0001
1000
,
0200
0310
0002
1003
,
0020
0000
0130
0000
0001
0001
0010
0010
,
0200
0000
0000
0000
,
0000
0000
0000
0000
,
0300
0000
0000
0000
;

//---------------dance-single - DDRDAIKENKAI----------------
#NOTES:
     dance-single:
     DDRDAIKENKAI:
     Beginner:
     1:
     0.166040,0.236898,0.014806,0.096240,0.000000,157.000000,155.000000,2.000000,13.000000,0.000000,0.000000,0.166040,0.236898,0.014806,0.096240,0.000000,157.000000,155.000000,2.000000,13.000000,0.000000,0.000000:
0000
0000
0000
0000
,
0010
0000
1000
0000
,
0001
0000
0100
0000
,
0010
0000
1000
0000
,
0001
0000
0100
0000
,
0010
0000
1000
0000
,
0001
0000
0100
0000
,
0010
0000
1000
0000
,
0001
0001
0001
0001
,
0001
0000
0010
0000
,
1000
0000
0100
0000
,
0001
0000
0010
0000
,
0001
0001
0001
0001
,
0001
0000
0100
0000
,
1000
0000
0010
0000
,
0001
0000
0010
0000
,
0001
0001
0001
0001
,
0001
0000
0010
0000
,
1000
0000
0100
0000
,
0001
0000
0010
0000
,
1000
0000
0100
0000
,
0001
0000
0010
0000
,
1000
0000
0100
0000
,
0001
0000
0010
0000
,
1000
1000
1000
1000
,
1000
0000
0010
0000
,
0001
0000
0100
0000
,
1000
0000
0010
0000
,
0001
0001
0001
0001
,
0001
0000
0010
0000
,
1000
0000
0001
0000
,
0010
0000
0001
0000
,
1000
0000
0001
0000
,
2002
0000
0000
0000
,
0000
0000
0000
0000
,
0000
0000
0000
0000
,
0000
0000
3003
0000
,
1000
0000
0000
0000
,
0100
0000
0000
0000
,
0010
0000
0000
0000
,
0001
0000
0000
0000
,
0100
0000
0000
0000
,
0010
0000
0000
0000
,
1000
0000
0000
0000
,
0001
0000
0000
0000
,
2000
0000
3000
0000
,
0020
0000
0030
0000
,
0200
0000
0300
0000
,
0002
0000
0003
0000
,
2000
0000
3000
0000
,
0002
0000
0003
0000
,
0200
0000
0300
0000
,
0020
0000
0030
0000
,
1000
0000
0001
0000
,
1000
0000
0001
0000
,
0100
0100
0100
0100
,
0100
0000
0100
0000
,
0010
0010
0010
0000
,
1000
1000
1000
0000
,
0001
0000
1000
0000
,
0100
0000
0010
0000
,
0220
0000
0330
0000
,
0010
0010
0010
0000
,
0001
0001
0001
0000
,
0100
0000
0010
0000
,
1000
0000
0100
0000
,
1000
1000
1000
0000
,
0001
0001
0001
0000
,
0100
0000
0010
0000
,
0100
0000
0010
0010
,
0000
1000
0000
0001
,
0000
1000
0000
0001
,
0001
0001
0001
0001
,
0001
0001
0001
0000
,
1000
1000
1000
0000
,
0010
0010
0010
0000
,
0100
0000
0001
0000
,
1000
0000
0001
0000
,
2000
0000
0000
0000
,
0000
0000
0000
0000
,
3000
0000
0000
0000
;

//---------------dance-single - DDRDAIKENKAI----------------
#NOTES:
     dance-single:
     DDRDAIKENKAI:
     Easy:
     3:
     0.250647,0.296123,0.199883,0.111046,0.000000,237.000000,210.000000,27.000000,15.000000,0.000000,0.000000,0.250647,0.296123,0.199883,0.111046,0.000000,237.000000,210.000000,27.000000,15.000000,0.000000,0.000000:
0000
0000
0000
0000
,
1000
0000
0001
0000
,
0010
0000
0100
0000
,
1000
0000
0001
0000
,
0010
0000
0100
0000
,
1000
0000
0001
0000
,
0010
0000
0100
0000
,
1000
0000
0001
0000
,
0100
0010
0100
0010
,
1000
0000
0010
0000
,
0001
0000
0100
0000
,
1000
0000
0010
0000
,
0001
0010
0001
0100
,
1000
0000
0100
0000
,
0010
0000
0001
0000
,
1000
0000
1000
0000
,
0010
0010
0010
0100
,
0001
0001
0000
1000
,
0000
0001
0000
1000
,
0000
0100
0000
1000
,
0000
0010
0000
0100
,
0000
0001
0000
1000
,
0000
0010
0000
0100
,
0000
0001
0000
1000
,
0000
0001
0001
0001
,
1000
1010
0000
1001
,
0000
0011
0000
1001
,
0000
1100
0000
1001
,
0000
0101
0000
1001
,
0000
1010
0000
0110
,
0000
0101
0000
0110
,
0000
1100
0000
0110
,
0000
0011
0000
0110
,
2002
0000
0000
0000
,
0000
0000
0000
0000
,
0000
0000
0000
0000
,
0000
0000
3003
0000
,
1000
0000
1000
0000
,
0100
0000
0100
0000
,
0010
0000
0010
0000
,
0001
0000
0001
0000
,
0200
0000
0320
0000
,
2030
0000
3002
0000
,
2003
0000
3020
0000
,
0230
0000
0020
0330
,
0100
0100
0001
0001
,
0100
0100
0001
0001
,
0010
0010
0001
0001
,
0010
0001
0100
0010
,
1000
0100
1000
0100
,
0001
0100
0001
0100
,
1000
0010
1000
0010
,
0002
0000
0020
0033
,
0011
0000
1100
0000
,
0101
0000
1010
0000
,
0100
1000
0100
1000
,
0100
1000
0010
0100
,
0010
0010
0010
0010
,
1000
1000
1000
1000
,
0001
0001
0100
0100
,
0010
1000
0100
0010
,
2002
0000
0000
3003
,
1001
1000
0001
1000
,
0100
0010
0100
0010
,
0001
0100
0010
1000
,
0001
1000
0010
0100
,
0001
0001
0001
0001
,
1000
1000
1000
1000
,
0010
0010
0010
0010
,
0100
0100
0100
0100
,
0110
0000
1001
0000
,
0110
0000
1001
0000
,
1000
1000
0001
0001
,
0100
0100
0010
0010
,
1000
1000
1000
1000
,
0100
0100
0100
0100
,
0010
0010
0001
0001
,
0100
0010
1000
0001
,
0200
0000
0000
0000
,
0000
0000
0000
0000
,
0300
0000
0000
0000
;

//---------------dance-single - 24th Run----------------
#NOTES:
     dance-single:
     24th Run:
     Edit:
     12:
     1.033258,1.451003,0.111046,0.362751,1.650886,977.000000,962.000000,15.000000,49.000000,0.000000,0.000000,1.033258,1.451003,0.111046,0.362751,1.650886,977.000000,962.000000,15.000000,49.000000,0.000000,0.000000:
// measure 0
0000
0000
0000
0000
,  // measure 1
2000
0000
3100
0000
0001
0100
0000
0100
2000
0000
3010
0000
0001
0010
0000
0010
,  // measure 2
2000
0000
3100
0000
0001
0100
0000
0100
2000
0000
3001
0000
1001
0000
0001
1000
,  // measure 3
0002
0000
0103
0000
0010
1000
0000
1000
0020
0000
0130
0000
0001
0010
0000
0010
,  // measure 4
0002
0000
0103
0000
0010
1000
0000
1000
0020
0000
0130
0000
0101
0000
0001
0010
,  // measure 5
0200
0000
1300
0000
0010
0001
0000
0001
0020
0000
1030
0000
0100
0001
0000
0001
,  // measure 6
0200
0000
1300
0000
0010
0001
0000
0001
0020
0000
1030
0000
1100
0000
0100
1000
,  // measure 7
0020
0000
0130
0000
0001
0010
0000
0010
0002
0000
0103
0000
0010
1000
0100
0010
,  // measure 8
0001
0000
0000
0000
0000
0000
0001
0000
0000
0100
0000
0000
0010
0000
0000
0000
0000
0000
0010
0000
0000
1000
0000
0000
0100
0000
0000
0000
0000
0000
0100
0000
0000
1000
0000
0000
0010
0000
0000
0000
0000
0000
0010
0000
0100
0000
0010
0000
,  // measure 9
2000
0000
3100
0000
0010
0100
0000
0100
2000
0000
3010
0000
0100
0001
0000
0001
,  // measure 10
2000
0000
0000
0000
0000
0000
3100
0000
0000
0000
0000
0000
0010
0000
0000
0100
0000
0000
0000
0000
0000
0100
0000
0000
2000
0000
0000
0000
0000
0000
3001
0000
0000
0000
0000
0000
1001
0000
0000
0000
0000
0000
1000
0000
0100
0000
1000
0000
,  // measure 11
0020
0000
1030
0000
0100
0010
0000
0020
0032
0003
0100
0000
0001
0010
0000
0010
,  // measure 12
0100
0000
0000
1000
0000
0000
0000
0000
0000
1000
0000
0000
0010
0000
0000
0001
0000
0000
0000
0000
0000
0001
0000
0000
0010
0000
0000
0100
0000
0000
0000
0000
0000
0100
0000
0000
0001
0000
0000
0010
0000
0000
0100
0000
0010
0000
0100
0000
,  // measure 13
2000
0000
3010
0000
1000
0100
0000
2000
3020
0000
0130
0000
0001
0010
0000
0002
,  // measure 14
0203
0000
0310
0000
0100
0001
0000
0020
0230
0000
1300
0000
0100
0000
0010
0001
,  // measure 15
2000
0000
0100
0000
3100
0010
0000
0010
0002
0000
0100
0000
0103
0010
0000
0010
,  // measure 16
1000
0100
0000
0100
1000
0010
0000
0010
1000
0100
0000
0100
2000
0000
0000
0000
,  // measure 17
3100
0000
0100
0010
0000
0010
0001
0000
0001
0100
0000
0100
0010
0000
0010
0001
,  // measure 18
0000
0001
0010
0000
0010
1000
0000
1000
0001
0000
0001
0010
0100
1000
0010
0100
,  // measure 19
0001
0010
0001
0100
0010
0000
0010
1000
0000
1000
0100
0000
0100
0010
0000
0010
,  // measure 20
0001
0010
0100
1000
0010
0000
0010
1000
0000
1000
0001
0000
0001
0010
0000
0010
,  // measure 21
0001
0000
0001
0100
0000
0100
0010
0000
0010
1000
0100
1000
0010
0000
0010
0001
,  // measure 22
0000
0001
0010
0000
0010
0100
0000
0100
0001
0000
0001
0010
0100
1000
0010
0100
,  // measure 23
0001
0100
0010
1000
0100
0000
0100
1000
0000
1000
0001
0000
0001
0010
0001
0100
,  // measure 24
0010
0000
0000
1000
0000
0000
0010
0000
0000
1000
0000
0000
0100
0000
0000
0010
0000
0000
0100
0000
0000
0010
0000
0000
0001
0000
0000
0100
0000
0000
0001
0000
0000
0010
0000
0000
0100
0000
0000
0010
0000
0000
0100
0000
1000
0000
0001
0000
,  // measure 25
1000
0100
1000
0010
0100
0010
1000
0100
1000
0001
0010
0001
1000
0010
1000
0001
,  // measure 26
0100
0001
1000
0010
1000
0100
0010
0100
1000
0010
0100
0010
0001
0010
1000
0100
,  // measure 27
0010
0100
1000
0001
0010
0001
0010
0100
1000
0100
1000
0010
1000
0001
0100
0001
,  // measure 28
0010
0100
1000
0100
0010
0001
1000
0001
0100
0010
1000
0010
0001
0010
1000
0100
,  // measure 29
0010
0001
0010
0001
0100
0001
1000
0100
1000
0010
0100
0010
1000
0100
1000
0001
,  // measure 30
0010
0001
0100
0010
0100
0010
1000
0010
1000
0100
1000
0100
0010
0100
1000
0010
,  // measure 31
0100
0001
0010
0100
1000
0010
0100
0001
0010
0001
0100
0010
0100
0001
1000
0100
,  // measure 32
1000
0001
0000
0001
0010
0100
0000
0100
0010
0001
0000
0001
1000
0000
0000
0000
,  // measure 33
2002
0000
0000
0000
,  // measure 34
0000
0000
0000
0000
,  // measure 35
0000
0000
0000
0000
,  // measure 36
0000
0000
3003
0000
,  // measure 37
2000
3000
2000
3100
,  // measure 38
0020
0000
0130
0000
1000
0100
0010
0001
,  // measure 39
1000
0000
0001
0000
0010
0000
0100
0000
1000
0010
0100
0001
0010
0001
0100
0010
,  // measure 40
1000
0000
0000
0000
0000
0000
1000
0100
0010
0000
0000
0000
0001
0000
0000
0000
,  // measure 41
1000
0100
0010
0001
0100
0010
1000
0010
0100
0001
0010
0100
1000
0100
0010
0001
0100
0010
1000
0010
0100
0001
0010
0100
,  // measure 42
1000
0100
1000
0100
0010
0100
0010
0001
0010
0001
1000
0001
1000
0100
1000
0001
0100
0001
1000
0010
1000
0001
0010
0001
,  // measure 43
1000
0100
0010
0001
0010
0100
1000
0010
0100
0001
0100
0010
1000
0001
0010
0100
0010
0001
1000
0100
0010
0001
0100
0010
,  // measure 44
1000
0000
0000
0000
0100
0100
0000
0000
0010
0000
0000
0000
0001
0000
0000
0000
,  // measure 45
1100
0000
0100
1000
0000
0100
1000
0100
1000
0000
0100
1000
0000
0100
1000
0100
,  // measure 46
0010
0000
0100
0010
0000
0100
0010
0100
0010
0000
0100
0010
0000
0100
0010
0100
,  // measure 47
0010
0000
0001
0010
0000
0001
0010
0001
1000
0000
0001
1000
0000
0001
1000
0001
,  // measure 48
0100
0020
0000
1030
0100
1000
0010
0002
0000
0013
1000
0100
0010
0100
1000
0001
,  // measure 49
0010
0001
0100
0001
0010
0001
0100
0001
0010
0001
0100
0001
0010
0001
0100
0001
,  // measure 50
1000
0001
0100
0001
1000
0001
0100
0001
1000
0001
0100
0001
1000
0001
0100
0001
,  // measure 51
1000
0001
0010
0100
1000
0010
0100
0001
0010
0001
0100
0010
1000
0100
0010
0001
,  // measure 52
0100
0010
1000
0100
0010
0001
1000
0010
0100
0001
1000
0001
0100
0001
1000
0001
,  // measure 53
0011
0000
0010
0001
1000
0000
0001
0000
0101
0001
0100
0010
1000
0000
0010
0000
,  // measure 54
1010
0000
0010
1000
0001
0000
1000
0000
1100
1000
0100
0010
0001
0000
0100
0000
,  // measure 55
0010
0100
1000
0100
0010
0100
1000
0100
0010
0100
1000
0100
0010
0100
1000
0100
,  // measure 56
0010
0100
0001
0010
0100
1000
0100
0010
0001
0100
0010
1000
0100
1000
0010
0100
,  // measure 57
0001
0000
0001
0000
0001
0000
0001
0000
0001
0100
0010
0100
1000
0000
0100
0000
,  // measure 58
0010
0000
0010
0000
0010
1000
0010
0100
0010
1000
0100
0010
0001
0010
0100
1000
,  // measure 59
0001
0100
0010
1000
0001
1000
0010
0100
0001
0010
0100
1000
0001
1000
0100
0010
,  // measure 60
0001
0100
0010
1000
0001
0010
0100
1000
0001
1000
0100
0010
0001
1000
0010
0100
,  // measure 61
0010
0000
0100
0001
0010
0000
0100
1000
0010
0000
0100
0001
0010
0100
1000
0010
,  // measure 62
1000
0000
0010
1000
0000
0010
1000
0010
1000
0000
1000
0000
1000
0010
0100
0001
,  // measure 63
0010
0000
0001
0010
0000
0001
0010
0001
0010
0000
0010
0000
0010
0001
0010
0001
,  // measure 64
0100
0001
1000
0010
1000
0001
0010
0001
1000
0100
1000
0010
0100
0001
0010
0001
,  // measure 65
1000
0010
0100
0002
0000
0103
0010
0100
0001
0100
0010
2000
0000
3100
0010
0001
,  // measure 66
1000
0100
0010
0100
1000
0100
0010
0100
0001
0100
0010
0100
1000
0100
0010
0100
,  // measure 67
1000
0010
0100
0010
1000
0010
0100
0010
0001
0010
0100
0010
1000
0010
0100
0010
,  // measure 68
1000
0100
0010
0100
0001
0100
1000
0010
0100
0001
0100
0010
0100
1000
0100
0001
,  // measure 69
1000
0100
0010
0001
0100
0001
0010
0100
1000
0010
0100
0001
0010
0001
0100
0010
,  // measure 70
1010
0000
0000
0000
0010
0000
1000
0000
0002
0003
0000
0000
1000
0000
0000
0000
1100
0000
1000
0000
0100
0000
0010
0000
0002
0003
0000
0000
0100
0000
0000
0000
,  // measure 71
0101
0000
0000
0000
0100
0000
0001
0000
2000
3000
0000
0000
0001
0000
0000
0000
0011
0000
0001
0000
0010
0000
0100
0000
2000
3000
0000
0000
0100
0000
0000
0000
,  // measure 72
0001
0100
0010
0100
0001
0100
0010
0100
0001
0100
0010
0100
0001
0100
0010
0100
,  // measure 73
0001
0100
0010
0001
0100
0010
1000
0100
0010
0100
1000
0010
0100
0001
0010
0100
,  // measure 74
1100
0000
1000
0000
1000
0000
1000
0000
1000
0001
1000
0100
0010
0000
0100
0000
,  // measure 75
0010
0000
0010
0000
0010
0100
0010
0001
0010
0100
0010
0001
1000
0001
0010
0100
,  // measure 76
2000
3010
0100
0001
0010
0001
0100
0010
2000
3100
0010
0001
1000
0001
0010
0100
,  // measure 77
2000
3010
0100
0001
1000
0100
0010
0001
2000
3001
0010
0100
1000
0001
0100
0010
,  // measure 78
0002
0000
0000
0000
,  // measure 79
0000
0000
0000
0000
,  // measure 80
0003
0000
0000
0000
;
