#TITLE:in motion;
#SUBTITLE:;
#ARTIST:Ryu☆;
#TITLETRANSLIT:;
#SUBTITLETRANSLIT:;
#ARTISTTRANSLIT:;
#GENRE:CLICK HOUSE;
#CREDIT:;
#MENUCOLOR:;
#NEWMETERSYSTEM:NO;
#BANNER:in motion.png;
#BACKGROUND:in motion-bg.png;
#LYRICSPATH:;
#CDTITLE:CDTitle.png;
#MUSIC:in motion.ogg;
#OFFSET:0.000;
#SAMPLESTART:83.460;
#SAMPLELENGTH:13.940;
#SELECTABLE:YES;
#LISTSORT:;
#BPMS:0.000=137.996;
#STOPS:;
#BGCHANGES:;
#ATTACKS:;

//---------------dance-single - DDRDAIKENKAI----------------
#NOTES:
     dance-single:
     DDRDAIKENKAI:
     Challenge:
     9:
     0.631,0.819,0.221,0.000,0.664:
0000
0000
0000
0000
,
0000
0000
0000
0000
,
0000
0000
0000
0000
,
0000
0000
0000
0000
,
0010
0000
0000
0000
0010
0000
0000
1000
0000
0000
0001
0000
0000
0100
0000
0000
,
0010
0000
0000
0000
1000
0000
0000
0010
0000
0000
0100
0000
0000
0001
0000
0000
,
1000
0000
0000
0000
0001
0000
0000
0010
0000
0000
0100
0000
0000
1000
0000
0000
,
0010
0000
0000
0000
0010
0000
0000
0010
0000
0000
0010
0000
0000
0010
0000
0000
,
1000
0000
0000
0000
1000
0000
0000
0000
1000
0000
0000
0000
1000
0001
0000
0001
,
1000
0000
0000
0000
1000
0000
0000
0000
1000
0000
0000
0000
1000
0001
0000
0001
,
0100
0000
0010
0000
0100
0000
0010
0000
0100
0000
0010
0000
0100
0001
0000
0001
,
0100
0000
0010
0000
0100
0000
0010
0000
0100
0000
0010
0000
0000
1000
0000
1000
,
0001
0000
0100
0000
0001
0000
1000
0000
0001
0000
0100
0000
0001
1000
0000
1000
,
0010
0000
0100
0000
0010
0000
1000
0000
0010
0000
0100
0000
0010
1000
0000
1000
,
0100
0000
0010
0000
0100
0000
1000
0000
0100
0000
0010
0000
0100
1000
0000
1000
,
0001
0000
0000
0000
1000
0000
0000
0000
0001
0000
0000
0000
0100
0010
0000
0010
,
1000
0100
1000
0010
0100
0001
0010
0100
,
0010
0000
0000
0010
0001
0000
0000
0001
1000
0000
0000
1000
0100
0000
0000
0100
,
1000
0010
0100
0001
1000
0100
0010
0001
,
0010
0000
0000
0010
0001
0000
0000
0001
1000
0000
0000
1000
0100
0000
0000
0100
,
1000
0010
0100
0001
0010
0100
1000
0010
,
1000
0000
0000
1000
0100
0000
0000
0100
0010
0000
0000
0010
0001
0000
0000
0001
,
1000
0001
0100
0010
1000
0001
0100
0010
,
0100
0000
0000
0100
0001
0000
0000
0001
1000
0000
0000
1000
0100
0000
0000
0100
,
1000
0000
0000
0000
0000
0000
0000
0000
0000
0000
0001
0000
0000
1000
0000
0010
,
0000
0000
0000
0000
0000
0000
0000
0100
0000
0000
0001
0000
0000
0010
0000
0001
,
0000
0000
0000
0000
0000
0000
0000
0000
0000
0000
0100
0000
0000
0010
0000
1000
,
0000
0000
0000
0000
0000
0000
0000
0001
0000
0000
1000
0000
0000
0100
0000
0010
,
0011
0000
0000
0100
0000
1000
0000
0100
1000
0000
0001
0000
0000
1000
0000
0010
,
1010
0000
0000
0100
0000
0001
0000
0100
0001
0000
0100
0000
0000
0010
0000
0100
,
0110
0000
0000
0010
0000
1000
0000
0100
1000
0000
0100
0000
0000
0010
0000
0001
,
0101
0000
0000
0001
0000
0010
0000
0001
0100
0000
0101
0000
1001
0000
1010
0000
,
1000
0000
0100
0000
0010
0100
0000
0010
0100
0000
1000
0000
0001
1000
0000
1000
,
0100
0000
0000
0000
1010
0000
0000
0000
1000
0000
0100
0000
0001
0100
0000
0100
,
1000
0000
0001
0000
0100
0010
0000
0100
0010
0000
1000
0000
0001
1000
0000
1000
,
0010
0000
0000
0000
0101
0000
0000
0000
0010
0000
1000
0000
0001
0100
0000
0100
,
0001
0000
0010
0000
0100
1000
0000
0100
1000
0000
0100
0000
0010
0001
0000
0001
,
0100
0000
0000
0000
1010
0000
0000
0000
1000
0000
0100
0000
0010
0001
0000
0001
,
1000
0000
0010
0000
0100
0001
0000
0100
0001
0000
0100
0000
0010
1000
0000
1000
,
0100
0000
0011
0000
1000
0010
0001
0010
,
1000
0000
0100
0000
1000
0001
0000
0001
1000
0000
0100
0000
1000
0001
0000
0001
,
1000
0000
0001
0000
0010
0100
0000
0100
0010
0000
0001
0000
0100
0010
0000
0010
,
0100
0000
0001
0000
1000
0100
0000
0100
1000
0000
0010
0000
0100
0001
0000
0001
,
0100
0000
0010
0000
1000
0010
0000
0010
0100
0000
0001
0000
1001
0000
0000
0000
,
0001
0000
1000
0000
0100
0010
0000
0010
0100
0000
1000
0000
0010
0100
0000
0100
,
0001
0000
1000
0000
0010
1000
0000
1000
0001
0000
0010
0000
0100
1000
0000
1000
,
0010
0000
0100
0000
0001
0010
0000
0010
0001
0000
0100
0000
0010
1000
0000
1000
,
0100
0000
0001
0000
0100
1000
0000
1000
0001
0000
1001
0000
0110
0000
0101
0000
,
0010
0000
1000
0000
0100
0000
1000
0000
0010
0000
0100
0000
0001
1000
0001
1000
,
0100
0000
0000
0100
1000
0000
0000
1000
0001
0000
0000
0001
0100
0000
0000
0100
,
0010
0000
1000
0000
0001
0000
0010
0000
0100
0000
1000
0000
0001
0100
0001
0100
,
0010
0000
0000
0010
1000
0000
0000
1000
0100
0000
0000
0100
0010
0000
0000
0010
,
0100
0000
1000
0000
0010
0000
0001
0000
0010
0000
1000
0000
0001
0010
0001
0010
,
0100
0000
0000
0100
0010
0000
0000
0010
0001
0000
0000
0001
0100
0000
0000
0100
,
0010
0110
0010
1010
1000
1001
0001
0101
,
0001
0010
0001
0010
0100
0010
0100
0010
0100
1000
0100
1000
0010
1000
0010
1000
,
0010
0001
0000
0010
0000
1000
0000
0000
0100
0000
1000
0000
0001
0000
0100
0000
,
0001
0010
0001
0100
0010
1000
1010
0000
,
1000
0100
0000
1000
0000
0010
0000
0000
0100
0000
0001
0000
0010
0000
0100
0000
,
1000
0100
0010
0001
0100
0010
0110
0000
,
0010
1000
0100
0001
0010
0001
0100
1000
,
0010
0001
0010
1000
0100
0010
0110
0000
,
1000
0010
0100
0001
0010
0100
1000
0001
,
0100
0000
0001
0000
1000
1001
1010
0101
;

//---------------dance-single - DDRDAIKENKAI----------------
#NOTES:
     dance-single:
     DDRDAIKENKAI:
     Medium:
     5:
     0.348,0.367,0.230,0.000,0.000:
0000
0000
0000
0000
,
0000
0000
0000
0000
,
0000
0000
0000
0000
,
0000
0000
0000
0000
,
1000
1001
0000
1000
,
0000
0000
0010
0000
0000
0110
0000
0000
,
0001
0000
0010
0000
,
0100
0000
0000
0000
,
1000
0000
1000
0000
1000
0000
1000
0001
,
0100
0000
0100
0000
0100
0000
0100
0010
,
1000
0000
0001
0000
1000
0000
0001
1000
,
0100
1000
0100
0000
,
0010
0000
0001
0000
0100
0000
0010
1000
,
0100
0000
1000
0000
0010
0000
0100
0001
,
0010
0000
0100
0000
1000
0000
0010
1000
,
0100
0000
0000
0000
0000
0000
0010
0001
,
0100
0000
0001
0000
1000
0001
0100
0000
,
0010
0010
1000
1000
,
0001
0000
1000
0000
0001
0010
0100
0000
,
1000
1000
0001
0001
,
1000
0000
0001
0000
0100
0010
1000
0000
,
0010
0010
0100
0100
,
0001
0000
1000
0000
0100
0010
0001
0000
,
1000
1000
1000
1000
,
1001
0000
0000
0000
,
0001
0000
0000
0000
,
1000
0000
0000
0000
,
0001
0000
0000
0000
,
0110
0000
0001
1000
,
1100
0000
1000
0001
,
0011
0000
0001
0100
,
0110
0000
0000
0000
0010
0010
0010
0000
,
1001
0010
1000
0001
,
0100
0000
0110
0000
0010
1000
0100
0000
,
1000
1001
0001
0100
,
0010
0000
0110
0000
0100
0001
0010
0000
,
0100
1100
0010
0001
,
0100
0000
0110
0000
0010
1000
0001
0000
,
1000
1100
0001
0100
,
0010
0000
0110
0000
0010
1000
1000
1000
,
0001
0100
0001
1000
,
0010
0000
0110
0000
0100
0001
0010
0000
,
0001
1001
1000
0010
,
0100
0000
0110
0000
0010
1000
0100
0000
,
0010
0011
0100
1000
,
0010
0000
0110
0000
0100
0001
1000
0000
,
0001
0011
1000
0010
,
0100
0000
1001
0000
0001
0100
1000
0100
,
0001
0000
1000
0000
0001
0010
0001
0000
,
0100
0100
0010
0010
,
1000
0000
0001
0000
1000
0100
1000
0000
,
0010
0010
1000
1000
,
0001
0000
1000
0000
0010
1000
0100
0000
,
1000
1000
0001
0001
,
0100
0000
0001
0000
0010
0001
0100
0000
,
0010
0010
0100
0100
,
0010
1000
0001
0000
1000
0001
0100
0000
,
0010
1000
0100
0110
,
0010
0001
0100
0000
0010
1000
0100
0000
,
1000
0001
0100
0110
,
0100
0001
1000
0000
0100
1000
0001
0000
,
0010
0101
0010
1001
,
1000
0001
0010
0000
0001
1000
0010
0000
,
1000
0000
0100
0000
0001
0010
0010
0010
;

//---------------dance-single - DDRDAIKENKAI----------------
#NOTES:
     dance-single:
     DDRDAIKENKAI:
     Easy:
     3:
     0.239,0.251,0.203,0.000,0.000: // measure 1
0000
0000
0000
0000
,  // measure 2
0000
0000
0000
0000
,  // measure 3
0000
0000
0000
0000
,  // measure 4
0000
0000
0000
0000
,  // measure 5
0010
1001
0000
0000
,  // measure 6
0100
0000
0010
0000
,  // measure 7
0110
0000
1000
1001
,  // measure 8
0000
0000
0000
0000
,  // measure 9
0100
0100
0100
0010
,  // measure 10
0100
0100
0100
0010
,  // measure 11
1000
1000
1000
0001
,  // measure 12
1000
1000
1000
0000
,  // measure 13
0010
0010
0010
0100
,  // measure 14
0010
0010
0010
0100
,  // measure 15
0001
0001
0001
0010
,  // measure 16
0000
0000
0000
0000
,  // measure 17
0001
1000
0010
0100
,  // measure 18
0001
0000
0001
0000
,  // measure 19
0010
0001
0100
0010
,  // measure 20
1000
0000
1000
0000
,  // measure 21
0100
1000
0010
0001
,  // measure 22
1000
0000
1000
0000
,  // measure 23
0010
0001
0100
1000
,  // measure 24
0010
1000
0100
0001
,  // measure 25
1000
0000
0000
0000
,  // measure 26
1000
0000
0000
0000
,  // measure 27
1000
0000
0000
0000
,  // measure 28
1000
0000
0000
0000
,  // measure 29
0110
0000
0001
0000
,  // measure 30
0110
0000
1000
0000
,  // measure 31
0110
0000
0001
0000
,  // measure 32
0110
0000
1000
1000
,  // measure 33
1001
0000
0110
0000
,  // measure 34
0100
0010
1000
0000
,  // measure 35
0110
0000
1001
0000
,  // measure 36
0001
0100
0010
0000
,  // measure 37
1001
0000
0110
0000
,  // measure 38
0001
1000
0100
0000
,  // measure 39
0110
0000
1001
0000
,  // measure 40
0001
0100
0010
0000
,  // measure 41
1010
0000
0101
0000
,  // measure 42
0010
1000
0100
0000
,  // measure 43
0011
0000
1100
0000
,  // measure 44
0010
0001
0100
0000
,  // measure 45
1100
0000
0101
0000
,  // measure 46
0001
0010
1000
0000
,  // measure 47
1010
0000
0011
0000
,  // measure 48
0001
0100
1000
0000
,  // measure 49
0100
0001
1000
0100
,  // measure 50
0010
0000
0010
0000
,  // measure 51
0001
0100
0010
1000
,  // measure 52
0001
0000
0001
0000
,  // measure 53
1000
0001
0100
0010
,  // measure 54
1000
0000
1000
0000
,  // measure 55
0010
1000
0100
1000
,  // measure 56
0001
0000
0001
0000
,  // measure 57
1000
1000
1000
1000
,  // measure 58
0001
0001
0001
0001
,  // measure 59
0100
0100
0100
0100
,  // measure 60
0010
0010
0010
0010
,  // measure 61
1000
1000
0010
0010
,  // measure 62
0001
0001
0010
0010
,  // measure 63
1000
0100
0001
0100
,  // measure 64
1000
0000
0000
0000
;

//---------------dance-single - DDRDAIKENKAI----------------
#NOTES:
     dance-single:
     DDRDAIKENKAI:
     Hard:
     7:
     0.445,0.480,0.097,0.000,0.097:
0000
0000
0000
0000
,
0000
0000
0000
0000
,
0000
0000
0000
0000
,
0000
0000
0000
0000
,
0010
1000
0100
1000
,
0100
0000
0010
0000
0001
0100
0010
0000
,
1000
0100
0010
0001
,
0000
0000
0000
0000
,
0001
0001
0001
0001
,
1000
1000
1000
1000
,
0010
1000
0010
1000
0010
1000
0010
1000
,
0001
0100
0001
0100
0001
0100
0000
0000
,
0001
0000
0010
0000
0001
0000
0010
0000
0100
0000
1000
0000
0000
0001
0000
1000
,
0010
0000
1000
0000
0100
0000
1000
0000
0010
0000
1000
0000
0000
0010
0000
0100
,
0010
0000
1000
0000
0001
0000
0100
0000
0010
0000
1000
0000
0000
0001
0000
1000
,
0100
0000
0000
0000
0000
0000
0000
0000
0000
0000
0000
0000
1000
0001
0000
0001
,
1000
0010
0001
0010
1000
0100
0010
0001
,
0100
0000
0100
0000
,
0010
0100
0001
0100
0010
1000
0001
0100
,
0001
0000
0001
0000
,
0001
1000
0100
1000
0001
1000
0010
1000
,
0010
0000
0010
0000
,
0100
1000
0100
0010
0100
1000
0100
0010
,
1000
0001
0000
1000
0000
0001
0100
0001
,
0100
0000
0000
0000
0000
0000
0000
0000
0000
0000
0000
0000
0000
0010
0000
1000
,
0000
0000
0000
0000
0000
0000
0000
0000
0000
0000
0000
0000
0000
0010
0000
1000
,
0000
0000
0000
0000
0000
0000
0000
0000
0000
0000
0000
0000
0000
0010
0000
1000
,
0000
0000
0000
0000
0000
0000
0000
0000
0000
0000
0000
0000
0000
0010
0000
1000
,
0001
0000
0000
0000
1000
0000
0000
0000
0100
0000
0010
0000
0001
0100
0000
0010
,
1000
0000
0000
0000
0001
0000
0000
0000
0010
0000
0100
0000
1000
0010
0000
0100
,
0001
0000
0000
0000
1000
0000
0000
0000
0100
0000
0010
0000
0001
0100
0000
0010
,
1000
0000
0001
0000
0100
0010
0010
0010
,
1000
0100
0010
0000
0001
0100
0010
0000
,
1000
0000
0110
0000
0001
0010
0100
0000
,
1000
0010
0001
0000
0010
1000
0001
0000
,
0010
0000
1100
0000
0001
0100
1000
1000
,
0100
0001
0010
0000
0100
1000
0010
0010
,
0100
0000
1001
0000
0010
1000
0100
0000
,
1000
0001
0100
0000
0100
0001
1000
0000
,
0001
0000
1100
0000
0001
0100
0010
1000
,
0001
0010
0100
0000
1000
0010
0100
0000
,
0001
0000
0110
0000
1000
0100
0010
0000
,
0001
0100
1000
0000
0100
0001
1000
0000
,
0100
0000
0011
0000
1000
0010
0001
0001
,
0010
1000
0100
0000
0010
0001
0100
0100
,
0010
0000
1001
0000
0100
0001
0010
0000
,
0001
1000
0010
0000
0010
1000
0001
0000
,
1000
0000
0011
0000
0100
0010
0010
0010
,
1000
0100
0001
0100
1000
0010
0001
0010
,
1000
1000
0001
0001
,
0100
1000
0100
0001
0010
1000
0010
0001
,
1000
1000
0001
0001
,
1000
0010
0001
0010
1000
0100
0001
0100
,
1000
1000
0001
0001
,
0010
1000
0010
0001
0100
1000
0100
0001
,
1000
1000
0001
0001
1000
1000
0001
0001
,
0100
0010
0100
0010
1000
0100
0001
0100
,
1000
0010
0100
0101
,
0010
0100
0010
0100
0010
0001
0010
1000
,
0010
0000
0001
0000
0100
0010
0100
0100
,
0010
0100
0010
0100
0001
0010
1000
0010
,
0001
0100
0010
1010
,
0100
0010
0100
0010
0100
1000
0100
0001
,
0100
0000
1001
0000
0100
0010
0010
0010
;

//---------------dance-single - DDRDAIKENKAI----------------
#NOTES:
     dance-single:
     DDRDAIKENKAI:
     Beginner:
     1:
     0.177,0.195,0.088,0.000,0.000:
0000
0000
0000
0000
,
0000
0000
0000
0000
,
0000
0000
0000
0000
,
0000
0000
0000
0000
,
0000
1000
0000
0000
,
0000
0001
0000
0000
,
0000
1000
0000
0000
,
0000
0000
0000
0000
,
0100
0100
0100
0000
,
0010
0010
0010
0000
,
1000
1000
1000
0000
,
1000
1000
1000
0000
,
0001
0001
0001
0000
,
0100
0100
0100
0000
,
0001
0001
0001
0000
,
0010
0000
0000
0000
,
0001
0000
1000
0000
,
0100
0100
0100
0100
,
0100
0000
1000
0000
,
0010
0010
0010
0010
,
0010
0000
0100
0000
,
0001
0001
0001
0001
,
0001
0000
1000
0000
,
1000
1000
1000
1000
,
1000
0000
0000
0000
,
1000
0000
0000
0000
,
1000
0000
0000
0000
,
1000
0000
0000
0000
,
0010
0000
0100
0000
,
0010
0000
0100
0000
,
0010
0000
0100
0000
,
0010
0000
0100
0000
,
0110
0000
0100
0000
,
0001
0000
1000
0000
,
1001
0000
0001
0000
,
1000
0000
0100
0000
,
0110
0000
0010
0000
,
0001
0000
1000
0000
,
1001
0000
1000
0000
,
0100
0000
0010
0000
,
0110
0000
0100
0000
,
1000
0000
0001
0000
,
1001
0000
0001
0000
,
0100
0000
0010
0000
,
0110
0000
0010
0000
,
1000
0000
0001
0000
,
1001
0000
0001
0000
,
0100
0000
0010
0010
,
0010
0000
1000
0000
,
0001
0001
0001
0001
,
0001
0000
1000
0000
,
0100
0100
0100
0100
,
0100
0000
1000
0000
,
0010
0010
0010
0010
,
0010
0000
0100
0000
,
1001
0000
0000
0000
,
1000
0000
0001
0000
,
0100
0000
0000
0010
,
0010
0000
0100
0000
,
0001
0000
0000
1000
,
1000
0000
0001
0000
,
1000
0000
0001
0000
,
0100
0000
0100
0000
,
0110
0000
0000
0000
;
