#TITLE:e-motion;
#SUBTITLE:~Romantic Style~;
#ARTIST:e.o.s. remixed by dj TAKA;
#TITLETRANSLIT:;
#SUBTITLETRANSLIT:;
#ARTISTTRANSLIT:;
#GENRE:RAVE;
#CREDIT:;
#MENUCOLOR:;
#NEWMETERSYSTEM:NO;
#BANNER:e-motion ~Romantic Style~.png;
#BACKGROUND:e-motion ~Romantic Style~-bg.png;
#LYRICSPATH:;
#CDTITLE:CDTitle.png;
#MUSIC:e-motion ROMANTIC STYLE.ogg;
#OFFSET:-0.024;
#SAMPLESTART:24.400;
#SAMPLELENGTH:12.500;
#SELECTABLE:YES;
#LISTSORT:;
#DISPLAYBPM:153.000;
#BPMS:0.000=76.498,16.000=152.996;
#STOPS:;
#BGCHANGES:;
#ATTACKS:;

//---------------dance-single - DDRDAIKENKAI----------------
#NOTES:
     dance-single:
     DDRDAIKENKAI:
     Beginner:
     1:
     0.174,0.256,0.075,0.105,0.000:
0000
0000
0000
0000
,
0000
0000
0000
0000
,
0000
0000
0000
0000
,
0000
0000
0000
0000
,
1001
0000
0000
0000
,
1000
0000
0001
0000
,
1001
0000
0000
0000
,
0100
0000
0010
0000
,
0110
0000
0000
0000
,
1000
0000
1000
0000
,
0002
0000
0003
0000
,
2000
0000
3000
0000
,
0200
0300
0200
0300
,
0010
0010
0010
0010
,
0020
0000
0030
0000
,
0001
0000
1000
0000
,
1001
0000
0100
0000
,
0010
0000
0001
0000
,
0100
0000
0010
0000
,
1000
0000
0001
0000
,
1000
0000
1000
0000
,
0001
0000
0001
0000
,
0010
0000
0010
0000
,
0100
0000
0100
0000
,
1000
0000
0100
0000
,
0010
0000
0001
0000
,
0100
0000
0001
0000
,
1000
0000
0010
0000
,
1000
0000
1000
0000
,
0001
0001
0001
0000
,
0100
0000
0100
0000
,
0010
0010
0010
0000
,
1000
1000
1000
1000
,
1000
1000
1000
0000
,
0001
0001
0001
0001
,
0001
0001
0001
0000
,
2002
0000
0000
0000
,
0000
0000
0000
0000
0000
0000
0000
3003
;

//---------------dance-single - DDRDAIKENKAI----------------
#NOTES:
     dance-single:
     DDRDAIKENKAI:
     Easy:
     4:
     0.290,0.484,0.060,0.376,0.000:
0000
0000
0000
0000
,
0000
0000
0000
0000
,
0000
0000
0000
0000
,
0000
0000
0000
0000
,
1000
0001
1000
0001
,
0100
0000
0100
0000
,
0001
1000
0001
1000
,
0010
0000
0010
0000
,
1000
0100
1000
0100
,
0010
0000
0001
0000
,
0100
0010
1000
0001
,
2002
0000
3003
0000
,
1000
1000
0001
0001
,
1000
0100
0010
0001
,
0020
0001
0000
0031
,
0100
0010
0100
0010
,
2000
0001
0000
0001
,
0000
0000
0001
0000
0000
3000
0001
0000
,
0200
0010
0000
0010
,
0000
0010
0000
0310
,
1000
0010
0000
0010
,
1000
0001
0000
0001
,
1000
0100
0000
0100
,
0010
0001
0000
0001
,
1000
0001
0000
0001
,
0100
0010
0000
0010
,
1000
0100
0000
0100
,
1000
0001
1001
1001
,
2000
0001
0001
3001
,
0200
0010
0010
0310
,
2000
0001
0001
0001
,
3001
0001
1000
1001
,
0002
2003
3200
0320
,
0032
0023
0230
2300
,
3020
0230
0302
0023
,
0032
0203
0320
2030
,
0002
0000
0000
0000
,
0000
0000
0000
0000
0000
0000
0000
3003
;

//---------------dance-single - DDRDAIKENKAI----------------
#NOTES:
     dance-single:
     DDRDAIKENKAI:
     Medium:
     5:
     0.410,0.513,0.135,0.722,0.000:
0000
0000
0000
0000
,
0000
0000
0000
0000
,
0000
0000
0000
0000
,
0000
0000
0000
0000
,
1001
1000
0001
0100
,
0020
0000
0030
2000
0000
3000
0200
0000
,
1300
0002
0023
0230
,
1300
0001
0100
0010
,
0120
0130
0000
1001
,
0002
0003
2000
3200
,
2300
0000
0000
3000
,
0202
0000
0003
0300
,
0002
0103
0200
0310
,
0020
0000
2030
0000
3200
0000
1300
0001
,
2000
0001
0001
3001
,
0002
0000
0203
0000
0320
0000
1030
0200
,
2300
0010
0000
3010
,
0100
0000
0100
0000
0100
0001
0000
0001
,
0200
0001
0000
0001
,
0301
1000
0110
1001
,
0001
1000
0001
1000
0000
0100
0000
0000
,
1000
0001
1000
0001
0000
0200
0000
0001
,
0301
0010
0001
0000
0010
0000
0100
0000
,
1000
0010
1000
0000
0100
0000
0010
0000
,
0002
0203
0320
2030
,
3200
0000
2300
0000
3020
0000
0130
0001
,
0200
0000
0000
0001
0001
0000
0000
0001
,
0301
1000
1100
0101
,
0002
0000
0203
0000
0320
0000
2030
0100
,
3100
0000
1000
0000
0010
0000
1000
0001
,
0002
0000
2003
0000
3020
0000
0230
0001
,
0302
0023
0230
2300
,
3001
0100
0001
0000
0100
0000
0010
0000
,
1000
0100
1000
0000
0010
0000
0100
0000
,
0001
1000
0001
0000
1000
0000
0010
0000
,
1000
0100
1000
0000
0100
0000
0010
0000
,
2002
0000
0000
0000
,
0000
0000
0000
0000
0000
0000
0000
3003
;

//---------------dance-single - DDRDAIKENKAI----------------
#NOTES:
     dance-single:
     DDRDAIKENKAI:
     Hard:
     8:
     0.537,0.570,0.271,0.391,0.188:
0000
0000
0000
0000
,
0000
0000
0000
0000
,
0000
0000
0000
0000
,
0000
0000
0000
0000
,
1000
0000
0010
0000
1000
0000
0000
0000
0100
0000
0000
0100
0000
0000
0000
0000
,
0010
0000
0001
0000
0010
0000
0000
0000
0001
0000
0000
0001
0000
0000
1001
0000
,
1001
0000
0001
0000
1000
0000
0000
0000
0010
0000
0000
0010
0000
0000
0000
0000
,
1000
0000
0010
0000
1000
0000
0000
0000
0001
0000
0000
0001
0000
0000
1001
0000
,
1001
0000
0001
0000
0100
0000
0000
0000
0010
0000
0000
0010
0000
0000
0000
0000
,
1000
0000
0010
0000
0100
0000
0000
0000
0001
0000
0000
0001
0000
0000
0011
0000
,
0110
0100
1000
0100
0010
0001
0100
0010
,
0220
0000
0330
0000
1000
0100
0010
0001
,
2000
0000
3001
0010
0200
0000
0310
0000
,
0002
0000
0000
0000
0203
0000
0000
0000
0320
0000
0000
2030
0000
0000
0100
0000
,
3200
0010
2000
3300
,
1000
0001
1000
0001
0100
0010
0100
0010
,
1000
0000
0000
0000
1002
0000
0000
0103
0000
0000
0100
0000
0010
0000
1000
0000
,
0100
0000
0000
0000
2100
0000
0000
3001
0000
0000
0022
0000
0033
0000
0002
0000
,
0103
0000
0000
0000
0120
0000
0000
1030
0000
0000
1000
0000
0001
0000
0100
0000
,
0001
0101
0002
2003
,
3100
0010
0001
0100
0000
0101
0000
0000
,
0100
0000
0001
0000
0010
0000
0100
0000
0000
0000
1000
0000
0000
1000
0001
0000
,
0100
0000
0000
0001
1000
0000
0000
0001
0000
0000
0001
0000
0100
0000
0010
0000
,
1000
0000
0100
0000
1000
0000
0010
0100
0000
0000
0001
0000
1000
0000
0100
0000
,
0110
0000
0000
0100
1000
0000
0000
1000
0010
0000
0100
0000
0001
0000
0001
0000
,
1000
0100
1000
0010
0100
0001
0100
0010
,
0010
0000
0000
1000
0100
0000
1000
0100
1000
0000
0000
0001
0100
0000
0001
0000
,
0001
1000
0100
1000
1001
0000
0201
0000
,
0310
0000
0100
0000
0010
0000
1000
0000
0100
0000
0000
2000
0000
0000
3010
0000
,
0020
0000
0000
0032
0000
0000
0023
0000
0000
0000
1030
0000
0000
0000
1100
0000
,
0100
0000
0010
0000
0001
0000
0100
0000
0020
0000
0000
1030
0000
0000
0100
0000
,
1000
0000
0000
1000
0010
0000
0000
0010
0100
0000
0000
0100
0001
0000
1000
0000
,
0001
0010
1000
0010
0001
0100
1000
0100
,
0001
0010
0100
1000
0010
1000
0100
0010
,
0001
0100
0010
0100
0001
1000
0100
1000
,
0010
0100
0001
0010
0001
0100
0010
1000
,
2002
0000
0000
0000
,
0000
0000
0000
0000
0000
0000
0000
3003
;

//---------------dance-single - DDRDAIKENKAI----------------
#NOTES:
     dance-single:
     DDRDAIKENKAI:
     Challenge:
     10:
     0.833,0.940,0.135,0.286,1.000:
0000
0000
0000
0000
,
0000
0000
0000
0000
,
1000
0000
0000
0000
0010
0000
0000
0000
0100
0000
0000
0000
0001
0000
0000
0000
0000
0000
0000
0000
0000
0000
0000
0001
2000
0000
0000
0000
0000
0000
0000
0000
3001
0000
0000
0000
0010
0000
0000
0000
0000
0000
0000
0000
0010
0000
0000
0000
0100
0000
0000
0000
1000
0000
0000
0000
0100
0000
0000
0000
0010
0000
0000
0000
,
0002
0000
0000
0000
0000
0000
0100
0000
0103
0000
0000
0000
0010
0000
1000
0000
0020
0000
0000
0000
2030
0000
0000
0000
0020
3000
0000
0000
0230
0000
0000
0000
,
0301
0010
0001
0000
1000
0000
0001
0000
0100
0010
0000
1000
0000
0001
0100
0000
,
0001
0010
0001
0000
0100
0000
0010
0000
1000
0100
0000
0010
0000
0100
1000
0000
,
0001
0010
0001
0000
1000
0000
0001
0000
0100
0001
0000
1000
0000
0010
0100
0000
,
0001
0010
0001
0000
1000
0000
0100
0000
1000
0001
0000
1000
0000
0100
1000
0000
,
0100
0010
0100
0000
1000
0000
0001
0000
1000
0010
0000
1000
0000
0001
0100
0000
,
0010
1000
0010
0000
0100
0000
0010
0000
1000
0100
0000
0010
0000
0001
1000
0000
,
0001
0010
0001
0010
0100
0010
0100
0010
0100
1000
0100
1000
0001
1000
0001
1000
,
0002
0000
0000
0000
0000
0000
0000
0003
1000
0001
0010
0100
1000
0100
0010
0001
,
2000
0000
0000
0000
3001
0000
1000
0010
0200
0000
0000
0000
0310
0000
0000
0000
,
1010
0000
0000
0000
0101
0000
0000
0000
1100
0000
0000
0010
0001
0000
1000
0000
,
0100
1000
0100
1000
0001
0100
0001
0100
,
0010
1000
0010
0000
1000
0100
1000
0000
0001
0010
0000
0001
0010
0000
0120
0000
,
0130
1000
0000
1000
0001
0000
0001
0100
0000
0100
0001
0000
0010
0000
0100
0000
,
1000
0010
0000
0010
0100
0000
0100
0001
0000
0000
0202
0000
0303
0000
1002
0000
,
1003
0100
0000
0100
1000
0000
1000
0001
0000
0001
0010
0000
0001
0000
1000
0000
,
0010
0100
0000
0100
0010
0000
1000
0000
0001
0010
0001
0000
1000
0100
1000
0000
,
0001
0000
1000
0000
0100
0000
0010
0001
0000
0000
0012
0000
0013
0000
0000
0000
,
0100
0000
1000
0000
0001
0000
0100
0000
0010
0000
1000
0000
0001
0010
0001
0100
,
0010
1000
0000
1000
0100
0000
0100
0010
0000
0010
0001
0000
0100
0000
0010
0000
,
0100
0001
0000
0001
1000
0000
1000
0100
0000
0100
1000
0000
0001
0000
0100
0000
,
0010
1000
0000
0010
1000
0000
0100
0010
0000
0100
0010
0000
0100
0000
0001
0000
,
0100
1000
0000
0100
1000
0000
0001
0100
0000
0001
0100
0000
0010
0000
1000
0010
,
1000
0001
0000
1000
0001
0000
0100
0010
0000
0100
0010
0000
1000
0000
0001
0000
,
1000
0010
0000
0010
0100
0000
0001
0000
1000
0100
1000
0100
0010
0100
0010
0100
,
0010
0001
0010
0000
0100
0000
1000
0000
0001
0100
0000
0010
0000
1000
0001
0000
,
1001
0000
0000
1010
0000
0000
0020
0000
0000
0000
0100
0000
0230
0000
0001
0000
,
0301
0010
0001
0000
1000
0000
0100
0000
0010
0001
0000
0010
0000
0100
1000
0000
,
1000
0000
1000
0010
0100
0000
0100
0001
0010
0000
0010
0100
2000
0000
3002
0000
,
1003
0100
1000
0100
0010
0100
0010
0100
0010
0001
0010
0001
1000
0001
1000
0001
,
0100
0010
0100
0010
1000
0010
1000
0010
0100
0010
0100
0010
0100
0001
0100
0001
,
1000
0100
0010
0001
0010
0100
1000
0001
0100
0010
1000
0100
1000
0010
0100
0001
,
0010
0001
0100
0010
1000
0100
0010
0001
0010
0100
1000
0010
0100
0001
0010
0100
,
2000
0000
0000
0000
,
0000
0000
0000
0000
0000
0000
0000
3000
;
