#TITLE:dreaming can make a wish come true;
#SUBTITLE:;
#ARTIST:jun & NRG Factory feat. Anna Kaelin;
#TITLETRANSLIT:;
#SUBTITLETRANSLIT:;
#ARTISTTRANSLIT:;
#GENRE:EURODANCE;
#CREDIT:;
#MENUCOLOR:;
#NEWMETERSYSTEM:NO;
#BANNER:dreaming can make a wish come true.png;
#BACKGROUND:dreaming can make a wish come true-bg.png;
#LYRICSPATH:;
#CDTITLE:CDtitle.png;
#MUSIC:dreaming can make a wish come true.ogg;
#OFFSET:-1.734;
#SAMPLESTART:68.860;
#SAMPLELENGTH:13.440;
#SELECTABLE:YES;
#LISTSORT:;
#DISPLAYBPM:143.000;
#BPMS:0.000=142.996,0.000=142.997;
#STOPS:;
#BGCHANGES:;
#ATTACKS:;

//---------------dance-single - DDRDAIKENKAI----------------
#NOTES:
     dance-single:
     DDRDAIKENKAI:
     Easy:
     3:
     0.211,0.250,0.017,0.165,0.000:
0000
0000
0000
0000
,
0000
0000
0000
0000
,
0000
0000
0000
0000
,
0000
0000
0000
0000
,
0000
0000
0000
0000
,
0000
0000
0000
0000
,
0000
0000
0000
0000
,
0000
0000
0000
0000
,
2000
0000
0000
0000
,
3100
0000
0000
0000
,
0020
0000
0000
0000
,
0031
0001
0100
0100
,
0020
0000
0000
0000
,
0130
0000
0000
0000
,
0002
0000
1003
0000
,
0001
0010
0100
1000
,
0001
1000
0100
0000
,
1000
0001
0100
0000
,
0010
0010
0100
0100
,
0001
1000
0001
0000
,
1000
0001
0100
0000
,
0001
1000
0100
0000
,
0020
0000
0031
0000
,
0200
0000
0000
0000
0000
1300
0000
0000
,
0100
0001
0100
0000
,
0010
1000
0010
0000
,
1000
0000
0100
0000
,
0010
0000
0001
0000
,
1000
0100
1000
0000
,
0001
0010
0001
0000
,
0100
0000
0010
0000
,
1000
0000
0001
0000
,
2000
0000
0000
0100
,
3200
0000
0310
0000
,
0002
0000
0000
0100
,
0203
0000
0320
0030
,
1000
0100
1000
0010
,
0100
0001
0010
0100
,
2000
0000
3001
0000
,
0200
0000
0310
0000
,
1000
0001
1000
0001
,
0100
0000
0010
0010
,
0100
0000
0001
0001
,
1000
0000
1001
0000
,
0100
0010
0100
0010
,
0001
0000
1000
1000
,
0001
0000
0010
0010
,
0100
0000
0110
0000
,
0001
1000
0001
1000
,
0010
0000
1000
1000
,
0001
0010
0001
0010
,
0100
1000
0100
1000
,
0002
0000
0103
0000
,
0020
0000
1030
0000
,
0200
0000
0310
0000
,
0002
0000
1003
0000
,
0001
1000
0100
0000
,
1000
0001
0100
0000
,
0010
0010
0100
0100
,
0001
1000
0001
0000
,
1000
0001
0100
0000
,
0001
1000
0100
0000
,
0020
0000
0031
0000
,
0200
0000
0000
0000
0000
1300
0000
0000
,
0001
0000
0000
0000
;

//---------------dance-single - DDRDAIKENKAI----------------
#NOTES:
     dance-single:
     DDRDAIKENKAI:
     Medium:
     5:
     0.359,0.389,0.113,0.209,0.035:
0000
0000
0000
0000
,
0000
0000
0000
0000
,
0000
0000
0000
0000
,
0000
0000
0000
0000
,
0000
0000
0000
0000
,
0000
0000
0000
0000
,
0000
0000
0000
0000
,
0200
0000
0000
0000
,
0320
0000
0000
1030
0000
1000
0001
0000
,
0200
0000
0300
0000
,
0010
0000
0000
1000
0000
0000
0001
0000
,
0010
1000
0100
0001
,
1000
0000
0000
0100
0000
0000
1000
0000
,
0010
0000
0000
0000
0000
1000
1000
0000
,
0200
0000
0000
0010
0020
0000
0330
0000
,
0002
0023
0230
1300
,
1001
0000
1000
0001
0100
0000
0010
0000
,
1000
0000
0000
0100
0000
0000
0010
0000
0000
0000
0001
0000
0100
0000
0000
0000
,
0010
0000
0000
0010
0000
0000
1000
0000
0100
0000
1000
0000
0000
0000
0001
0000
,
0000
0010
0000
0100
0000
1000
0000
0000
,
1001
0000
0001
1000
0100
0000
0010
0000
,
0100
0000
0000
1000
0000
0000
0020
0000
0000
0000
0130
0000
0001
0000
0100
0000
,
0001
0010
1000
0100
,
0001
0000
0000
1000
0000
0000
0001
0000
0000
0000
2001
0000
0000
0000
0000
0000
,
3001
0000
0100
0000
0001
0010
0001
0000
,
0100
0000
0010
0000
1000
0100
1000
0000
,
0010
0000
0010
0000
0100
0000
0100
0001
,
1000
0000
0100
1000
0002
0000
1003
0000
,
0001
0000
0010
0000
0100
1000
0010
0000
,
0100
0000
0001
0000
0010
0100
1000
0000
,
0000
0010
1000
0100
0000
0010
0001
0100
,
1000
0000
1000
0100
0002
0000
1003
0000
,
1010
0000
0000
0000
0000
0010
1000
0100
,
0200
0000
0000
0010
0310
0000
0110
0000
,
0101
0000
0000
0000
0000
0100
0001
0010
,
0020
0000
0000
0100
0130
0000
0110
0000
,
1000
0000
0010
0000
0001
0000
0010
1000
,
0100
0000
0001
0000
0100
0000
1000
0001
,
0010
0000
0001
1000
0200
0000
0310
0000
,
0220
0000
0330
0000
,
0001
0010
0001
0010
0000
0100
1000
0100
,
1000
0000
0000
0000
0001
0100
1000
0000
,
0100
0000
0000
0001
0000
0000
1000
0000
,
0200
0000
0000
0010
0310
0000
1100
0000
,
0010
0100
0010
0100
0000
0001
0100
0001
,
0100
0000
0000
0000
0001
0010
1000
0000
,
0010
0001
0100
0000
0001
0100
1000
0000
,
0200
0000
0000
0001
0301
0000
1001
0000
,
0100
0010
0100
0010
0000
1000
0100
1000
,
0100
0000
0000
0000
0010
0001
0100
0000
,
0001
0000
0010
0000
0100
0000
1000
0010
,
0100
0000
0001
0000
1000
0100
0010
0000
,
0001
0000
0000
0000
1000
0100
1000
0000
,
0010
0000
0000
0000
0100
0001
0100
0000
,
0010
1000
0100
0001
,
0200
2300
3002
1003
,
1001
0000
1000
0001
0100
0000
0010
0000
,
1000
0000
0000
0100
0000
0000
0010
0000
0000
0000
0001
0000
0100
0000
0000
0000
,
0010
0000
0000
0010
0000
0000
1000
0000
0100
0000
1000
0000
0000
0000
0001
0000
,
0000
0010
0000
0100
0000
1000
0000
0000
,
1001
0000
0001
1000
0100
0000
0010
0000
,
0100
0000
0000
1000
0000
0000
0020
0000
0000
0000
0130
0000
0001
0000
0100
0000
,
0001
0010
1000
0100
,
0001
0000
0000
1000
0000
0000
0001
0000
0000
0000
2001
0000
0000
0000
0000
0000
,
3001
0000
0000
0000
;

//---------------dance-single - DDRDAIKENKAI----------------
#NOTES:
     dance-single:
     DDRDAIKENKAI:
     Hard:
     8:
     0.512,0.556,0.287,0.191,0.165:
0000
0000
0000
0000
,
0000
0000
0000
0000
,
0000
0000
0000
0000
,
0000
0000
0000
0000
,
0000
0000
0000
0000
,
0000
0000
0000
0000
,
0000
0000
0000
0000
,
0020
0000
0000
0000
,
1030
0100
0010
0001
0000
0001
0010
0001
,
0200
0000
0300
0000
,
0010
1000
0001
0100
0000
0100
0001
0010
,
0000
0010
0100
1000
0000
1000
0001
0000
,
1000
0000
0000
0100
0000
1000
0001
0100
,
0010
0000
0000
0000
0000
0010
1000
0100
,
2000
0000
0000
0100
0200
0000
3300
0000
,
1000
0100
0010
0001
1000
0100
0010
0001
,
2001
0000
3001
1000
0001
0100
0010
0000
,
1000
0001
0000
1000
0000
0000
0020
0000
0000
0000
0130
0000
0001
0000
1000
0000
,
0100
0010
0000
0100
0000
0000
1000
0010
1000
0000
0001
0000
0000
0000
0011
0000
,
0000
1100
0000
0101
0000
1010
0000
0000
,
0210
0000
0310
0100
0010
1000
0001
0000
,
0100
0010
0000
0100
0000
0000
0002
0000
0000
0000
1003
0000
0001
0000
0010
0000
,
1000
0010
0001
0100
,
0010
0100
0000
0010
1000
0000
0100
1000
0000
0000
1002
0000
0000
0000
0000
0000
,
0103
0010
0100
0001
1000
0010
0001
0000
,
0010
0100
0010
1000
0001
0100
1000
0000
,
0200
0000
0010
0000
0301
0000
0010
1000
,
0100
0000
0001
0100
1000
0010
0001
0000
,
0010
0100
0010
1000
0001
0100
1000
0000
,
0100
0010
0100
0001
1000
0010
0001
0000
,
0010
1000
0100
0010
0100
1000
0010
0001
,
0010
0100
0001
1000
0100
0010
1000
0010
,
0120
0000
0031
0100
0010
0001
0010
1000
,
2010
0000
0000
0001
3001
0000
1001
0000
,
0120
0000
1030
0010
0100
1000
0100
0001
,
0102
0000
0000
1000
1003
0000
1001
0000
,
0001
1000
0000
0100
1000
0000
0001
0000
1000
0001
0000
0010
0001
0000
1000
0000
,
1010
0000
1001
0000
0011
0000
1100
0001
,
0200
0000
1300
0100
0001
0010
1000
0000
,
0010
0001
0000
0000
1000
0000
0001
0100
0000
0010
1000
0000
0001
0000
0100
0010
,
0100
0001
0010
1000
0000
0001
0100
1000
,
1010
0000
0010
0100
0000
0010
0100
0000
0001
0000
0010
0000
0100
0000
1000
0000
,
0010
0000
0000
1010
0000
0000
0110
0000
,
0101
0001
1000
0100
0001
0100
1000
0000
,
0100
1000
0010
0001
0000
1000
0100
0001
,
0011
0000
0010
0100
0000
0010
0100
0000
1000
0000
0010
0000
0100
0000
0001
0000
,
0010
1000
0010
0001
0100
1000
0100
0001
,
1002
0000
0000
0100
0103
0000
0110
0000
,
0010
1000
0100
0001
0000
1000
0010
0001
,
0101
0000
0100
0010
0000
0100
0010
0000
1000
0000
0001
0000
0010
0000
0100
0000
,
1000
0100
0010
0001
0100
0010
1000
0100
,
1000
0010
0100
0001
0010
0100
1000
0000
,
0120
0000
1030
0001
0100
0010
1000
0001
,
0011
0000
0000
0000
0001
0100
0001
1000
,
0100
0001
0010
1000
,
0100
0010
0000
0000
0001
0000
1000
0100
0000
1000
0001
0000
0100
0000
0010
0100
,
0020
0000
1030
0001
0100
0010
1000
0000
,
0001
1000
0000
0010
0000
0000
0200
0000
0000
0000
0301
0000
1000
0000
0100
0000
,
0010
0100
0000
0010
0000
0000
0001
0100
0001
0000
1000
0000
0000
0000
1010
0000
,
0000
0101
0000
1100
0000
0011
0000
0000
,
2001
0000
3001
1000
0010
0100
0001
0000
,
1000
0001
0000
0100
0000
0000
0020
0000
0000
0000
0031
0000
1000
0000
0100
0000
,
0001
0010
1000
0100
,
0001
0010
0000
0001
0100
0000
0010
1000
0000
0000
2100
0000
0000
0000
0000
0000
,
3001
0000
0000
0000
;
