#TITLE:begin;
#SUBTITLE:;
#ARTIST:小坂りゆ;
#TITLETRANSLIT:;
#SUBTITLETRANSLIT:;
#ARTISTTRANSLIT:RIYU KOSAKA;
#GENRE:;
#CREDIT:;
#MENUCOLOR:;
#NEWMETERSYSTEM:NO;
#BANNER:begin.png;
#BACKGROUND:begin-bg.png;
#LYRICSPATH:;
#CDTITLE:CDTitle.png;
#MUSIC:begin.ogg;
#OFFSET:0.000;
#SAMPLESTART:66.080;
#SAMPLELENGTH:12.900;
#SELECTABLE:YES;
#LISTSORT:;
#BPMS:0.000=148.000;
#STOPS:63.750=1.622
;
#BGCHANGES:;
#ATTACKS:;

//---------------dance-single - DDRDAIKENKAI----------------
#NOTES:
     dance-single:
     DDRDAIKENKAI:
     Challenge:
     9:
     0.737,0.959,0.537,0.644,0.554:
0000
0000
0000
0000
,
0000
0000
0000
0000
,
0000
0000
0000
0000
,
0000
0000
0000
0000
,
0000
0000
0000
0000
,
0000
0000
0000
0000
,
0000
0000
0000
0000
0000
0000
0000
0000
0000
0000
0000
0000
0000
0000
1000
0002
,
2000
0000
0000
0000
0000
0000
0000
0000
3003
0000
0001
0000
1000
0010
0000
0100
,
0001
0000
1000
0000
0001
0100
0000
0000
0001
0000
1000
0000
0001
0100
0000
0000
,
0001
0000
0010
0000
0100
0010
0000
0010
0001
0000
1000
0000
0000
1010
0000
0010
,
0100
0000
0001
0000
1000
0100
0000
0000
1000
0000
0001
0000
1000
0100
0000
0000
,
1000
0000
0010
0000
1000
0100
0000
0100
0010
0000
0001
0000
0000
0011
0000
0001
,
0100
0000
0010
0000
1000
0001
0000
0000
1000
0000
0010
0000
1000
0001
0000
0000
,
1000
0000
0100
0000
1000
0010
0000
0010
0100
0000
0001
0000
0000
0101
0000
0001
,
0010
0000
0100
0000
1000
0100
0000
0000
0010
0000
0001
0000
0100
0010
0000
0000
,
1000
0000
0001
0000
1000
0010
0000
0010
0100
0000
0001
0000
1000
0001
0000
1002
,
1003
0000
0001
0000
0000
0100
0000
0001
1000
0000
0001
0000
0000
0100
0000
0001
,
0010
0000
0100
0000
0000
1000
0000
0100
0010
0000
0100
0000
0000
1000
0000
0100
,
0010
0000
0001
0000
0000
0100
0000
0010
1000
0000
0010
0000
0000
0000
0120
0000
,
0000
2030
0000
3200
0000
0000
0300
0000
,
0010
0000
0100
0000
0000
0010
0000
0001
0010
0000
0100
0000
0000
0010
0000
0001
,
1000
0000
0100
0000
0000
1000
0000
0010
1000
0000
0100
0000
0000
1000
0000
0010
,
0100
0000
0001
0000
0000
0100
0000
0010
0100
0000
0001
0000
1000
0000
0010
0000
,
0100
0001
0000
0100
0010
1000
0010
0000
,
0110
0000
0010
0000
1000
0000
0100
1000
0100
0000
1000
0000
0001
0000
0101
0000
,
0001
0000
0010
0000
0100
0000
1000
0100
1000
0000
0100
0000
0010
0000
0011
0000
,
0001
0000
0100
0000
0010
0000
1000
0001
1000
0000
0010
0000
0100
0000
0101
0000
,
1001
0000
0000
0110
0000
0000
0101
0000
1001
0000
0000
1010
0000
0000
1100
0000
,
1001
0000
1000
0000
0100
0000
1000
0001
1000
0000
0010
0000
0100
0000
0102
0000
,
0000
0013
0001
0100
0010
1000
0000
1000
,
0200
1000
1300
0001
0010
0100
1000
0001
,
1000
0001
1000
0001
1000
0100
1000
0010
0400
0000
0304
0000
1003
0100
1000
0100
,
2000
0000
3001
1000
0002
0000
0013
0001
0010
0001
0200
0000
0310
0100
0010
0100
,
0002
0000
1003
0010
1000
0010
0200
0000
0310
1000
0001
0100
0010
1000
0001
0010
,
0002
0000
0013
0100
0020
0000
0130
1000
0100
1000
0200
0000
1300
0000
2000
0000
,
3001
0000
0001
0000
0100
0000
0010
0000
1000
0010
0100
0001
1000
0100
0010
0001
,
0020
0000
0130
0010
0200
0000
1300
0100
1000
0100
2000
0000
3010
0100
0010
0100
,
0002
0000
0013
0001
0100
0001
0200
0000
0310
1000
0010
0000
1000
0001
1000
0000
,
2001
0000
3001
0000
1000
0000
0100
0000
0010
0000
0001
0010
0100
0000
1000
0000
,
1010
0000
0000
0110
0000
0000
0101
0000
2001
0000
0000
0000
3001
0010
0001
0010
,
0012
0000
0000
0013
0100
0000
0010
0000
0001
0000
0000
0100
0010
0000
0100
0000
,
0001
0000
0000
0100
0010
0000
1000
0000
0001
0000
0000
0000
1001
0000
0001
0000
,
1000
0000
0000
0010
0100
0000
0001
0000
0010
0000
0000
0100
1000
0000
0001
0000
,
0200
0000
0000
0320
0000
0000
2030
0000
3100
0000
0000
0000
1100
0000
0000
0000
,
0210
0000
0000
0310
0000
0000
0001
0000
0100
0000
0000
0000
0101
0000
0001
1000
,
0002
0000
0000
2003
0000
0000
3100
0000
2000
0000
0000
3020
0000
0000
0130
0000
,
0102
0000
0000
0003
0100
0000
0010
0000
2000
0000
0000
0000
3020
0000
0000
0000
,
0230
0000
0000
0000
0302
0000
0000
0000
1003
0001
1000
0001
0100
0000
0010
0000
,
1010
0000
0010
0000
0100
0001
0000
0100
0001
0000
0010
0000
0100
1000
0000
0100
,
1000
0000
0001
0000
0100
0010
0000
0100
0010
1000
0010
0000
0100
0000
0001
0000
,
1001
0000
1000
0000
0001
0010
0000
0001
0010
0000
0100
0000
1000
0010
0000
0010
,
1000
0000
0001
0000
0010
0001
0000
0001
0100
0001
0100
0000
0220
0000
0330
0000
,
1020
0000
0000
0000
2030
0000
0000
0000
3200
0000
0000
0000
0310
0000
0001
0010
,
0021
0000
0000
0031
1000
0000
0100
0000
0001
0000
0000
0101
0000
0000
0100
0000
,
1100
0000
0000
1010
0000
0000
0010
0000
0110
0000
0000
0101
0000
0000
0001
0000
,
0011
0000
0000
0110
0000
0000
2200
0000
0000
0000
0000
0000
3300
0000
0000
0000
,
0210
0010
0010
0010
,
0310
0000
0220
0330
2002
3003
0022
0033
,
2001
3002
0203
2300
3000
1100
0000
0100
,
0000
0110
0000
0010
0000
1010
0000
0000
,
1002
1000
1000
1000
,
1003
0000
2020
3030
0220
0330
0202
0303
,
1002
2003
3020
0032
0003
0011
0000
0010
,
0000
0000
0110
0000
0000
0000
0100
0000
0000
0101
0000
1001
0000
0000
1100
0000
,
2002
0000
0000
0000
,
3003
0000
0000
0000
;

//---------------dance-single - DDRDAIKENKAI----------------
#NOTES:
     dance-single:
     DDRDAIKENKAI:
     Hard:
     7:
     0.547,0.639,0.358,0.662,0.241:
0000
0000
0000
0000
,
0000
0000
0000
0000
,
0000
0000
0000
0000
,
0000
0000
0000
0000
,
0000
0000
0000
0000
,
0000
0000
0000
0000
,
0000
0000
0000
0000
,
0000
0000
0000
0000
,
1001
0000
0001
0000
0000
0100
0000
0010
0000
0000
0100
0000
0000
0001
0000
0010
,
0000
0000
0100
0000
0000
1000
0000
0002
0000
0000
0203
0000
0000
0010
0000
0310
,
0000
0000
1000
0000
0000
0100
0000
1000
0000
0000
0010
0000
0000
0100
0000
0001
,
0000
0000
0010
0000
0000
0001
0000
0200
0000
0000
0320
0000
0000
1000
0000
1030
,
0000
0000
1000
0000
0000
0001
0000
1000
0000
0000
0100
0000
0000
0010
0000
0001
,
0000
0000
0010
0000
0000
0100
0000
2000
0000
0000
3100
0000
0000
1000
0000
1200
,
0000
0000
1300
0000
0000
0100
0000
1000
0000
0000
0010
0000
0000
0100
0000
0001
,
0000
0000
0010
0000
0000
0100
0000
2000
0000
0000
3200
0000
0000
0310
0000
0022
,
0033
1000
0100
0000
1000
0010
0100
0001
,
0000
0100
0010
0000
0100
0001
0010
0100
,
0000
1000
0100
0000
0010
0001
0100
0020
,
0000
2030
0000
3100
0000
0000
0000
0000
,
0000
1000
0010
0000
1000
0001
0100
0001
,
0000
0010
0100
0010
0010
0100
0010
0001
,
0000
0010
0001
0100
0010
1000
0100
2000
,
0000
3001
0000
2000
0000
3100
0000
0000
,
1100
0100
1000
0001
1000
0010
1000
0001
,
0000
1000
0010
0100
0001
0100
0010
1000
,
0000
0001
0010
0001
1000
0100
1000
0020
,
0000
0000
0230
0000
0000
0000
0302
0000
1000
0000
0000
1000
0000
0000
2000
0000
,
3003
0001
0010
0100
1000
0100
0010
0002
,
0000
1003
0010
1000
0001
0100
0010
0100
,
0002
0000
0013
0200
0000
1300
0100
0010
,
0000
0011
0000
0202
0000
0000
0303
0000
,
1001
0001
1000
0100
1000
0010
0100
0002
,
0000
1003
0000
0001
0010
0100
1000
0200
,
0000
0310
0001
0100
0010
2000
0000
3002
,
0000
1003
0010
1000
0001
0100
0010
0000
,
0110
0010
0100
0001
1000
0100
0010
0002
,
0000
0013
0000
0100
1000
0001
0100
0000
,
0101
0001
1000
0100
0010
0001
0010
0100
,
1100
0000
0000
0110
0000
0000
0011
0000
2002
0000
0000
0000
3003
0000
0000
0000
,
2001
0000
0000
3002
0000
0000
1003
0000
0200
0000
0000
0320
0000
0000
0130
0000
,
2000
0000
0000
3020
0000
0000
0230
0000
0301
0000
0000
0000
0101
0000
0000
0000
,
2010
0000
0000
3020
0000
0000
1030
0000
0002
0000
0000
2003
0000
0000
3100
0000
,
0020
0000
0000
0230
0000
0000
2300
0000
3010
0000
0000
0000
1010
0000
0000
0000
,
0210
0000
0000
0310
0000
0000
1000
0000
0100
0000
0000
0000
0110
0000
0100
0000
,
2000
0000
0000
3002
0000
0000
0023
0000
0230
0000
0000
2300
0000
0000
3002
0000
,
0203
0000
0010
0320
2030
0000
3002
0000
,
2003
0000
3020
0000
0130
0001
0100
0000
,
0201
0000
0000
0301
0000
0000
0010
0000
0100
0000
0000
1000
0000
0000
0100
0000
,
0020
0000
0000
0031
0000
0000
0100
0000
0010
0000
0000
0000
0110
0000
0010
0000
,
2000
0000
0000
3001
0000
0000
1000
0000
0100
0000
0000
1000
0000
0000
0010
0000
,
0200
0000
0000
0301
0000
0000
0010
0000
0200
0000
0300
0000
0110
0000
0000
0000
,
0012
0000
1000
0000
1003
0000
0001
1000
,
2010
0000
0000
3010
0000
0000
1000
0000
0100
0000
0000
1000
0000
0000
0010
0000
,
0210
0000
0000
0310
0000
0000
1000
0000
0001
0000
0000
1000
0000
0000
0001
0000
,
0010
0000
0000
0011
0000
0000
0202
0000
0000
0000
0000
0000
0303
0000
0000
0000
,
1020
1000
1000
1000
,
1030
2000
3020
0230
,
0301
0010
0100
1000
0000
1100
0000
0100
,
0000
0110
0000
0010
0000
0011
0000
0000
,
0102
0100
0100
0100
,
0103
0101
1010
1001
,
1010
0010
1000
0100
0000
1100
0000
0100
,
0000
0110
0000
0010
0000
0011
0000
0000
,
2002
0000
0000
0000
,
3003
0000
0000
0000
;

//---------------dance-single - DDRDAIKENKAI----------------
#NOTES:
     dance-single:
     DDRDAIKENKAI:
     Medium:
     5:
     0.401,0.465,0.206,0.385,0.004:
0000
0000
0000
0000
,
0000
0000
0000
0000
,
0000
0000
0000
0000
,
0000
0000
0000
0000
,
0000
0000
0000
0000
,
0000
0000
0000
0000
,
0000
0000
0000
0000
,
0000
0000
0000
0000
,
1000
0001
0000
0000
0100
0001
0000
0000
,
1000
0010
0000
0000
1000
0000
0100
0000
,
0010
0001
0000
0000
1000
0001
0000
0000
,
0100
0010
0000
0000
1000
0000
0010
0000
,
0100
0001
0000
0000
1000
0001
0000
0000
,
1000
0010
0000
0000
1000
0000
0100
0000
,
0010
0001
0000
0000
1000
0001
0000
0000
,
0100
0010
0000
0000
1000
0000
0100
0000
,
0000
1000
0000
1000
0000
0001
0100
0001
,
0000
1000
0000
1000
0000
0010
0100
0010
,
0000
1000
0000
1000
0000
0100
0010
0200
,
0000
0320
0000
0032
0000
0000
0003
0000
,
0000
1000
0000
0001
0000
1000
0010
1000
,
0000
0001
0000
1000
0000
0001
0010
0001
,
0000
1000
0000
0001
1000
0100
1000
0200
,
0000
0320
0000
0032
0000
0103
0000
0000
,
0101
0000
0001
0000
1000
0010
1000
0000
,
0001
0000
1000
0000
0100
0010
0100
0000
,
1000
0000
0001
0000
0100
0010
0100
0020
,
0000
2030
0000
0002
0000
0000
3003
0000
,
1001
0000
0001
0000
1000
0100
1000
0000
,
0001
0000
1000
0000
0001
0100
0000
0010
,
2000
0000
3001
0010
0000
0100
1000
0000
,
0002
0203
0302
0003
,
1002
0000
1003
0000
0010
0100
0010
0000
,
1000
0000
0001
0000
1000
0100
1000
0001
,
0000
0100
0000
0010
0000
1000
0000
0001
,
0000
1000
0100
0000
0010
0100
0010
0000
,
0021
0000
0031
0000
1000
0010
1000
0000
,
0001
0000
0100
0000
0010
1000
0000
0100
,
0000
0010
0000
0001
0000
1000
0000
0001
,
0100
0000
0000
0010
0000
0000
2000
0000
0002
0000
0000
0000
3003
0000
0000
0000
,
1001
0000
1100
0000
1000
0001
0100
0000
,
0010
0100
0010
0000
1000
0000
0011
0000
,
1100
0000
1010
0000
0010
0100
0001
0000
,
1000
0001
0100
0000
0110
0000
1010
0000
,
1002
1003
0100
0010
,
0001
0010
0100
1000
,
0200
0000
0000
1000
2300
0000
3002
0000
,
0203
0310
1000
0001
,
1001
0000
0101
0000
0010
1000
0100
0000
,
1000
0010
1000
0000
0001
0000
0101
0000
,
0011
0000
0110
0000
0100
0010
0100
0000
,
0010
0100
1000
1010
,
0102
0000
1000
0000
1003
0000
0001
0100
,
0002
0000
0103
0000
0010
1000
0010
0000
,
1000
0001
1000
0000
0100
1000
0100
0000
,
0020
0032
0203
0300
,
0102
0100
0100
0100
,
0103
0020
0230
0302
,
2003
0000
0000
3200
0000
0000
0320
0000
,
0001
0001
0001
0031
,
0012
0010
0010
1000
,
1003
2000
3020
0130
,
0102
0000
0000
0203
0300
0200
0320
0000
,
1000
1030
0100
0010
,
2002
0000
0000
0000
,
3003
0000
0000
0000
;

//---------------dance-single - DDRDAIKENKAI----------------
#NOTES:
     dance-single:
     DDRDAIKENKAI:
     Beginner:
     1:
     0.189,0.291,0.125,0.170,0.000: // measure 1
0000
0000
0000
0000
,  // measure 2
0000
0000
0000
0000
,  // measure 3
0000
0000
0000
0000
,  // measure 4
0000
0000
0000
0000
,  // measure 5
0000
0000
0000
0000
,  // measure 6
0000
0000
0000
0000
,  // measure 7
0000
0000
0000
0000
,  // measure 8
0000
0000
0000
0000
,  // measure 9
1000
0000
0001
0000
,  // measure 10
1000
0000
0001
0001
,  // measure 11
0001
0000
1000
0000
,  // measure 12
0001
0000
1000
1000
,  // measure 13
1000
0000
0001
0000
,  // measure 14
1000
0000
0001
0001
,  // measure 15
0001
0000
1000
0000
,  // measure 16
0001
0000
1000
1000
,  // measure 17
0000
0010
0000
0010
,  // measure 18
0000
0100
0000
0100
,  // measure 19
0000
0001
0000
0001
,  // measure 20
0000
1000
0000
1000
,  // measure 21
0000
0100
0000
0100
,  // measure 22
0000
1000
0000
1000
,  // measure 23
0000
0010
0000
0010
,  // measure 24
0000
0100
0000
0100
,  // measure 25
0000
0001
0001
0001
,  // measure 26
0000
1000
1000
1000
,  // measure 27
0000
0100
0100
0100
,  // measure 28
0200
0000
0300
0000
,  // measure 29
0000
0010
0010
0010
,  // measure 30
0000
0001
0001
0001
,  // measure 31
0001
0000
0100
0000
,  // measure 32
0010
0000
1000
0000
,  // measure 33
2002
0000
3003
0000
,  // measure 34
0220
0000
0330
0000
,  // measure 35
1000
0000
1000
0000
,  // measure 36
0001
0000
0001
0000
,  // measure 37
2002
0000
3003
0000
,  // measure 38
0220
0000
0330
0000
,  // measure 39
1000
0000
0100
0000
,  // measure 40
1001
1001
1001
0000
,  // measure 41
1001
0000
0001
0000
,  // measure 42
1000
0000
0001
0000
,  // measure 43
0100
0000
0010
0000
,  // measure 44
0100
0000
0010
0000
,  // measure 45
1000
1000
1000
0000
,  // measure 46
0001
0001
0001
0000
,  // measure 47
0100
0000
0010
0000
,  // measure 48
2002
0000
3003
0000
,  // measure 49
1001
0000
1000
0000
,  // measure 50
0100
0100
0100
0000
,  // measure 51
1000
0000
0001
0000
,  // measure 52
0100
0100
0100
0000
,  // measure 53
0220
0000
0330
0000
,  // measure 54
1000
0000
0001
0000
,  // measure 55
1000
0000
0100
0000
,  // measure 56
0010
0010
0010
0000
,  // measure 57
0220
0000
0000
0000
,  // measure 58
0000
0000
0330
0000
,  // measure 59
1000
0000
0001
0000
,  // measure 60
0100
0000
0010
0000
,  // measure 61
0220
0000
0000
0000
,  // measure 62
0000
0000
0330
0000
,  // measure 63
0010
0000
0100
0000
,  // measure 64
0001
0000
1000
0000
,  // measure 65
2002
0000
0000
0000
,  // measure 66
3003
0000
0000
0000
;

//---------------dance-single - DDRDAIKENKAI----------------
#NOTES:
     dance-single:
     DDRDAIKENKAI:
     Easy:
     3:
     0.294,0.349,0.098,0.465,0.000: // measure 1
0000
0000
0000
0000
,  // measure 2
0000
0000
0000
0000
,  // measure 3
0000
0000
0000
0000
,  // measure 4
0000
0000
0000
0000
,  // measure 5
0000
0000
0000
0000
,  // measure 6
0000
0000
0000
0000
,  // measure 7
0000
0000
0000
0000
,  // measure 8
0000
0000
0000
0000
,  // measure 9
2000
3000
0002
0003
,  // measure 10
2000
3000
0001
0001
,  // measure 11
0200
0300
0020
0030
,  // measure 12
0200
0300
0010
0010
,  // measure 13
2000
3000
0002
0003
,  // measure 14
0200
0300
0010
1000
,  // measure 15
0020
0030
2000
3000
,  // measure 16
0200
0300
0010
0001
,  // measure 17
0000
1000
0001
1000
,  // measure 18
0000
1000
0100
1000
,  // measure 19
0000
0001
0100
0001
,  // measure 20
0010
0100
2000
3000
,  // measure 21
0000
1000
0001
1000
,  // measure 22
0000
0100
0010
0100
,  // measure 23
0000
0010
0100
0010
,  // measure 24
0001
1000
0100
2000
,  // measure 25
3000
0001
0010
0100
,  // measure 26
0000
1000
0100
0010
,  // measure 27
0000
0001
0100
0010
,  // measure 28
2000
3002
2003
3000
,  // measure 29
1001
0001
1000
0001
,  // measure 30
0100
0010
0100
0010
,  // measure 31
2000
3000
0200
0310
,  // measure 32
0001
0010
0002
0003
,  // measure 33
1002
1003
0001
1000
,  // measure 34
0001
0100
0001
0100
,  // measure 35
0010
1000
0010
1000
,  // measure 36
0100
0010
0001
0000
,  // measure 37
0120
0130
0010
0100
,  // measure 38
0010
1000
0010
1000
,  // measure 39
1002
1003
0100
0010
,  // measure 40
0220
0000
0000
0330
,  // measure 41
2001
3001
1000
0100
,  // measure 42
0010
0100
2000
3000
,  // measure 43
1001
0001
0100
0010
,  // measure 44
0100
0001
2000
3000
,  // measure 45
0001
0001
0002
0003
,  // measure 46
1000
1000
2000
3000
,  // measure 47
0200
0300
2000
0000
,  // measure 48
3020
0000
0230
0300
,  // measure 49
0010
0010
0010
1000
,  // measure 50
0001
0001
0002
0003
,  // measure 51
1000
1000
1000
0100
,  // measure 52
0010
0010
0010
0001
,  // measure 53
0002
0000
0003
0000
,  // measure 54
0001
0100
0001
0001
,  // measure 55
1000
0100
0010
0100
,  // measure 56
1000
0001
2002
3003
,  // measure 57
0202
0000
0000
0000
,  // measure 58
0003
0001
0001
0301
,  // measure 59
2000
3000
0200
0300
,  // measure 60
0020
0030
0002
0003
,  // measure 61
2002
0000
0000
0000
,  // measure 62
3000
1000
1000
1003
,  // measure 63
2000
3000
0020
0030
,  // measure 64
0200
0300
0002
0003
,  // measure 65
2002
0000
0000
0000
,  // measure 66
3003
0000
0000
0000
;
