#TITLE:bass 2 bass;
#SUBTITLE:;
#ARTIST:Ryu☆;
#TITLETRANSLIT:;
#SUBTITLETRANSLIT:;
#ARTISTTRANSLIT:;
#GENRE:BUBBLEGUM DANCE;
#CREDIT:;
#MENUCOLOR:;
#NEWMETERSYSTEM:NO;
#BANNER:bass 2 bass.png;
#BACKGROUND:bass 2 bass-bg.png;
#LYRICSPATH:;
#CDTITLE:;
#MUSIC:bass 2 bass.ogg;
#OFFSET:-1.714;
#SAMPLESTART:32.560;
#SAMPLELENGTH:14.600;
#SELECTABLE:YES;
#LISTSORT:;
#BPMS:0.000=140.000;
#STOPS:;
#BGCHANGES:;
#ATTACKS:;

//---------------dance-single - DDRDAIKENKAI----------------
#NOTES:
     dance-single:
     DDRDAIKENKAI:
     Hard:
     8:
     0.493,0.480,0.191,0.020,0.101: // measure 1
0000
0000
0000
0000
,  // measure 2
0000
0000
0000
0000
,  // measure 3
0000
0000
0000
0000
,  // measure 4
0000
0000
0000
0000
,  // measure 5
0000
0000
0000
0000
,  // measure 6
0000
0000
0000
0000
,  // measure 7
0000
0000
0000
0000
,  // measure 8
0000
0000
0000
0000
,  // measure 9
0010
1000
0010
0100
0001
0010
0001
0100
,  // measure 10
0010
1000
0100
0010
0100
1000
0001
2000
,  // measure 11
0000
3001
0001
0100
0100
0010
0010
1000
,  // measure 12
0100
0000
1000
0000
0010
0000
0100
0000
0010
0000
1000
0000
0001
0000
0000
0001
,  // measure 13
0010
0000
0100
0000
1000
0000
0010
0000
0100
0000
0001
0000
1000
0000
0000
1000
,  // measure 14
0100
0010
0001
0100
0010
1000
0100
0010
,  // measure 15
0100
0000
1000
0000
0100
0000
0000
1000
0001
0000
0100
0000
0010
0000
0100
0000
,  // measure 16
0001
0000
0000
0000
0001
0000
1000
0000
0100
0000
1000
0000
0001
0000
0000
0100
,  // measure 17
0010
1000
0010
1000
0001
0100
0001
0100
,  // measure 18
0001
0000
0010
0000
0001
0000
0010
0000
0100
0000
1000
0000
0100
0000
1000
0001
,  // measure 19
1000
0001
0010
0100
0000
0100
1000
0010
,  // measure 20
0001
0000
0010
0000
1000
0000
0100
0000
0010
0000
0010
0000
0011
0000
0001
0010
,  // measure 21
0001
1000
0100
1000
0000
1000
0001
0100
,  // measure 22
0010
1000
0100
1100
0000
1001
0000
0101
,  // measure 23
0001
0010
0001
0100
0000
0100
0010
1000
,  // measure 24
0100
0000
0001
0000
0100
0000
1000
0000
0010
0000
0010
0000
0110
0000
0010
1000
,  // measure 25
0010
0100
0001
0100
0000
0100
0001
0010
,  // measure 26
0000
1000
0010
0001
1000
0100
0000
0101
,  // measure 27
0100
0000
1000
0000
0001
0000
0100
0000
0010
0000
0000
0110
0000
0000
0010
0000
,  // measure 28
1000
0100
1000
0010
0001
0010
1000
0100
,  // measure 29
0001
0100
0010
0100
0000
0100
0010
0001
,  // measure 30
1000
0000
0000
1000
0000
0000
0001
0000
0100
0000
0010
0000
0100
0000
0000
0000
,  // measure 31
0010
0000
1000
0000
0100
0000
1000
0000
0001
0000
0000
1000
0000
0000
0001
0000
,  // measure 32
0100
0010
0100
0010
1000
0100
0001
0000
,  // measure 33
0100
0000
1000
0000
0001
0000
0100
0000
0000
0010
0000
1000
0000
0000
0001
0000
,  // measure 34
0100
0000
0010
0000
0100
0000
0001
0000
0000
0010
0000
0100
0000
0000
0000
0000
,  // measure 35
1000
0001
1000
0001
0100
0010
0100
0010
,  // measure 36
1000
0100
0010
0001
0200
0000
0310
0000
,  // measure 37
1000
0000
0000
1000
0000
0000
0001
0000
0000
0000
1000
0000
0001
0000
1000
0000
,  // measure 38
0100
0000
0000
0100
0000
0000
0010
0000
0000
0000
0100
0000
0010
0000
0100
0000
,  // measure 39
1000
0000
0000
1000
0000
0000
0001
0000
0000
0000
1000
0000
0001
0000
1000
0000
,  // measure 40
0010
0000
0000
0010
0000
0000
0010
0000
0000
0000
0010
0000
1000
0000
0010
0000
,  // measure 41
0000
0010
1000
0100
0001
0100
1000
0010
,  // measure 42
1000
1000
0100
0100
0010
0010
0001
0001
,  // measure 43
1000
0001
0100
0000
0010
1000
1000
0010
,  // measure 44
0000
1000
0001
0100
0010
0100
0010
1001
,  // measure 45
0000
1010
0000
1010
0000
0110
0000
0110
,  // measure 46
0001
0010
0100
0010
0000
0010
0001
0100
,  // measure 47
1000
0000
0100
0000
0001
0000
0010
0000
0100
0000
0100
0000
1100
0000
0100
1000
,  // measure 48
0100
1000
0001
0100
0000
0100
0010
1000
,  // measure 49
0010
0001
0010
1000
0000
1001
0000
0101
,  // measure 50
0011
0001
0100
0010
0000
1000
1000
1000
,  // measure 51
0110
0000
0010
0000
0100
0000
0001
0000
1000
0000
1000
0000
1001
0000
0001
1000
,  // measure 52
0001
1000
0010
0100
0000
0100
0010
0001
,  // measure 53
0000
0001
0010
1000
0001
0100
0000
1001
,  // measure 54
1000
0000
0000
0000
;

//---------------dance-single - DDRDAIKENKAI----------------
#NOTES:
     dance-single:
     DDRDAIKENKAI:
     Medium:
     5:
     0.362,0.373,0.171,0.000,0.070:
0000
0000
0000
0000
,
0000
0000
0000
0000
,
0000
0000
0000
0000
,
0000
0000
0000
0000
,
0000
0000
0000
0000
,
0000
0000
0000
0000
,
0000
0000
0000
0000
,
0000
0000
0000
0000
,
1000
0000
0001
0000
0100
0000
0010
1000
,
0010
0000
0100
0000
0001
0010
0001
0010
,
0000
0001
0001
0000
1000
0100
1000
0000
,
0010
1000
0100
0000
0010
0001
0100
0000
,
0001
0001
0001
0000
1000
0001
0100
0000
,
0010
0010
0010
0000
1000
0100
1000
0000
,
0010
0100
0001
0000
0010
0100
0010
0000
,
0001
0000
1000
0100
1000
0000
0001
0000
,
0100
0100
0100
0100
,
0010
0000
0010
0000
0010
0000
1000
0001
,
1000
0100
0001
0010
,
1000
0000
0001
0000
0010
0010
0001
0001
,
1000
0010
0001
0100
,
1000
0000
1000
0001
0000
1001
0000
0001
,
0100
1000
0010
0001
,
0100
0000
0001
0000
0010
0010
0100
0100
,
1000
0010
0001
0100
,
0010
0100
0000
0110
0000
0110
0000
1100
,
1000
0000
0001
1000
0001
0000
0100
0000
,
0001
0010
0001
0000
1000
0100
1000
0000
,
0010
0100
0010
0000
0100
0000
0001
0000
,
1000
0000
1000
0000
0001
0100
0001
0000
,
0010
0100
0010
0000
0001
1000
0001
0000
,
1000
0100
1000
0000
0001
0100
0001
0000
,
0010
0001
0010
0000
0100
0010
0100
0000
,
1000
0100
1000
0000
0001
1000
0001
0000
,
1000
0000
1000
0000
1000
0000
1000
0001
,
0001
1000
0001
1000
0001
0000
1000
0000
,
0001
0000
0000
0001
0000
0000
0001
0000
0000
0000
1000
0000
0000
0100
0000
0000
,
0010
0000
0000
0010
0000
0000
0010
0000
0000
0000
0010
0000
0000
0100
0000
0000
,
1000
0000
0000
1000
0000
0000
1000
0000
0000
0000
1000
0000
0000
0001
0000
0000
,
0100
0000
0000
0100
0000
0000
0100
0000
0000
0000
0010
0000
0000
1000
0000
0000
,
0001
0000
0000
0010
0000
0000
0001
0000
0000
0000
0010
0000
0000
0001
0000
0000
,
0100
0000
0000
0001
0000
0000
0100
0000
0000
0000
0001
0000
0000
0100
0000
0000
,
0010
0000
0000
1000
0000
0000
0001
0000
0000
0000
0010
0000
0000
0010
0000
0000
,
0100
1000
0100
1000
0100
1000
0100
0110
,
0000
1100
0000
1100
0000
1001
0000
1001
,
1000
0001
0010
1000
,
0001
0000
0100
0000
0010
0001
0010
0001
,
1000
0010
0100
1000
,
0100
0000
0001
1000
0000
1001
0000
0100
,
0110
0000
0010
0000
0000
0001
0100
1000
,
0100
0000
0010
0000
1000
0100
0001
0000
,
0101
0000
0100
0000
0110
0000
0010
0010
,
0001
0101
0000
0110
0000
1010
0000
1001
,
0001
0000
0000
0000
;

//---------------dance-single - DDRDAIKENKAI----------------
#NOTES:
     dance-single:
     DDRDAIKENKAI:
     Beginner:
     1:
     0.162,0.240,0.121,0.080,0.000:
0000
0000
0000
0000
,
0000
0000
0000
0000
,
0000
0000
0000
0000
,
0000
0000
0000
0000
,
0000
0000
0000
0000
,
0000
0000
0000
0000
,
0000
0000
0000
0000
,
0000
0000
0000
0000
,
1000
1000
1000
0000
,
0001
0001
0001
0000
,
0100
0000
0100
0000
,
0010
0010
0010
0000
,
1000
1000
1000
0000
,
0001
0001
0001
0000
,
1000
0000
0001
0000
,
1000
0000
0100
0000
,
0010
0010
0010
0010
,
0010
0010
0010
0000
,
1001
0000
0001
0000
,
1000
0000
0001
0001
,
0001
0000
0100
0000
,
0110
0000
0000
0000
,
0010
0000
1000
0000
,
0001
0000
1000
1000
,
1000
0000
0010
0000
,
0110
0000
0000
0000
,
0110
0000
0100
0000
,
0001
0000
1000
0000
,
0100
0000
0010
0000
,
0100
0000
1000
0000
,
1001
0000
1000
0000
,
0010
0000
0100
0000
,
0001
0001
0001
0000
,
1000
1000
1000
0000
,
0100
0100
0100
0100
,
0100
0100
0100
0000
,
0220
0000
0000
0000
,
0330
0000
0000
0000
,
2002
0000
0000
0000
,
3003
0000
0000
0000
,
2000
0000
3000
0000
,
0020
0000
0030
0000
,
0100
0000
0001
0000
,
1000
1000
1000
1000
,
0000
0000
0000
0000
,
0001
0000
0100
0000
,
0010
0000
0100
0100
,
0100
0000
0010
0000
,
1001
0000
0000
0000
,
0002
0000
0003
0000
,
2000
0000
3000
0000
,
1001
0000
0110
0000
,
1001
0000
0000
0000
,
1001
0000
0000
0000
;

//---------------dance-single - DDRDAIKENKAI----------------
#NOTES:
     dance-single:
     DDRDAIKENKAI:
     Easy:
     4:
     0.272,0.347,0.080,0.091,0.000:
0000
0000
0000
0000
,
0000
0000
0000
0000
,
0000
0000
0000
0000
,
0000
0000
0000
0000
,
0000
0000
0000
0000
,
0000
0000
0000
0000
,
0000
0000
0000
0000
,
0000
0000
0000
0000
,
1001
0001
0100
0010
,
1000
0100
1000
0001
,
0001
1000
0001
0100
,
0010
0100
0001
1001
,
1000
0100
0010
0001
,
1000
0010
0100
0001
,
0010
0100
1000
1000
,
0001
0100
0010
1000
,
0100
0100
0100
0100
,
0100
0100
0100
0010
,
0001
1000
0100
1000
,
0001
0000
0100
0000
0010
0010
0010
0000
,
1000
0100
1000
0001
,
0100
0000
0001
0001
0000
1000
0000
0001
,
0001
1000
0100
0010
,
0100
0000
1000
0000
0010
0010
0010
0000
,
0100
0001
0010
0100
,
1000
1000
0000
0001
0000
1000
0000
0000
,
1001
0001
0100
0010
,
0100
0001
0010
0100
,
1000
0001
0100
0001
,
1000
0100
0010
0100
,
1000
1000
0001
0001
,
0100
0100
0010
0010
,
1000
0100
1000
0010
,
0100
0001
0010
0001
,
1000
1000
1000
1000
,
1000
1000
1000
1000
,
0002
0000
0000
0003
,
0200
0000
0000
0300
,
0020
0000
0000
0030
,
2000
0000
0000
3000
,
0200
0300
2000
3000
,
0002
0003
0200
0300
,
0010
0010
0010
0010
,
0100
0000
0100
0000
0100
0000
0200
0300
,
0000
0110
0000
0110
0000
1001
0000
1001
,
1000
0001
0100
0010
,
1000
0000
0100
0000
1000
1000
1000
0000
,
0001
0010
0100
0010
,
0001
0000
0100
0100
0000
0100
0000
0100
,
0100
0000
0010
0000
0000
0010
0010
0010
,
0010
0000
1000
0000
0001
0001
0001
0000
,
1000
0100
0001
0100
,
1000
1000
0000
0001
0000
1000
0000
0000
,
1001
0000
0000
0000
;

//---------------dance-single - DDRDAIKENKAI----------------
#NOTES:
     dance-single:
     DDRDAIKENKAI:
     Challenge:
     10:
     0.722,0.773,0.704,0.000,0.674:
0000
0000
0000
0000
,
0000
0000
0000
0000
,
0000
0000
0000
0000
,
0000
0000
0000
0000
,
0000
0000
0000
0000
,
0000
0000
0000
0000
,
0000
0000
0000
0000
,
0000
0000
0000
0000
,
M001
0000
1000
0001
0100
0010
0100
0001
0010
0001
0010
0000
0100
0000
1000
0010
,
1000
0000
1000
0001
0000
1000
0000
1000
0100
0000
0100
0010
0100
0000
0110
0000
,
00MM
0000
0010
0001
0010
0000
0001
0000
1000
0000
0010
0000
0001
0000
0010
1000
,
0010
0100
0010
1000
0010
0100
0010
0001
0010
1000
0001
0000
0011
0000
0M00
0001
,
1000
0100
0010
0001
0010
0000
0100
0000
1100
0000
1000
0001
0100
0000
000M
0100
,
0010
1000
0010
0100
0001
0100
0010
0000
0010
1000
0001
M000
0001
0010
0100
000M
,
0010
0100
1000
0000
1100
0000
0000
0100
1000
0001
0100
0000
0001
0000
1000
0000
,
1010
0000
0000
00M0
1000
0001
0010
0000
0001
0000
0100
0000
0110
0000
0000
0010
,
1000
0100
1000
0100
1000
0001
1000
0001
1000
0010
0000
0100
0000
0001
0010
0001
,
0010
0001
0000
1000
0000
0001
1000
0000
1000
0001
1000
0001
1000
0000
0001
0100
,
M001
0000
0100
0010
0100
0000
0010
0000
1000
0000
0100
0000
0001
0000
0100
0000
,
1000
0000
0010
0000
0100
0000
0010
0000
1010
0000
1010
0000
1001
0000
0001
1000
,
010M
0000
1000
0100
1000
0000
0100
0000
0001
0000
1000
0000
0010
0000
0001
0000
,
M1M0
0010
0110
1010
0010
0110
MMMM
0101
,
0011
0000
0010
0001
0010
0000
0100
0000
0010
0000
0001
0000
0100
0000
1000
0000
,
0100
0000
0001
0000
0010
0000
0100
0000
1100
0000
1100
0000
1010
0000
0010
1000
,
0M10
0000
0100
0010
0100
0000
0001
0000
0100
0000
0010
0000
1000
0000
0001
0000
,
1001
1100
0100
0110
0010
0011
MMMM
1001
,
M001
0100
0000
0010
1000
0010
0100
0000
0110
0000
0000
1010
0000
0000
1001
0000
,
1001
0000
1010
0000
1001
0000
0101
0000
1001
0000
1000
0100
1000
0100
1000
0100
,
1000
0000
1000
0001
0010
0001
0100
0001
0000
0000
0100
0010
0100
0010
0100
0000
,
0101
0000
0000
1001
0000
0001
0100
0000
0010
1000
0010
0000
0110
0000
0000
0M00
,
0010
1000
0010
1000
0100
1000
0000
1000
0010
0000
0010
0100
0000
0100
0001
0000
,
0010
0001
0010
0000
0100
0010
0100
0000
1000
0100
1000
0000
0001
M000
0000
00M0
,
1000
0100
0010
0100
1000
0000
0001
0010
0000
0001
0000
0100
0000
M000
0010
1000
,
0010
0100
0010
1000
0010
0000
1000
0001
0000
0010
0000
0100
0000
M000
0000
0010
,
M001
0000
0001
1000
0M01
1000
0000
0010
000M
0100
0000
0001
0M00
0000
00M1
01M0
,
00M1
0000
00M1
0000
00M1
10M0
00M1
10M0
0MM1
0000
0000
0000
1000
0000
1000
0100
,
0010
0000
0000
0110
0000
0000
1001
0000
0000
0000
0001
0000
0100
0000
0010
0000
,
0110
0000
0000
0110
0000
0100
0001
0000
0000
0000
1000
0000
0100
0000
0010
0000
,
0110
0000
0000
0110
0000
0000
1100
0000
0000
0000
0100
0000
0010
0000
0001
0000
,
0011
0000
0000
0011
0000
0000
0011
0000
0000
0000
0001
0000
0100
0000
0010
0000
,
0100
0000
0000
0001
0000
0000
0010
0000
0000
0001
0000
0000
0010
0000
0001
0000
0010
0000
0001
0000
0000
0000
0000
0000
0001
0000
0000
0000
0000
0000
1000
0000
0000
0100
0000
0000
1000
0000
0000
0000
0000
0000
1000
0000
0000
0000
0000
0000
,
0001
0000
0001
0000
1000
0100
1000
0010
0100
0001
0100
0000
0010
0000
1000
0000
,
1001
0000
1001
0000
0101
0000
0100
0001
1000
0100
1000
0000
0001
0100
0001
0000
,
0101
0000
0001
0100
0010
1000
0010
1000
0010
1000
0010
1000
0010
0000
1000
0001
,
MMM0
1001
MMMM
1001
MMMM
1010
MMMM
1010
,
0010
0000
1000
0010
1000
0000
0010
0000
0100
0000
0001
0000
0010
0000
0100
0000
,
0010
0000
0001
0000
0010
0000
0100
0000
1100
0000
1100
0000
1001
0000
0001
1000
,
0001
0000
1000
0100
1000
0000
0001
0000
0010
0000
100M
0000
0010
0000
0001
0000
,
01M0
100M
0100
0110
MMMM
1010
MMMM
1100
,
1001
0000
0001
0010
0001
0000
0010
0000
M00M
0000
M11M
0000
M11M
0000
M11M
0000
,
1100
0000
0100
1000
0100
0000
1000
0000
1010
0000
1010
0000
0110
0000
0010
1000
,
0M10
0000
0100
0010
0100
0000
0001
0000
1MM1
0000
0001
0000
0100
0000
0001
0000
,
MM11
0000
M110
0000
0100
0000
11MM
0000
1000
0000
1MM1
0000
0001
0000
M100
0001
,
0100
0000
0000
0000
;
