#TITLE:appreciation;
#SUBTITLE:;
#ARTIST:Another Infinity feat. Mayumi Morinaga;
#TITLETRANSLIT:;
#SUBTITLETRANSLIT:;
#ARTISTTRANSLIT:;
#GENRE:TRANCE;
#CREDIT:;
#MENUCOLOR:;
#NEWMETERSYSTEM:NO;
#BANNER:appreciation.png;
#BACKGROUND:appreciation-bg.png;
#LYRICSPATH:;
#CDTITLE:CDTitle.png;
#MUSIC:appreciation.ogg;
#OFFSET:0.000;
#SAMPLESTART:15.995;
#SAMPLELENGTH:14.160;
#SELECTABLE:YES;
#LISTSORT:;
#BPMS:0.000=135.000;
#STOPS:;
#BGCHANGES:;
#ATTACKS:;

//---------------dance-single - DDRDAIKENKAI----------------
#NOTES:
     dance-single:
     DDRDAIKENKAI:
     Hard:
     7:
     0.435,0.400,0.040,0.161,0.085: // measure 1
0000
0000
0000
0000
,  // measure 2
0000
0000
0000
0000
,  // measure 3
0000
0000
0000
0000
,  // measure 4
0000
0000
0000
0000
,  // measure 5
2000
0000
3002
0000
,  // measure 6
0103
0000
0001
0000
2000
0000
0000
3100
,  // measure 7
0010
0000
0000
0010
0000
0000
0010
0000
0001
0000
0000
0100
0000
0000
1000
0000
,  // measure 8
0010
0000
0000
0010
0000
0000
0010
0000
2000
0000
0000
0000
3001
0000
0000
0000
,  // measure 9
2002
0000
3003
0000
,  // measure 10
1000
0100
0001
0000
1000
0100
0001
0000
,  // measure 11
1000
0001
1000
0010
0100
0001
1000
0000
,  // measure 12
0001
0100
1000
0000
0001
0100
1000
0000
,  // measure 13
0001
1000
0001
0100
0010
1000
0001
0000
,  // measure 14
0010
0001
0100
0000
0010
0001
0100
0000
,  // measure 15
0010
0100
0010
1000
0001
0100
0010
0000
,  // measure 16
1000
0000
0000
1000
0000
0000
1000
0000
0001
0000
0000
0100
0000
0000
0010
0000
,  // measure 17
0001
0000
0000
0001
0000
0000
0001
0000
2002
0000
0000
0000
3003
0000
0000
0000
,  // measure 18
0001
0010
1000
0000
0010
1000
0100
0000
,  // measure 19
1000
0100
0001
0000
0100
1000
0001
0000
,  // measure 20
0010
0100
1000
0000
0010
0100
0001
0000
,  // measure 21
0010
0001
1000
0100
0010
0001
0100
0010
,  // measure 22
1000
0000
1000
0000
0001
0010
0100
0010
,  // measure 23
0001
0000
0001
0000
1000
0100
0010
0100
,  // measure 24
1000
0000
1000
0000
0010
0100
0001
1000
,  // measure 25
0100
0000
0100
0000
0010
0100
1000
0001
,  // measure 26
0100
0000
0100
0000
0010
1000
0001
1000
,  // measure 27
0010
0000
0010
0000
0100
0001
1000
0001
,  // measure 28
0100
0000
0100
0000
0010
1000
0100
0010
,  // measure 29
0002
0000
0000
0000
1003
0000
0000
0000
0001
0100
0000
0000
0010
0000
1000
0000
,  // measure 30
0001
0000
0100
0000
1000
0100
0001
0000
,  // measure 31
1000
0100
0001
0100
1000
0000
1001
0000
,  // measure 32
0001
0000
0010
0000
1000
0010
0001
0010
,  // measure 33
0200
0000
1300
0000
0010
0001
0010
1000
,  // measure 34
0001
0000
0000
0001
0000
0000
0001
0000
1000
0000
0000
1000
0000
0000
1000
0000
,  // measure 35
0100
0000
0000
0010
0000
0000
0100
0000
1000
0000
0000
0001
0000
0000
1000
0000
,  // measure 36
0001
0100
1000
0000
0001
0010
1000
0000
,  // measure 37
0001
0010
0100
1000
0010
0100
0001
0000
,  // measure 38
1000
0100
0001
0000
1000
0010
0001
0000
,  // measure 39
1000
0100
0010
0001
0100
0010
1000
0000
,  // measure 40
0001
0100
0010
0000
1000
0100
0010
0000
,  // measure 41
0001
1000
0001
0100
0010
1000
0100
0000
,  // measure 42
1000
0000
0000
0001
0000
0000
1000
0000
0100
0000
0000
0010
0000
0000
0001
0000
,  // measure 43
1000
0000
0000
0001
0000
0000
1000
0000
2002
0000
0000
0000
3003
0000
0000
0000
,  // measure 44
0001
0100
1000
0000
1000
0100
0001
0000
,  // measure 45
1000
0100
0010
0001
0100
0010
1000
0000
,  // measure 46
0001
0010
1000
0000
1000
0010
0001
0000
,  // measure 47
0001
1000
0001
0100
0010
1000
0001
0000
,  // measure 48
0010
0100
1000
0000
1000
0100
0010
0000
,  // measure 49
0010
0001
0100
0010
1000
0100
0010
0000
,  // measure 50
0001
0000
0000
1000
0000
0000
0001
0000
0010
0000
0100
0000
1000
0000
0001
0000
,  // measure 51
0100
0000
0000
0010
0000
0000
0100
0000
0200
0000
0000
0000
0000
0000
0001
0000
,  // measure 52
0302
0000
2003
0000
,  // measure 53
3100
0000
0000
0100
0000
0000
0010
0000
0002
0000
0000
0000
0000
0000
0000
0000
,  // measure 54
0103
0000
0000
0000
;

//---------------dance-single - DDRDAIKENKAI----------------
#NOTES:
     dance-single:
     DDRDAIKENKAI:
     Medium:
     5:
     0.353,0.400,0.181,0.191,0.010: // measure 1
0000
0000
0000
0000
,  // measure 2
0000
0000
0000
0000
,  // measure 3
0000
0000
0000
0000
,  // measure 4
0000
0000
0000
0000
,  // measure 5
2000
0000
3200
0000
,  // measure 6
1300
0001
0100
0000
,  // measure 7
0010
0000
0010
0000
0100
0001
0100
0000
,  // measure 8
0001
1000
2002
0000
,  // measure 9
3003
0000
0000
0000
,  // measure 10
0100
0101
0100
0101
,  // measure 11
0001
0010
0001
0010
0100
0000
0000
0000
,  // measure 12
1000
1010
1000
1010
,  // measure 13
1000
0100
1000
0100
0010
0000
0000
0000
,  // measure 14
0100
0110
0100
0110
,  // measure 15
0100
1000
0001
0100
0010
0000
0000
1000
,  // measure 16
0001
0000
0001
0000
0010
0100
0010
0100
,  // measure 17
1000
1000
2002
3003
,  // measure 18
0000
0001
0000
1000
0000
0100
0000
1000
,  // measure 19
0000
0001
0000
0100
0000
0010
0000
1000
,  // measure 20
0000
0100
0000
0010
0000
0100
0000
1000
,  // measure 21
0000
0001
0000
0100
0000
1000
0000
0100
,  // measure 22
0001
1000
0001
1000
,  // measure 23
0100
0000
0010
0000
0001
0100
0001
0000
,  // measure 24
0010
0010
0100
1000
,  // measure 25
0010
0000
0100
0000
0001
1000
0001
0000
,  // measure 26
1000
0010
0001
1000
,  // measure 27
0001
0000
0010
0000
1000
0001
1000
0000
,  // measure 28
0001
0100
1000
0100
,  // measure 29
0002
0000
0000
0003
,  // measure 30
0100
0100
0010
0010
,  // measure 31
0100
0001
1000
0100
1000
0000
0000
0000
,  // measure 32
0010
0010
1000
1000
,  // measure 33
0100
1000
0001
0100
0001
0000
0000
0000
,  // measure 34
2000
0001
3002
1000
,  // measure 35
1003
0000
0000
0001
0000
0000
0100
0000
0010
0000
0000
1000
0000
0000
0001
0000
,  // measure 36
0010
0011
0001
0101
,  // measure 37
0100
0010
1000
0100
0010
0000
0000
0000
,  // measure 38
0100
1100
1000
1010
,  // measure 39
0010
0100
0001
0010
0100
0000
0000
0000
,  // measure 40
1000
1100
0001
0101
,  // measure 41
0100
0001
1000
0010
0001
0000
0000
0000
,  // measure 42
0010
0000
1000
0000
0100
0010
0100
0010
,  // measure 43
0001
1000
2002
3003
,  // measure 44
1000
0000
1001
0000
0001
0010
0001
0000
,  // measure 45
1000
0100
1000
0100
2000
0000
3000
0000
,  // measure 46
0001
0000
1001
0000
1000
0010
1000
0000
,  // measure 47
0001
0100
0001
0100
0001
0000
0000
0000
,  // measure 48
0100
0000
0101
0000
0001
1000
0001
0000
,  // measure 49
0100
0010
0100
0010
2000
0000
3000
0100
,  // measure 50
0200
0000
0010
0000
0310
0001
0010
0001
,  // measure 51
0200
0000
0010
0000
0320
0000
0000
1030
,  // measure 52
2000
0000
3200
0000
,  // measure 53
0310
0100
0002
0000
,  // measure 54
0103
0000
0000
0000
;

//---------------dance-single - DDRDAIKENKAI----------------
#NOTES:
     dance-single:
     DDRDAIKENKAI:
     Easy:
     2:
     0.224,0.240,0.030,0.171,0.000: // measure 1
0000
0000
0000
0000
,  // measure 2
0000
0000
0000
0000
,  // measure 3
0000
0000
0000
0000
,  // measure 4
0000
0000
0000
0000
,  // measure 5
1000
0000
0001
0000
,  // measure 6
0100
0100
0100
0000
,  // measure 7
0010
0100
0010
0100
,  // measure 8
0001
1000
0002
0000
,  // measure 9
2000
0000
3003
0000
,  // measure 10
1000
1000
0100
0100
,  // measure 11
0010
0001
0100
0000
,  // measure 12
0001
0001
0010
0010
,  // measure 13
0100
1000
0010
0000
,  // measure 14
1000
1000
0001
0001
,  // measure 15
1000
0100
0001
0000
,  // measure 16
0001
0001
1000
1000
,  // measure 17
0001
0100
1000
0000
,  // measure 18
0001
0000
1000
0000
,  // measure 19
0001
0000
1000
0100
,  // measure 20
0010
0000
0100
0000
,  // measure 21
0010
0000
0010
0010
,  // measure 22
0001
0000
0100
0100
,  // measure 23
0001
0000
1000
0001
,  // measure 24
1000
0000
0100
0100
,  // measure 25
1000
0000
0001
1000
,  // measure 26
0001
0000
0010
0010
,  // measure 27
0001
0000
1000
0001
,  // measure 28
1000
0000
0010
0000
,  // measure 29
2002
0000
3003
0000
,  // measure 30
0010
0000
0100
0000
,  // measure 31
1000
0010
0001
0000
,  // measure 32
0010
0000
0100
0000
,  // measure 33
0001
0010
1000
0000
,  // measure 34
0020
0000
0030
0000
,  // measure 35
0220
0000
0000
0330
,  // measure 36
0001
0001
0100
0100
,  // measure 37
0001
0010
0100
0000
,  // measure 38
1000
1000
0010
0010
,  // measure 39
1000
0100
0010
0000
,  // measure 40
0100
0100
0010
0010
,  // measure 41
0001
1000
0001
0000
,  // measure 42
2000
0000
3002
0000
,  // measure 43
0103
0010
0110
0000
,  // measure 44
2000
0000
0010
0000
,  // measure 45
3010
0100
0010
0000
,  // measure 46
0200
0000
0001
0000
,  // measure 47
0301
0010
0001
0000
,  // measure 48
2000
0000
0001
0000
,  // measure 49
3001
1000
0001
0000
,  // measure 50
0020
0000
0230
0000
,  // measure 51
0310
0001
0100
0000
,  // measure 52
0020
0000
0230
0000
,  // measure 53
1300
0100
0002
0000
,  // measure 54
0103
0000
0000
0000
;

//---------------dance-single - DDRDAIKENKAI----------------
#NOTES:
     dance-single:
     DDRDAIKENKAI:
     Challenge:
     9:
     0.639,0.639,0.251,0.191,0.633: // measure 1
0000
0000
0000
0000
,  // measure 2
0000
0000
0000
0000
,  // measure 3
0000
0000
0000
0000
,  // measure 4
0000
0000
0000
0000
,  // measure 5
2000
0000
0000
0100
0000
0000
3100
0000
0020
0000
0000
0001
0000
0000
0031
0000
,  // measure 6
0200
0000
0000
0010
0000
0000
0310
0000
1000
0000
0000
0001
0000
0000
0100
0000
,  // measure 7
0110
0000
0000
0010
0000
0000
0010
0000
1000
0000
0000
0001
0000
0000
1000
0000
,  // measure 8
1001
0000
0000
0011
0000
0000
1010
0000
1001
0000
0001
1000
0001
1000
0001
1000
,  // measure 9
0001
0000
0010
0100
0000
0000
0100
1000
0000
0000
1000
0001
0000
1000
0000
0001
,  // measure 10
0100
0000
0010
2000
0000
0000
3001
0000
0100
0000
0010
2000
0000
0000
3001
0000
,  // measure 11
0100
0000
0001
0000
0010
0000
0100
1000
0001
0000
0100
0000
0101
0000
0000
0000
,  // measure 12
0100
0000
0001
2000
0000
0000
3010
0000
0100
0000
0001
2000
0000
0000
3010
0000
,  // measure 13
0100
0000
1000
0000
0100
0000
0001
1000
0100
0000
1000
0000
1100
0000
0000
0000
,  // measure 14
0010
0000
0001
0200
0000
0000
1300
0000
0100
0000
0001
0020
0000
0000
1030
0000
,  // measure 15
0010
0000
0001
0000
0100
0000
0010
1000
0100
0000
0010
0000
0110
0000
0100
0010
,  // measure 16
0200
0000
0000
2300
0000
0000
3001
0000
1000
0000
0100
0000
0001
0000
0100
0000
,  // measure 17
0010
0000
0000
0001
0000
0000
1000
0000
2002
0000
0000
0000
3003
0000
0000
0000
,  // measure 18
0001
0000
1000
0100
0000
0010
0000
0001
0000
0000
1000
0010
0000
0100
0000
0001
,  // measure 19
0000
0000
1000
0100
0000
1000
0000
0001
0000
0000
0001
0100
0000
0010
0000
1000
,  // measure 20
0000
0000
0010
0100
0000
0001
0000
1000
0000
0000
0010
0100
0000
0001
0000
1000
,  // measure 21
0000
0000
0100
0010
0000
0001
0000
0100
0000
0010
1000
0010
0000
0100
0000
0001
,  // measure 22
1000
0000
0100
0000
1000
0000
0100
0000
0010
0000
0000
0010
0000
0000
0010
0000
,  // measure 23
0001
0000
0100
0000
0001
0000
0100
0000
1000
0000
0000
1000
0000
0000
1000
0000
,  // measure 24
0100
0000
0001
0000
0100
0000
0001
0000
0010
0000
0000
0010
0000
0000
0010
0000
,  // measure 25
0100
1000
0100
1000
0001
1000
0001
1000
,  // measure 26
0010
0000
0001
0000
0010
0000
1000
0000
0001
0000
0000
0001
0000
0000
0001
0000
,  // measure 27
1000
0000
0100
0000
0010
0000
0100
0000
1000
0000
0000
1000
0000
0000
1000
0000
,  // measure 28
0001
0000
0100
0000
1000
0000
0100
0000
0001
0000
0000
0001
0000
0000
0001
0000
,  // measure 29
1000
0000
0000
0001
0100
0000
0010
0000
1000
0001
0000
0000
1001
0000
0001
0000
,  // measure 30
0100
0000
0001
0000
0010
0000
0100
0000
0010
0000
0000
0001
1000
0000
0100
0000
,  // measure 31
1000
0000
0000
1000
0001
0000
0100
0000
0010
0000
0000
1000
0010
0000
0100
0000
,  // measure 32
0001
0000
0010
0000
0100
0000
0010
0000
0001
0000
0000
0001
0100
0000
0010
0000
,  // measure 33
1000
0000
0100
0000
1000
0000
0000
0000
0001
0000
0000
0001
0010
0000
0100
0000
,  // measure 34
1000
0000
0000
1100
0000
0000
1000
0000
0001
0000
0000
0101
0000
0000
0001
0000
,  // measure 35
1001
0000
1000
0010
0000
0100
0001
0000
1000
0000
0001
0100
0000
0010
1000
0000
,  // measure 36
0001
0000
1000
0100
0000
1000
0100
0000
0010
0000
0001
0100
0000
0001
0100
0000
,  // measure 37
0001
0000
0010
0000
0100
0000
1000
0010
0100
0000
0001
0000
0101
0000
0000
0000
,  // measure 38
1000
0000
0100
0010
0000
0100
0010
0000
0001
0000
0100
0010
0000
0100
0010
0000
,  // measure 39
1000
0000
0001
0000
0100
0000
0010
0100
0001
0000
1000
0000
1001
0000
0000
0000
,  // measure 40
0001
0000
1000
0010
0000
1000
0001
0000
1000
0000
0001
0010
0000
0001
1000
0000
,  // measure 41
0001
0000
0100
0000
1000
0000
0100
0001
1000
0000
0100
0000
1100
0000
1000
0100
,  // measure 42
2000
0000
0000
3002
0000
0000
0103
0000
0010
0000
1000
0000
0100
0000
0010
0000
,  // measure 43
0011
0000
0000
1100
0000
0000
0001
0000
1001
0000
1000
0100
1000
0100
1000
0100
,  // measure 44
1000
0000
0001
0100
0000
0010
1000
0000
0001
0000
1000
0010
0000
0100
0001
0000
,  // measure 45
1000
0000
0100
0010
0000
0001
1000
0000
0001
0000
0010
0100
0000
1000
0001
0000
,  // measure 46
0100
0000
0010
0100
0000
0010
1000
0000
0001
0000
0100
0010
0000
0100
0001
0000
,  // measure 47
0010
0000
0100
0010
0000
0001
1000
0000
0010
0000
0010
1000
0000
1000
0001
0000
,  // measure 48
1000
0000
0100
0010
0000
0001
1000
0000
0001
0000
0010
0100
0000
1000
0001
0000
,  // measure 49
1000
0000
0001
0100
0000
0001
0010
0000
0001
0000
1000
0100
0000
1000
0010
1000
,  // measure 50
0001
0000
0000
0101
0000
0000
1100
0000
0001
0000
1000
0100
0000
1000
0010
0000
,  // measure 51
1010
0000
0000
0110
0000
0000
0101
0000
1001
0000
1000
0100
1000
0100
1000
0100
,  // measure 52
2000
0000
0000
0010
0000
0000
0010
0000
3200
0000
0001
0000
0010
0000
0001
0000
,  // measure 53
0320
0000
0000
1000
0000
0000
1000
0000
0032
0000
0000
0000
0000
0000
0000
0000
,  // measure 54
0103
0000
0000
0000
;

//---------------dance-single - DDRDAIKENKAI----------------
#NOTES:
     dance-single:
     DDRDAIKENKAI:
     Beginner:
     1:
     0.148,0.186,0.020,0.040,0.000: // measure 1
0000
0000
0000
0000
,  // measure 2
0000
0000
0000
0000
,  // measure 3
0000
0000
0000
0000
,  // measure 4
0000
0000
0000
0000
,  // measure 5
1001
0000
0000
0000
,  // measure 6
0100
0000
0000
0000
,  // measure 7
0010
0000
0010
0000
,  // measure 8
1000
0000
0001
0000
,  // measure 9
1001
0000
0000
0000
,  // measure 10
0100
0000
0100
0000
,  // measure 11
0010
0010
0010
0000
,  // measure 12
1000
0000
1000
0000
,  // measure 13
0001
0001
0001
0000
,  // measure 14
1000
0000
1000
0000
,  // measure 15
0100
0100
0100
0000
,  // measure 16
0010
0000
0001
0000
,  // measure 17
0100
0100
0100
0000
,  // measure 18
0010
0000
0010
0000
,  // measure 19
1000
0000
1000
0000
,  // measure 20
0001
0000
0001
0000
,  // measure 21
0100
0000
0100
0000
,  // measure 22
0001
0000
0000
0000
,  // measure 23
1000
0000
0100
0000
,  // measure 24
0010
0000
0000
0000
,  // measure 25
0001
0000
0100
0000
,  // measure 26
0010
0000
0000
0000
,  // measure 27
1000
0000
0001
0000
,  // measure 28
0100
0000
0000
0000
,  // measure 29
0001
0000
0000
0000
,  // measure 30
1000
0000
1000
0000
,  // measure 31
0100
0000
0100
0000
,  // measure 32
1000
0000
1000
0000
,  // measure 33
0001
0000
0001
0000
,  // measure 34
0200
0000
0300
0000
,  // measure 35
0020
0000
0030
0000
,  // measure 36
0100
0100
0000
0001
,  // measure 37
0000
1000
0000
1000
,  // measure 38
0000
0100
0000
1000
,  // measure 39
0000
0001
0000
0001
,  // measure 40
0000
0100
0000
0010
,  // measure 41
0000
0100
0000
0100
,  // measure 42
0100
0000
0010
0000
,  // measure 43
1000
1000
1000
0000
,  // measure 44
0001
0001
0001
0000
,  // measure 45
1000
0000
0100
0000
,  // measure 46
0010
0010
0010
0000
,  // measure 47
0001
0000
1000
0000
,  // measure 48
0001
0001
0001
0000
,  // measure 49
0100
0000
0010
0000
,  // measure 50
1000
0000
1000
0000
,  // measure 51
0100
0100
0100
0000
,  // measure 52
0020
0000
0030
0000
,  // measure 53
0002
0000
0003
0000
,  // measure 54
0100
0000
0000
0000
;
