#TITLE:Xanadu;
#SUBTITLE:;
#ARTIST:Olivia Newton-John & E.L.O.;
#TITLETRANSLIT:;
#SUBTITLETRANSLIT:;
#ARTISTTRANSLIT:Olivia Newton-John & Electric Light Orchestra;
#GENRE:Disco Pop;
#CREDIT:;
#MENUCOLOR:;
#NEWMETERSYSTEM:NO;
#BANNER:Xanadu.png;
#BACKGROUND:Xanadu-bg.png;
#LYRICSPATH:;
#CDTITLE:CDtitle.png;
#MUSIC:Xanadu.ogg;
#OFFSET:-0.130;
#SAMPLESTART:56.820;
#SAMPLELENGTH:12.000;
#SELECTABLE:YES;
#LISTSORT:;
#BPMS:0.000=127.000,52.000=126.750,84.000=126.500,92.000=126.300,96.000=126.500,100.000=127.000,108.000=126.750,120.000=127.000,152.000=126.770,176.000=127.000,204.000=127.300,220.000=127.000,232.000=126.800;
#STOPS:;
#BGCHANGES:12.125=Xanadu.avi=1.000=1=0=1,
240.000=Xanadu-bg.png=1.000=1=0=1,
99999=-nosongbg-=1.000=0=0=0 // don't automatically add -songbackground-
;
#ATTACKS:;

//---------------dance-single - DDRDAIKENKAI----------------
#NOTES:
     dance-single:
     DDRDAIKENKAI:
     Challenge:
     8:
     0.435,0.607,0.132,0.000,0.243:
0000
0000
0000
0000
,
0000
0000
0000
0000
,
0000
0000
0000
0000
,
0000
0000
0000
0000
,
0000
0000
0000
0000
,
1001
0000
0000
0000
,
0010
0100
0001
1000
0010
0100
0010
0000
,
1001
0000
0000
0000
,
1000
0100
0001
0100
0010
0100
0010
0000
,
1001
0000
0000
0000
,
0010
1000
0100
0001
0100
1000
0010
1000
,
0100
0010
0001
0000
0001
0000
1000
0001
0100
0000
0100
0000
0010
0000
0000
0000
,
1000
0100
0010
0000
0001
0000
1000
0100
0010
0000
0001
0000
0100
0000
0100
0000
,
1001
0000
0000
0000
,
0010
0001
1000
0100
0010
0100
0010
0000
,
1001
0000
0000
0000
,
1000
0001
0100
0010
1000
0100
0010
0000
,
1001
0000
0000
0000
,
0001
0100
0010
1000
0100
0010
0100
0000
,
1000
0001
1000
0000
0010
0000
1000
0001
1000
0000
0010
0000
0100
0000
0000
0000
,
0001
0010
0001
0000
1000
0000
0001
0010
0001
0000
1000
0000
0100
0000
0010
0000
,
0001
0000
0000
0100
0000
0000
0010
0000
1000
0000
0000
0100
0000
0000
0010
0000
,
0001
0000
0000
0100
0000
0000
0010
0000
1000
0000
0001
0000
0010
0000
0000
0000
,
0100
0000
0000
0001
0000
0000
0010
0000
1000
0000
0000
0100
0000
0000
0001
0000
,
0010
0000
0000
1000
0000
0000
0100
0000
0010
0000
0001
0000
0100
0000
0000
0000
,
0001
0000
0000
0100
0000
0000
0010
0000
1000
0000
0000
0100
0000
0000
0010
0000
,
0001
0000
0000
0100
0000
0000
0010
0000
1000
0000
0001
0000
0010
0000
0000
0000
,
0100
0000
0000
0001
0000
0000
0010
0000
1000
0000
0000
0100
0000
0000
0001
0000
,
0010
0000
0000
1000
0000
0000
0100
0000
0010
0000
0001
0000
0100
0000
0010
0000
,
1001
0000
0000
0101
0000
0000
0011
0000
,
0100
0100
0001
0001
,
1000
0100
0010
0001
0100
0010
0100
0000
,
0001
0001
0010
0010
,
0100
1000
0010
0100
0001
0010
0100
0000
,
1000
1000
0010
0010
,
0100
0001
0010
0100
1000
0010
0100
0000
,
1001
0010
1001
0100
,
1000
0010
0100
0000
0001
0000
0010
0100
1000
0000
0001
0000
0100
0010
1000
0000
,
0100
0000
0000
0010
0000
0000
0010
0000
0001
0100
0010
0000
0001
0000
0000
0000
,
1000
0000
0000
0100
0000
0000
0100
0000
0010
0001
0100
0000
1000
0000
0100
0000
,
0001
0000
0000
0010
0000
0000
0010
0000
0100
1000
0010
0000
0001
0000
0000
0000
,
1000
0000
0000
0001
0000
0000
0001
0000
0010
0100
1000
0000
0010
0000
0001
0000
,
0010
0000
0000
0000
1000
0100
0000
0000
0010
0000
0000
0000
0001
0100
0000
0000
,
0010
0000
0000
0000
1000
0001
0000
0000
0010
0000
0000
0000
0100
1000
0000
0000
,
0101
1000
1100
0001
,
0011
1000
1010
0001
,
0110
0000
0000
0000
,
0001
0100
0010
1000
0100
0010
0001
0000
,
0001
0000
0001
0000
0100
0010
0000
0000
1000
0000
0001
0100
0001
0000
0000
0000
,
0010
0000
0010
0000
0100
1000
0000
0000
0001
0000
0010
0100
0010
0000
0000
0000
,
0001
0100
0001
0000
1000
0100
1000
0000
0001
0010
0001
0000
1000
0010
1000
0000
,
0001
0000
0010
0100
0010
0000
0001
0000
1000
0100
1000
0000
0001
0100
0001
0000
,
1000
0000
0010
0100
0010
0000
1000
0000
0001
0010
0001
0000
1000
0010
1000
0000
,
0001
0100
0001
0100
0010
0000
1000
0100
1000
0100
0010
0000
0001
1000
0100
0000
,
0010
0001
0010
0001
1000
0000
0100
0010
0100
0010
0001
0000
0100
0010
1000
0000
,
0001
0100
0010
1000
0100
0010
0001
0100
,
0010
1000
0001
0010
0100
1000
0010
0100
,
0001
1000
0100
0010
0001
0100
0010
1000
,
0100
0010
0001
0100
0010
1000
0100
1000
,
0010
0000
0000
0000
;

//---------------dance-single - DDRDAIKENKAI----------------
#NOTES:
     dance-single:
     DDRDAIKENKAI:
     Hard:
     7:
     0.479,0.452,0.156,0.305,0.049: // measure 1
0000
0000
0000
0000
,  // measure 2
0000
0000
0000
0000
,  // measure 3
0000
0000
0000
0000
,  // measure 4
0000
0000
0000
0000
,  // measure 5
0000
0000
0000
0000
,  // measure 6
1000
0001
1000
0000
0010
0000
1001
0000
,  // measure 7
0100
0010
1000
0100
0001
0100
1000
0000
,  // measure 8
0001
1000
0001
0000
0100
0000
1001
0000
,  // measure 9
0010
0001
0100
1000
0100
0001
1000
0000
,  // measure 10
0001
0010
0100
0000
1000
0001
0100
0010
,  // measure 11
2000
0000
0000
0100
0200
0000
3300
0000
,  // measure 12
0010
0001
0010
0001
0100
0010
1000
0000
,  // measure 13
0010
0100
0010
0100
0001
1000
0100
0010
,  // measure 14
0001
0000
0101
0000
0010
1000
0100
0000
,  // measure 15
1000
0001
0100
0010
0100
0001
1000
0000
,  // measure 16
0001
0000
0101
0000
0010
1000
0100
0000
,  // measure 17
1000
0010
0100
0001
0010
0100
1000
0000
,  // measure 18
0001
0100
1000
0000
1000
0100
0001
1000
,  // measure 19
0200
0000
0000
0001
0002
0000
0303
0000
,  // measure 20
0100
1000
0001
0100
0010
1000
0100
0000
,  // measure 21
0010
0001
1000
0010
0100
0001
0010
0100
,  // measure 22
0020
0000
0000
0031
0100
0010
2010
0000
,  // measure 23
3020
0000
0000
1030
0010
0100
0201
0000
,  // measure 24
0320
0000
0000
1030
0100
0001
0012
0000
,  // measure 25
0023
0000
0000
0031
0100
1000
2001
0000
,  // measure 26
3200
0000
0000
1300
0001
0010
0012
0000
,  // measure 27
0203
0000
0000
0301
1000
0010
1020
0000
,  // measure 28
0230
0000
0000
0310
1000
0001
2001
0000
,  // measure 29
3200
0000
0000
0310
0001
1000
1001
0000
,  // measure 30
0110
0000
0000
1001
0000
0000
1100
0000
,  // measure 31
0102
0000
1003
0001
0100
0010
2000
0000
,  // measure 32
3010
0100
0010
0100
0001
1000
0100
0010
,  // measure 33
0200
0000
0310
0001
0010
0100
1000
0000
,  // measure 34
0010
0100
0010
0100
0001
1000
0100
1000
,  // measure 35
0001
0000
0000
0001
0010
0000
0000
0010
0100
0000
0000
0100
1000
0000
0000
1000
,  // measure 36
0010
0000
0000
0010
0100
0000
0000
0100
0001
0000
1000
0000
0100
0000
0000
0000
,  // measure 37
2000
0000
0000
0100
3100
0000
1001
0000
,  // measure 38
0010
0001
0010
0001
0100
0010
1000
0100
,  // measure 39
0020
0000
0031
0010
0100
1000
0001
0000
,  // measure 40
0100
0010
0100
0010
1000
0001
0100
0010
,  // measure 41
2000
0000
3001
1000
0001
1000
0100
0000
,  // measure 42
0010
0001
0100
0001
0010
0100
1000
0010
,  // measure 43
0100
0000
0000
0100
1000
0000
0000
1000
0100
0000
0000
0100
0010
0000
0000
0010
,  // measure 44
1000
0000
0000
1000
0100
0000
0000
0100
0001
0000
0100
0000
0110
0000
0000
0000
,  // measure 45
0001
0100
0001
0010
0100
1000
0010
1000
,  // measure 46
0100
0001
0100
1000
0010
0001
0010
1000
,  // measure 47
0001
0010
0001
0010
0100
1000
0100
1000
,  // measure 48
0020
0032
0203
2300
,  // measure 49
3001
0010
0001
0010
0001
0100
0010
1000
,  // measure 50
0100
0001
0100
1000
0010
0001
0010
1000
,  // measure 51
0002
0023
0230
2300
,  // measure 52
3010
1000
0001
0100
0010
1000
0001
0100
,  // measure 53
0010
1000
0100
0010
0001
1000
0100
0010
,  // measure 54
0001
0100
1000
0100
0001
0100
1000
0100
,  // measure 55
0001
0010
0001
0100
0002
1000
2003
0000
,  // measure 56
3010
1000
0010
1000
0010
1000
0010
1000
,  // measure 57
0100
0001
0100
0001
0100
0001
0100
0001
,  // measure 58
0010
0001
0010
0001
0010
0001
0010
1000
,  // measure 59
0100
1000
0100
1000
0100
1000
0100
0010
,  // measure 60
2002
0000
0000
0000
,  // measure 61
0000
0000
0000
0000
,  // measure 62
3003
0000
0000
0000
;

//---------------dance-single - DDRDAIKENKAI----------------
#NOTES:
     dance-single:
     DDRDAIKENKAI:
     Medium:
     5:
     0.321,0.402,0.115,0.371,0.000:
0000
0000
0000
0000
,
0000
0000
0000
0000
,
0000
0000
0000
0000
,
0000
0000
0000
0000
,
0000
0000
0000
0000
,
1000
0000
0001
0000
0100
0001
0010
0000
,
0100
1000
0010
0000
0001
0000
0010
0000
,
1000
0000
0001
0000
0010
0001
0100
0000
,
0010
1000
0100
0000
0001
0000
0100
0000
,
1000
0001
0100
0010
,
2000
0000
0000
0001
0002
0000
3003
0000
,
0100
0010
0100
0000
0001
0000
1000
0000
,
0010
0100
0010
0000
1000
0000
0001
0000
,
0001
0000
1000
0000
0100
1000
0001
0000
,
0100
0001
1000
0000
0010
0000
0100
0000
,
0001
0000
1000
0000
0010
1000
0001
0000
,
0010
0001
1000
0000
0010
0000
0100
0000
,
0001
0010
0100
1000
,
0020
0000
0000
0100
0200
0000
0330
0000
,
0010
1000
0100
0000
0010
0000
0100
0000
,
0010
0001
0100
0000
0010
0000
0100
0000
,
0020
0000
0000
0100
0130
0000
0001
0000
,
2000
0000
0000
0100
3100
0000
0010
0000
,
0002
0000
0000
1000
1003
0000
0001
0000
,
0200
0000
0000
0010
0310
0000
1000
0000
,
0200
0000
0000
1300
0001
0000
0100
0000
,
0020
0000
0000
0130
0001
0000
1000
0000
,
0200
0000
0000
0310
0001
0000
1000
0000
,
0002
0000
0000
1003
0100
0000
0010
0000
,
0001
0000
0000
1000
0000
0000
1001
0000
,
0200
0000
0000
0310
0020
0000
0000
0030
,
1000
0100
0010
0001
,
2000
0000
0000
0001
0002
0000
3003
0000
,
0100
0010
1000
0001
,
0100
0020
2030
3200
,
0302
0203
2300
3002
,
0203
0000
0320
0000
,
1030
0100
1000
0100
0010
0001
0010
0001
,
2000
0000
0000
0001
0002
0000
3003
0000
,
0100
0010
1000
0001
,
0200
0000
0000
0010
0020
0000
0330
0000
,
0100
0001
0010
0100
,
1000
0020
0032
0023
,
2030
3200
0320
0032
,
1003
1100
0001
0101
,
1000
1010
0001
0011
,
1001
0000
0100
0100
,
0010
1000
0100
0000
0010
0001
0100
0000
,
0001
0101
1000
1100
,
0001
0011
1000
1010
,
0110
0000
0100
0100
,
0020
1000
0100
0030
,
0200
0001
0010
0300
,
0002
1000
0010
0100
,
1003
0000
0100
0100
,
0120
0001
0001
0001
,
0032
0100
0100
0103
,
2002
0000
0000
0000
,
0000
0000
0000
3003
,
0220
0000
0000
0000
,
0000
0000
0000
0000
,
0330
0000
0000
0000
;

//---------------dance-single - DDRDAIKENKAI----------------
#NOTES:
     dance-single:
     DDRDAIKENKAI:
     Beginner:
     1:
     0.155,0.247,0.107,0.296,0.000:
0000
0000
0000
0000
,
0000
0000
0000
0000
,
0000
0000
0000
0000
,
0000
0000
0000
0000
,
0000
0000
0000
0000
,
1001
0000
0000
0000
,
0100
0100
0100
0000
,
1001
0000
0000
0000
,
0010
0010
0010
0000
,
1001
0000
0000
0000
,
2000
0000
3000
0000
,
0200
0000
0300
0000
,
0020
0000
0030
0000
,
1001
0000
0000
0000
,
1000
1000
1000
0000
,
1001
0000
0000
0000
,
0001
0001
0001
0000
,
1001
0000
0000
0000
,
0002
0000
0003
0000
,
0020
0000
0030
0000
,
0200
0000
0300
0000
,
2000
0000
3000
0000
,
0002
0000
0003
0000
,
0200
0000
0300
0000
,
0020
0000
0030
0000
,
2002
0000
3003
0000
,
0220
0000
0330
0000
,
0220
0000
0330
0000
,
2002
0000
3003
0000
,
2002
0000
3003
0000
,
2000
0000
3000
0000
,
0100
0100
0100
0000
,
0020
0000
0030
0000
,
0001
0001
0001
0000
,
1000
0000
1000
0000
,
0001
0000
0001
0000
,
0100
0000
0100
0000
,
0010
0000
0010
0000
,
2000
0000
3000
0000
,
0010
0000
0001
0000
,
0200
0000
0300
0000
,
1000
0000
0100
0000
,
0002
0000
0003
0000
,
0020
0000
0030
0000
,
1000
1000
1000
0000
,
0001
0001
0001
0000
,
0100
0000
0010
0000
,
2000
0000
3000
0000
,
0001
0001
0001
0000
,
1000
1000
1000
0000
,
0100
0000
0010
0000
,
0002
0000
0003
0000
,
0200
0000
0300
0000
,
0020
0000
0000
0000
,
0030
0000
1000
1000
,
2000
0000
3000
0000
,
0002
0000
0003
0000
,
2002
0000
0000
0000
,
3003
0000
0000
0000
,
0220
0000
0000
0000
,
0330
0000
0000
0000
;

//---------------dance-single - DDRDAIKENKAI----------------
#NOTES:
     dance-single:
     DDRDAIKENKAI:
     Easy:
     3:
     0.220,0.352,0.107,0.420,0.000:
0000
0000
0000
0000
,
0000
0000
0000
0000
,
0000
0000
0000
0000
,
0000
0000
0000
0000
,
0000
0000
0000
0000
,
1001
0000
1000
0000
,
0001
0001
0001
0000
,
1001
0000
0001
0000
,
1000
1000
1000
0000
,
1001
0000
0100
0000
,
0020
0000
0030
0000
,
1000
0100
1000
0000
,
0010
0100
0010
0000
,
0110
0000
0100
0000
,
0010
0010
0010
0000
,
0110
0000
0010
0000
,
0100
0100
0100
0000
,
0001
0000
1000
0000
,
0002
0000
0003
0000
,
1000
0100
0010
0000
,
0001
0100
0010
0000
,
2000
0000
3100
0000
,
0020
0000
0031
0000
,
0200
0000
0310
0000
,
2000
0000
3001
0000
,
1002
0000
0103
0000
,
0020
0000
1030
0000
,
0200
0000
0310
0000
,
0002
0000
1003
0000
,
2002
0000
0000
3003
,
2000
0000
3200
0000
,
1000
1000
2000
3300
,
0002
0000
0203
0000
,
0001
0001
0002
0303
,
0000
0002
0023
2030
,
3020
0032
2000
3003
,
0220
0000
0330
0000
,
2002
0000
3003
0000
,
2000
0000
3020
0000
,
0100
0100
0200
0330
,
0002
0000
0023
0000
,
0100
0100
0200
0330
,
0000
2000
3020
0032
,
0023
2030
0002
3003
,
1001
1000
0100
1000
,
0100
0010
0001
0010
,
0002
0000
0000
1000
,
2000
0000
3003
0000
,
1001
0001
0100
0001
,
0100
0010
1000
0010
,
2000
0000
0000
0001
,
3002
0000
0010
0010
,
0023
0000
0100
0100
,
0200
0000
0000
0000
,
0330
0000
1000
0001
,
1002
0000
0000
0000
,
2003
0000
0000
0000
,
0020
0000
0000
0000
,
0000
0000
0000
3030
,
0220
0000
0000
0000
,
0000
0000
0000
0000
,
0330
0000
0000
0000
;
