#TITLE:Welcome To GTI Club;
#SUBTITLE:;
#ARTIST:Sota Fujimori;
#TITLETRANSLIT:;
#SUBTITLETRANSLIT:;
#ARTISTTRANSLIT:;
#GENRE:FUNKY CRUISE;
#CREDIT:;
#MENUCOLOR:;
#NEWMETERSYSTEM:NO;
#BANNER:Welcome To GTI Club.png;
#BACKGROUND:Welcome to GTI Club-bg.png;
#LYRICSPATH:;
#CDTITLE:;
#MUSIC:Welcome To GTI Club.ogg;
#OFFSET:0.012;
#SAMPLESTART:24.755;
#SAMPLELENGTH:15.320;
#SELECTABLE:YES;
#LISTSORT:;
#BPMS:0.000=126.000;
#STOPS:;
#BGCHANGES:;
#ATTACKS:;

//---------------dance-single - DDRDAIKENKAI----------------
#NOTES:
     dance-single:
     DDRDAIKENKAI:
     Hard:
     7:
     0.522,0.516,0.321,0.749,0.263: // measure 1
0000
0000
0000
0000
,  // measure 2
0000
0000
0000
0000
,  // measure 3
0000
0000
0000
0000
,  // measure 4
0000
0000
0000
0000
,  // measure 5
0001
1000
0000
0000
0000
0000
1000
0001
0000
0000
1001
0000
0000
1010
0000
0000
,  // measure 6
1100
0000
0000
0000
0000
0000
0100
0000
0000
0000
0110
0000
0000
0011
0000
0000
,  // measure 7
0010
0001
0000
0000
0000
0000
0001
0100
0000
0000
0101
0000
0000
0110
0000
0000
,  // measure 8
1001
0000
0000
0000
1100
0000
0000
0000
0010
0000
0001
0000
0000
1001
0000
0000
,  // measure 9
0012
0000
0000
0000
0103
0000
0000
0000
0010
0000
1000
0000
0000
0100
0000
0000
,  // measure 10
1200
0000
0000
0000
1300
0000
0000
0000
0001
0000
1000
0010
0000
0100
0000
0000
,  // measure 11
0201
0000
0000
0000
0310
0000
0000
0000
1000
0000
0100
0000
0000
0010
0000
0000
,  // measure 12
0110
0011
1010
0101
,  // measure 13
2200
0000
0000
3300
,  // measure 14
0M20
0000
0000
0000
0130
0000
0001
1000
0020
0000
0000
0000
0001
0000
0000
0000
,  // measure 15
0100
0000
0000
0000
1000
0000
0000
0000
0230
0000
0000
0302
0000
0000
1003
0000
,  // measure 16
0200
0010
0001
1000
,  // measure 17
0320
0032
2003
3020
,  // measure 18
0230
0000
0000
0000
0310
0000
1000
0001
0020
0000
0000
0000
0100
0000
0000
0000
,  // measure 19
0001
0000
0000
0000
1000
0000
0000
0000
0230
0000
0000
2300
0000
0000
3100
0000
,  // measure 20
0020
0000
0001
0000
0031
0100
0010
0001
,  // measure 21
0020
0000
0000
0000
2030
0000
0000
0000
3100
0000
0020
0000
0000
0031
0000
0000
,  // measure 22
2001
0000
0000
0000
3100
0000
0010
0001
0200
0000
0000
0000
1000
0000
0000
0000
,  // measure 23
0010
0000
0000
0000
0001
0000
0000
0000
0320
0000
0000
2030
0000
0000
3200
0000
,  // measure 24
0302
1000
0100
1000
,  // measure 25
0203
0000
2300
0000
3020
0032
0000
0013
,  // measure 26
0020
0000
0000
0000
0130
0000
0001
1000
0002
0000
0000
0000
1003
0000
0010
1000
,  // measure 27
0200
0000
0000
0000
0001
0000
0000
0000
0320
0000
0000
0032
0000
0000
1003
0000
,  // measure 28
0020
2030
3200
0302
,  // measure 29
0103
0000
1000
0000
0001
0000
0010
0000
0001
0000
0100
0000
0010
1000
0100
1000
,  // measure 30
0002
0000
0000
0000
0010
0000
0000
0000
1000
0000
0000
0000
0103
0000
0001
1000
,  // measure 31
0200
2300
3020
0032
,  // measure 32
0023
0000
0000
0000
1000
0000
0000
0000
0001
0000
0000
0000
0130
0000
0001
1000
,  // measure 33
0200
0302
2003
3020
,  // measure 34
0032
0010
0023
0100
,  // measure 35
0230
0000
0000
0000
1000
0000
0000
0000
2300
0000
0000
0000
3001
0010
0001
0100
,  // measure 36
0002
0000
0000
0000
1000
0000
0000
0000
0100
0000
0000
0000
1003
0000
0100
0010
,  // measure 37
0200
0000
0000
0000
0010
0000
0000
0000
0010
0000
0000
0000
0310
0001
0010
0100
,  // measure 38
0020
0000
0000
0000
0001
0000
0000
0000
0100
0000
0000
0000
0031
0000
0010
0001
,  // measure 39
2000
0000
3020
0000
0032
0000
0000
0103
,  // measure 40
0020
0000
0000
0000
0001
0000
0000
0000
0100
0000
0000
0000
0031
0000
0100
1000
,  // measure 41
0200
0320
0032
0203
,  // measure 42
2300
0010
3020
0001
,  // measure 43
0032
0000
0000
0000
0100
0000
0000
0000
0203
0000
0000
0000
0310
0001
0010
0100
,  // measure 44
2000
0000
0000
0000
0010
0000
0000
0000
0001
0000
0000
0000
3100
0000
0010
0001
,  // measure 45
0200
0000
2300
0000
3100
0001
0011
0000
,  // measure 46
1002
0000
0000
1003
0000
0000
0100
0000
2000
0000
0000
3001
0000
0000
0100
0000
,  // measure 47
0002
0000
0000
1003
0000
0000
0100
0000
1000
0001
0000
1000
0000
0000
0100
0000
,  // measure 48
2000
0000
0000
3010
0000
0000
0001
0000
2000
0000
0000
3100
0000
0000
0001
0000
,  // measure 49
1000
0000
0000
0000
0001
0000
0000
0000
1000
0000
0000
0000
0001
0000
0000
0000
0000
0000
0100
0000
0000
0010
0000
0000
0000
0000
0000
0100
0000
0000
0010
0000
0000
0000
0000
0000
1000
0000
0000
0000
0000
0000
0001
0000
0000
0000
0000
0000
,  // measure 50
0100
0010
0000
0000
0000
0000
0010
0100
0000
0000
0110
0000
0000
1010
0000
0000
,  // measure 51
1100
0000
0000
0000
0000
0000
0100
0000
0000
0000
0110
0000
0000
0011
0000
0000
,  // measure 52
0001
0100
0000
0000
0000
0000
0010
1000
0000
0000
0100
0000
0000
0010
0000
0000
,  // measure 53
2001
0000
0000
0000
3100
0000
0000
0000
0010
0000
0001
0000
0000
1001
0000
0000
,  // measure 54
1200
0000
0000
0000
1300
0000
0001
0000
0100
0000
0001
0000
0000
1000
0000
0000
,  // measure 55
2010
0000
0000
0000
3010
0000
0100
0000
0010
0000
1000
0100
0000
0010
0000
0000
,  // measure 56
0021
0000
0000
0000
0031
0000
1000
0000
0100
0000
0010
0000
0000
0001
0000
0000
,  // measure 57
1001
1001
0110
0110
,  // measure 58
0202
0000
0000
0000
0000
0000
0000
0000
0000
0000
0000
0000
0000
0000
0000
0303
;

//---------------dance-single - DDRDAIKENKAI----------------
#NOTES:
     dance-single:
     DDRDAIKENKAI:
     Medium:
     5:
     0.424,0.465,0.232,0.722,0.027:
0000
0000
0000
0000
,
0000
0000
0000
0000
,
0000
0000
0000
0000
,
0000
0000
0000
0000
,
1001
0000
0000
0000
0000
0000
0100
0000
0000
0000
0010
0000
0000
0010
0000
0000
,
0110
0000
0000
0000
0000
0000
0100
0000
0000
0000
0001
0000
0000
1000
0000
0000
,
1001
0000
0000
0000
0000
0000
0001
0000
0000
0000
1000
0000
0000
0100
0000
0000
,
1000
0100
0010
0001
,
1002
0000
0103
0010
1000
0100
0010
0000
,
0012
0000
1003
0001
0100
0010
0100
0000
,
0120
0000
1030
0001
0100
0001
0010
0000
,
0011
0011
1100
1100
,
2002
0000
0000
3003
,
2000
3100
0002
0010
,
1000
0100
0023
0032
,
0203
0010
1000
0001
,
0320
2030
3002
0023
,
0032
0103
2000
0010
,
0001
3100
0002
0023
,
0230
0000
1000
0000
1300
0010
0200
0000
,
0302
0000
0023
0000
0130
1000
0001
0000
,
1002
0000
1003
0001
0200
0000
0010
0000
,
0320
0000
2030
0000
3001
0010
0001
0000
,
2000
0100
0001
0010
,
3002
0023
0230
2300
,
3002
0000
0103
0010
2000
0000
3010
1000
,
0200
0000
1300
0000
0001
0010
0001
0000
,
0200
0302
0023
2030
,
3010
0001
0100
0020
0000
0000
1000
1000
,
2030
0000
0100
0000
0001
0000
0100
0100
,
3200
2300
3002
0023
,
0032
0000
1000
0000
0010
0000
0100
0100
,
0203
0320
0032
0023
,
2030
0000
3200
0000
,
0302
0000
0000
0000
0023
0000
0000
1030
,
2000
0000
0001
0000
0010
0000
3001
0100
,
0002
0000
0010
0000
1000
0000
0013
0001
,
2000
0000
0010
0000
0100
0000
3010
0100
,
0020
0000
0230
0000
0302
0000
0000
1003
,
0020
0000
1000
0000
0100
0000
1030
0001
,
0020
0230
2300
3002
,
0023
0000
0032
0000
,
0203
0000
0000
0000
2300
0000
0000
3010
,
0002
0000
1000
0000
1000
0000
1003
0010
,
2000
0001
0001
3001
,
1002
1000
0000
0100
,
0000
1000
0000
0103
,
2000
0010
0000
0100
,
0002
0003
0002
3003
,
1001
0000
0000
0000
0000
0000
1000
0000
0000
0000
0010
0000
0000
0100
0000
0000
,
0110
0000
0000
0000
0000
0000
0100
0000
0000
0000
0001
0000
0000
1000
0000
0000
,
1001
0000
0000
0000
0000
0000
0001
0000
0000
0000
0010
0000
0000
0100
0000
0000
,
0210
1300
0210
0301
,
1200
0000
0310
0001
0100
0010
1000
0000
,
0120
0000
1030
0001
0010
0100
1000
0000
,
0012
0000
0103
0010
1000
0100
0010
0000
,
1010
1010
0101
0101
,
0220
0000
0000
0000
0000
0000
0000
0000
0000
0000
0000
0000
0000
0000
0000
0330
;

//---------------dance-single - DDRDAIKENKAI----------------
#NOTES:
     dance-single:
     DDRDAIKENKAI:
     Easy:
     3:
     0.262,0.387,0.187,0.472,0.000:
0000
0000
0000
0000
,
0000
0000
0000
0000
,
0000
0000
0000
0000
,
0000
0000
0000
0000
,
2000
0000
0000
0000
0000
0001
0000
0000
,
3002
0000
0000
0000
0000
0100
0000
0000
,
0203
0000
0000
0000
0000
0010
0000
0000
,
0320
0000
0130
0100
,
2002
0000
0000
3003
0000
0001
0000
0000
,
0202
0000
0000
0303
0000
1000
0000
0000
,
2020
0000
0000
3030
0000
0100
0000
0000
,
0110
0110
0110
0110
,
2002
0000
0000
3003
,
2000
0000
3200
0000
,
0010
0010
0310
0000
,
0002
0000
0100
0000
,
1003
0001
1000
0001
,
2000
0000
3020
0000
,
0100
0100
0130
0000
,
0002
0000
0013
0100
,
2000
0001
0002
3003
,
1002
0000
0203
0000
,
0010
0010
0310
0000
,
2000
0000
3002
0000
,
0013
0100
0010
0100
,
2000
0000
3020
0000
,
0230
0000
0301
1000
,
0001
0001
0100
0100
,
0010
1000
0010
1000
,
0002
0000
0000
1000
,
1003
0100
0010
0001
,
0020
0000
0000
0001
,
0031
0100
0010
1000
,
0020
0030
0200
0300
,
0002
0003
2000
3000
,
0200
0000
0000
0000
,
0320
0000
0000
0000
,
0032
0000
0000
0000
,
1003
0100
0010
0001
,
2000
0000
0000
0000
,
3010
0100
0001
1000
,
0200
0300
2000
3000
,
0020
0030
0200
0300
,
0002
0000
0000
0000
,
2000
0000
0000
3003
,
1002
0000
0010
0000
,
0100
0000
0013
0000
,
2000
0000
0100
0000
,
0010
0000
3010
0000
,
0220
0000
0000
0330
0000
0001
0000
0000
,
2002
0000
0000
3003
0000
0100
0000
0000
,
0220
0000
0000
0330
0000
0001
0000
0000
,
1000
0010
0100
0001
,
1001
0000
0000
0001
0000
0000
0010
0000
,
0011
0000
0000
0001
0000
0000
1000
0000
,
1100
0000
0000
0100
0000
0000
0010
0000
,
0110
0110
0110
0110
,
2002
0000
0000
0000
0000
0000
0000
0000
0000
0000
0000
0000
0000
0000
0000
3003
;
