#TITLE:Vifta med Handerna;
#SUBTITLE:;
#ARTIST:Basshunter feat. Patrik och Lillen;
#TITLETRANSLIT:;
#SUBTITLETRANSLIT:;
#ARTISTTRANSLIT:;
#GENRE:EURODANCE;
#CREDIT:;
#BANNER:Vifta med Händerna.png;
#BACKGROUND:Vifta med Händerna-bg.png;
#LYRICSPATH:;
#CDTITLE:cdtitlecollab.png;
#MUSIC:VMH.ogg;
#OFFSET:0.020;
#SAMPLESTART:52.300;
#SAMPLELENGTH:13.900;
#SELECTABLE:YES;
#BPMS:0.000=137.500
;
#STOPS:
;
#BGCHANGES:;
#KEYSOUNDS:;
#ATTACKS:;

//---------------dance-single - DDRDAIKENKAI----------------
#NOTES:
     dance-single:
     DDRDAIKENKAI:
     Challenge:
     12:
     1.000,1.000,0.362,0.312,1.000,642.000,36.000,31.000,0.000,0.000,4.000,1.000,1.000,0.362,0.312,1.000,642.000,36.000,31.000,0.000,0.000,4.000:
0000
0000
0000
0000
,
0000
0000
0000
0000
,
0000
0000
0000
0000
,
2002
0000
0000
0000
3003
0000
0000
0000
0000
0000
0000
0000
1000
0100
4000
0000
,
3001
0000
0010
0000
0100
0010
0100
0010
0100
0000
0010
0100
1000
0100
1000
0000
,
0001
0100
0001
0100
1000
0100
1000
0100
0001
0010
0001
0000
1000
0100
0010
0000
,
0001
0000
0000
0100
0000
0000
0010
0000
0000
1000
0000
0000
0001
0000
0000
0000
0000
0000
0100
0000
0000
0010
0000
0000
0100
0000
0000
0000
0010
0000
0000
0000
1000
0000
0000
0000
1010
0000
0000
0000
0000
0000
0000
0000
0000
1000
0000
0000
,
0100
0010
0100
0000
1000
0000
0001
1000
0001
1000
0001
0000
1000
0001
1000
0000
,
0001
0100
0001
0100
0010
0000
0100
0001
1000
0100
1000
0100
1000
0001
0000
0000
,
0010
0000
0000
0000
0000
0100
0000
0000
0000
0000
1000
0000
0000
0000
0000
0000
0000
0000
0000
0000
0001
0000
0000
0000
0100
0000
0000
0000
0000
0010
0000
0000
0000
1000
0000
0000
0100
0000
0000
1000
0000
0000
0000
0000
0000
0000
0000
0000
,
0100
0010
0100
0000
1000
0001
1000
0100
0010
0000
0010
0100
1000
0000
1100
0000
,
1000
0000
0000
0010
0000
0000
1000
0000
0000
0010
0000
0000
1000
0000
0000
0000
1000
0000
0000
0000
0001
0000
0000
0000
0100
0000
0000
0000
0000
0010
0000
0000
0000
0100
0000
0000
0001
0000
0000
0000
0000
0000
0001
0000
0000
1000
0000
0000
,
0100
0000
0010
0001
0010
0000
0100
1000
0100
0000
1000
0001
0100
0000
0010
0000
,
1000
0100
1000
0100
0010
0100
0010
0000
0110
0000
0011
0000
0101
0000
0000
0000
,
0001
0000
1000
0100
1000
0000
0001
0100
0001
0000
1000
0000
0100
0010
0100
2000
,
3001
0100
0010
0100
0010
0000
1000
0100
1000
0000
0001
0000
0010
0100
0000
0010
,
0001
0000
0000
0000
0000
0010
0000
0000
0001
0000
0000
0000
0000
0000
0000
0000
1000
0000
0000
0000
0000
0100
0000
0000
0010
0000
0000
0000
0000
0000
0000
0000
0001
0000
0000
0000
0000
0010
0000
0000
0100
0000
0000
0000
0000
1000
0000
0000
0100
0000
0000
0000
0010
0000
0000
0000
0001
0000
0000
0000
0000
0000
0000
0000
,
1000
0000
0000
0000
0000
0010
0000
0000
0100
0000
0000
0000
0000
0000
0000
0000
0001
0000
0000
0000
0000
0100
0000
0000
0010
0000
0000
0000
0000
0000
0000
0000
1000
0000
0000
0000
0000
0010
0000
0000
0100
0000
0000
0000
0000
0001
0000
0000
0100
0000
0000
0000
0010
0000
0000
0000
1000
0000
0000
0000
0000
0000
0000
0000
,
1010
0010
0110
0100
0101
0001
1001
0001
,
1000
0100
1000
0000
0001
0010
0001
0000
1000
0010
1000
0000
0010
0100
0001
0000
,
2001
0000
3001
0010
0100
1000
0100
0010
0001
0000
1000
0100
0010
0001
0000
0001
,
0010
0000
0100
1000
0010
0100
0001
0100
0010
0000
1000
0100
1000
0010
0000
0010
,
0200
0000
0301
0010
0001
0100
0010
1000
0100
0000
1000
0010
0100
0001
0000
0001
,
0010
0000
0100
1000
0100
0010
0001
0100
0010
0000
1000
0001
1000
0010
0000
0010
,
1000
0000
0001
0010
0100
1000
0100
0010
0001
0000
1000
0100
0010
0001
0010
0100
,
1000
0000
0000
0000
0001
0000
0100
0000
0010
0000
1000
0000
0010
0000
0100
0000
0001
0000
0000
0000
1000
0000
0010
0000
0100
0000
0001
0000
0100
0010
0100
0010
,
0100
0001
0100
0010
0100
0001
0100
0010
0100
0001
0100
0010
0100
0001
0100
0010
,
1010
0000
0000
0000
1000
0010
1000
0010
1000
0000
0000
0000
0001
0010
0001
0010
0001
0000
0000
0000
1000
0100
1000
0100
1000
0000
0000
0000
0001
1000
0001
1000
,
0002
0000
0103
0010
1000
0001
1000
0010
0200
0000
0310
1000
0100
1000
0000
0100
,
1000
0001
2000
3000
1000
0001
2000
3000
0001
0100
0001
0100
0001
0100
0010
0100
,
0010
1000
0100
0010
0001
0000
0010
0000
0100
0000
1000
0001
0100
0010
0100
0000
,
0001
1000
0100
0000
1000
0001
0010
0000
0001
0100
0010
0000
1000
0010
0100
0000
,
0001
1000
0100
1000
0100
0000
0100
0010
0000
0010
0001
0000
0010
0000
0011
0000
,
0001
0101
0100
0110
0010
1010
1000
1001
,
0001
1000
0100
1000
0001
0000
0100
0000
0010
0000
0100
0001
0010
0001
0100
0010
,
1000
0100
0010
0000
0001
0010
0100
0000
1000
0001
0100
0000
0001
1000
0100
0000
,
1000
0010
0100
0001
1000
0000
0010
0100
0000
0100
0010
0000
1000
0000
1010
0000
,
0010
0110
0100
0101
0001
0011
0010
0210
,
4300
0004
0000
0000
0000
0000
0000
0000
0000
0000
3000
0000
1003
0001
1000
0001
,
0100
0001
0100
0001
2000
0000
3010
1000
0100
0010
0100
0010
0200
0000
1300
0001
,
0100
0010
1000
0010
2000
0000
3001
0010
0001
0100
0001
0100
0002
0000
0013
0001
,
0010
0100
0010
0100
2000
0000
3001
0010
0100
1000
0100
1000
0002
0000
1003
0010
,
0100
0001
0100
0010
2000
0000
3001
0100
0010
1000
0010
0100
0002
0000
0013
0001
,
0100
0010
0100
0010
2000
0000
3100
1000
0010
0100
0010
0100
0002
0000
0013
0100
,
0010
0001
0010
0001
2000
0000
3001
0010
0001
0100
0001
0100
0020
0000
1030
0010
,
0100
0010
0100
0010
0200
0000
0301
0010
0001
0100
0001
0100
0002
0000
1003
0100
,
0010
0001
0010
0100
2000
0000
3001
0010
0100
1000
0100
1000
0100
1000
0100
1000
,
0010
0100
0001
0100
0010
0000
0100
0000
0001
0000
0010
0100
1000
0100
0010
0001
,
0100
0010
1000
0000
0010
0100
0001
0000
0010
0001
0100
0000
0010
1000
0100
0000
,
1000
0010
0100
0001
0010
0000
0001
0100
0000
0010
1000
0000
1010
0000
1001
0000
,
0011
1001
1100
1001
0101
0110
1010
0110
,
0010
1000
0100
1000
0020
0000
0130
0001
0010
0100
1000
0100
0020
0000
0031
0010
,
0100
1000
0001
0100
0020
0000
1030
0010
0100
0001
1000
0100
2000
0000
3001
0010
,
0001
1000
0100
1000
0002
0000
0103
0010
0000
0010
0100
0000
0001
1000
0001
0000
,
0101
0000
1001
0000
1010
0000
1001
0000
0001
1000
0100
0010
0001
0010
0100
4000
,
0001
0001
3002
0003
0000
0000
0000
0000
;

//---------------dance-single - DDRDAIKENKAI----------------
#NOTES:
     dance-single:
     DDRDAIKENKAI:
     Medium:
     6:
     0.468,0.557,0.251,0.292,0.000,272.000,25.000,29.000,0.000,0.000,0.000,0.468,0.557,0.251,0.292,0.000,272.000,25.000,29.000,0.000,0.000,0.000:
0000
0000
0000
0000
,
0000
0000
0000
0000
,
0000
0000
0000
0000
,
2002
3003
0000
0000
,
1000
0000
0001
0000
0100
0010
0100
0000
,
0010
1000
0010
0000
1000
0100
1000
0000
,
0010
0001
0100
1000
,
0001
0010
0001
0000
0100
0010
0100
0000
,
0001
0000
0001
0000
0010
0001
0010
0000
,
0100
0000
0100
0000
1000
0001
1000
0000
,
0001
0100
1000
0010
,
0001
0010
1000
0100
,
0001
0000
1000
0000
0001
0100
0001
0000
,
1000
0000
0001
0000
1000
0100
1000
0000
,
0010
0100
0010
0000
0100
0010
0100
0000
,
0001
1000
0001
0000
1000
0001
1000
0000
,
0001
0000
1000
0000
0001
1000
0100
0010
,
0001
0000
1000
0000
0001
0100
0010
1000
,
0001
0101
0010
1100
,
0001
1010
0100
0011
,
1002
0000
1000
0003
1000
0001
0200
0000
,
0320
0000
1000
0000
1030
0010
0200
0000
,
0302
0000
0100
0000
0103
1000
0100
0000
,
0002
0000
1000
0000
1003
0001
0100
0000
,
0102
0000
0013
0100
2000
0000
3100
0010
,
0002
0000
0013
0100
2000
0000
3100
0010
,
0001
0001
0001
0001
0001
0001
0001
0001
,
0002
1000
2003
0001
3002
1000
2003
0001
,
0002
0000
0000
3003
,
1000
0000
0001
0000
1000
0001
0000
0100
,
0001
0000
0010
0000
0100
1000
0100
0000
,
0010
0001
0010
0000
0001
0100
0001
0000
,
1000
0001
0100
0000
0001
1000
0010
0000
,
1010
0110
0101
1001
,
0001
0010
0001
0000
1000
0100
1000
0000
,
0010
0000
0100
0000
0001
0010
0100
0000
,
1000
0100
0010
0000
0100
1000
0010
0000
,
0110
1010
0110
0101
,
2002
0000
0000
3003
0000
0000
0000
0000
,
1000
0001
2000
0000
3001
0100
0002
0000
,
0013
0100
0020
0000
0130
1000
0200
0000
,
1300
0010
2000
0000
3010
0100
0020
0000
,
0130
0001
0200
0000
0301
0010
0002
0000
,
0013
0001
0100
0000
0010
1000
0100
0000
,
1000
0010
0100
0000
0010
1000
0001
0000
,
0010
0001
0100
0000
0001
0010
0100
0000
,
0010
0100
1000
0000
0001
1000
0001
1000
,
0001
1000
0100
0000
1000
0001
0100
0000
,
0010
0000
1000
0000
0100
0010
0001
0000
,
0100
0001
0010
0000
0100
0010
0001
0000
,
0011
1001
1010
1001
,
0001
0100
0001
0000
1000
0010
0100
0000
,
0001
0010
0100
0000
1000
0100
0010
0000
,
0001
1000
0001
0000
1000
0001
1000
0000
,
1001
1100
1001
0101
,
2002
0000
0000
3003
0000
0000
0000
0000
;

//---------------dance-single - DDRDAIKENKAI----------------
#NOTES:
     dance-single:
     DDRDAIKENKAI:
     Beginner:
     1:
     0.200,0.334,0.111,0.101,0.000,118.000,11.000,10.000,0.000,0.000,0.000,0.200,0.334,0.111,0.101,0.000,118.000,11.000,10.000,0.000,0.000,0.000:
0000
0000
0000
0000
,
0000
0000
0000
0000
,
0000
0000
0000
0000
,
2002
3003
0000
0000
,
0100
0000
0001
0000
,
1000
1000
1000
0000
,
0100
0000
0010
0000
,
0100
0100
0100
0000
,
1000
0000
0001
0000
,
0001
0001
0001
0000
,
0100
0000
0010
0000
,
1000
1000
1000
1000
,
0000
0001
0000
1000
,
0000
0100
0000
1000
,
0000
0010
0000
0100
,
0000
0001
0000
0010
,
0010
0010
0010
0000
,
0100
0100
0100
0000
,
1000
0000
0001
0000
,
0100
0100
0100
0100
,
0200
0000
0300
0000
,
0020
0000
0030
0000
,
2000
0000
3000
0000
,
0002
0000
0003
0000
,
0010
0000
0010
0000
,
0010
0000
0010
0000
,
0010
0010
0010
0010
,
0020
0000
0000
0000
,
0030
0000
0000
0000
,
0110
0110
0110
0110
,
0000
0001
0000
1000
,
0000
0100
0000
1000
,
0000
0010
0000
0100
,
0100
0100
0100
0100
,
0000
0001
0000
0010
,
0000
0001
0000
1000
,
0000
0001
0000
1000
,
1000
1000
1000
1000
,
2000
0000
0000
3000
,
0000
1000
0000
0001
,
0000
0100
0000
0001
,
0000
1000
0000
0100
,
0000
0010
0000
0100
,
0000
1000
0000
0010
,
0000
0100
0000
0001
,
0000
1000
0000
0100
,
0000
0010
0010
0010
,
0000
0001
0000
1000
,
0000
0001
0000
0100
,
0000
0010
0000
0100
,
0100
0100
0100
0100
,
0000
0001
0000
1000
,
0000
0100
0000
0010
,
0000
0001
0000
1001
,
1001
1001
1001
1001
,
2002
0000
0000
0000
0000
0000
0000
0000
0000
0000
0000
0000
0000
0000
0000
0000
0000
0000
0000
0000
0000
0000
0000
0000
0000
0000
0000
0000
0000
0000
0000
0000
0000
0000
0000
0000
0000
0000
0000
0000
0000
0000
0000
0000
0000
0000
0000
0000
0000
0000
0000
0000
0000
0000
0000
0000
0000
0000
0000
0000
0000
0000
0000
0000
0000
0000
0000
0000
0000
0000
0000
0000
0000
3003
0000
0000
0000
0000
0000
0000
0000
0000
0000
0000
0000
0000
0000
0000
0000
0000
0000
0000
0000
0000
0000
0000
0000
0000
0000
0000
0000
0000
0000
0000
0000
0000
0000
0000
0000
0000
0000
0000
0000
0000
0000
0000
0000
0000
0000
0000
0000
0000
0000
0000
0000
0000
0000
0000
0000
0000
0000
0000
0000
0000
0000
0000
0000
0000
0000
0000
0000
0000
0000
0000
0000
0000
0000
0000
0000
0000
0000
0000
0000
0000
0000
0000
0000
0000
0000
0000
0000
0000
0000
0000
0000
0000
0000
0000
0000
0000
0000
0000
0000
0000
0000
0000
0000
0000
0000
0000
0000
0000
0000
0000
0000
0000
0000
0000
0000
0000
0000
0000
;

//---------------dance-single - ddrstepper----------------
#NOTES:
     dance-single:
     DDRSTEPPER:
     Hard:
     9:
     0.776,0.807,0.392,0.111,0.472,490.000,39.000,11.000,0.000,0.000,0.000,0.776,0.807,0.392,0.111,0.472,490.000,39.000,11.000,0.000,0.000,0.000:
0000
0000
0000
0000
,
0000
0000
0000
0000
,
0000
0000
0000
0000
,
0000
0000
0000
0000
,
1000
0000
0010
0000
0100
0000
0010
0000
1000
0000
0100
0000
0010
0001
0010
0000
,
0001
0000
0100
0000
0001
0000
0010
0000
0100
0000
1000
0000
0010
1000
0010
0000
,
0100
0000
0000
0010
0000
0000
1000
0000
0000
0100
0000
0000
0010
0000
0001
0000
1000
0000
0002
0000
0000
0000
0000
0000
,
0103
0000
0010
0000
1000
0000
0001
0000
0010
0100
1000
0000
0010
0100
0001
0000
,
1000
0010
0001
0010
1000
0100
0020
0000
,
0031
0010
1000
0010
0001
1000
0020
0000
,
0130
0000
0001
0000
1000
0000
0001
0000
0010
0000
0100
0010
0200
0000
0000
0000
,
0310
0000
0001
0000
1000
0000
0001
0000
0100
0000
0010
0100
0020
0000
1030
0001
,
1000
0000
0000
0100
0000
0000
0001
0000
0000
1000
0000
0000
0010
0000
0001
0000
1000
0000
0010
0000
0000
0100
0000
0000
,
1000
0001
0010
1000
0001
0010
0110
0000
,
0100
0000
1000
0000
0010
0000
0100
0000
0001
1000
0001
1000
0001
1000
0001
1000
,
0001
0000
0010
0000
0100
0000
1000
0000
0010
0000
0100
0000
0001
1000
0000
0001
,
1000
0000
1000
0000
0100
0000
0100
0000
0010
0000
0001
0000
1000
0001
1000
0000
,
0001
0000
0001
0000
0100
0000
0100
0000
0010
0000
1000
0000
0001
1000
0001
0000
,
1000
0100
0001
0100
1000
0010
0001
0010
,
1000
0001
0010
0100
1000
0010
0100
0001
,
1000
0000
0100
0000
0010
0000
0100
0000
1000
0000
0010
0000
0200
0001
0000
0301
,
0100
0000
0001
0000
0100
0000
0010
0000
0100
0000
0001
0000
2000
0100
0000
3100
,
1000
0000
0100
0000
1000
0000
0100
0000
0010
0000
0001
0000
0200
0010
0000
0310
,
0100
0000
0010
0000
0100
0000
0001
0000
0010
0000
0100
0000
2000
0100
0000
3100
,
1100
1000
0010
0100
0101
0001
0010
0100
,
0110
0100
1000
0010
0110
0010
1000
0001
,
0101
1001
1100
1001
0011
1010
0101
1100
,
1001
0000
1000
0001
1000
0000
0010
0100
0010
0000
1000
0001
1000
0000
0100
0010
,
0100
0000
1000
0000
0010
0000
0100
0000
0001
0000
1000
0000
0100
0010
0000
0001
,
1000
0000
1010
0000
0010
0000
0110
0000
0100
0000
0101
0000
1001
0000
0001
1000
,
0001
0010
1000
0010
0001
0100
1000
0100
,
0001
0010
0100
1000
0010
0100
0001
1000
,
0001
0100
1000
0100
0001
0010
1000
0010
,
0001
0101
0100
0110
0010
1010
1000
1001
,
0001
0010
0100
1000
0010
0001
1000
0100
,
0001
0010
0001
1000
0010
1000
0001
1000
,
0001
0100
0010
1000
0100
0001
1000
0010
,
0001
0101
0001
1001
1000
1010
1000
1001
,
0001
0000
0010
0000
0100
0000
1000
0000
0001
0000
0100
0000
0010
0100
0010
0100
,
0010
0000
1000
0000
0100
0000
0010
0000
0001
0010
0001
0010
0001
0000
0100
0000
,
0001
0000
0010
0000
0100
0000
1000
0000
0010
1000
0010
1000
0010
0000
1000
0000
,
0100
0000
0001
0000
0100
0000
1000
0000
0001
1000
0001
1000
0001
0000
1000
0000
,
0010
0000
0001
0000
0010
0000
1000
0000
0001
1000
0001
1000
0001
0000
1000
0001
,
1000
0000
0001
0000
0010
0000
0001
0100
0001
0100
0001
0100
0001
0000
1000
0000
,
0001
0000
1000
0000
0010
0000
1000
0100
1000
0100
1000
0100
1000
0000
0001
0000
,
0100
0010
0100
0010
0100
0000
0001
0000
0010
0100
0010
0100
0010
0000
0100
0000
,
1000
0000
0010
0000
0100
0000
0001
1000
0001
1000
0001
1000
0001
1000
0001
1000
,
0001
0010
0001
0100
0010
0000
1000
0100
1000
0010
0100
0001
1000
0000
0100
0010
,
0100
1000
0010
0100
0001
0000
0010
0001
0100
0010
1000
0001
0010
0000
0100
1000
,
0010
0100
0010
1000
0100
0000
0010
0001
0100
0010
1000
0001
0100
0000
0010
0000
,
0100
0101
0001
1001
1000
1100
0100
0110
,
0010
0001
0010
1000
0010
0000
0001
1000
0001
1000
0001
1000
0001
0000
0100
1000
,
0100
0001
0100
1000
0100
0000
0001
1000
0001
1000
0001
1000
0001
0000
1000
0100
,
0001
0100
1000
0010
0001
0000
0010
1000
0100
0010
0001
0100
0010
0000
1000
0000
,
1100
0110
0011
0101
0110
1010
1001
1001
,
2002
0000
0000
3003
0000
0000
0000
0000
;

//---------------dance-single - ddrstepper----------------
#NOTES:
     dance-single:
     ddrstepper:
     Easy:
     4:
     0.340,0.334,0.322,0.121,0.000,193.000,32.000,12.000,0.000,0.000,0.000,0.340,0.334,0.322,0.121,0.000,193.000,32.000,12.000,0.000,0.000,0.000: // measure 0
0000
0000
0000
0000
,  // measure 1
0000
0000
0000
0000
,  // measure 2
0000
0000
0000
0000
,  // measure 3
0000
0000
0000
0000
,  // measure 4
1000
0010
0100
0100
,  // measure 5
0010
1000
0001
0001
,  // measure 6
0010
0100
1000
1100
,  // measure 7
0100
1000
1001
1001
,  // measure 8
0001
0100
0010
0010
,  // measure 9
2000
0000
3002
0000
,  // measure 10
1003
0100
0010
0010
,  // measure 11
0100
1000
0001
0001
,  // measure 12
0100
0010
1000
1000
,  // measure 13
0001
0010
0110
0110
,  // measure 14
0100
1000
0010
0100
,  // measure 15
0001
1000
1001
1001
,  // measure 16
0001
0100
0001
0010
,  // measure 17
0100
1000
0010
1000
,  // measure 18
0001
0010
0001
1000
,  // measure 19
0010
1000
0001
1000
,  // measure 20
2001
0000
0001
3001
,  // measure 21
0102
0000
0100
0103
,  // measure 22
0210
0000
0010
0310
,  // measure 23
1020
0000
1000
1030
,  // measure 24
1000
1100
0001
0101
,  // measure 25
1000
1010
0001
0011
,  // measure 26
1000
0001
1000
0001
,  // measure 27
0100
0010
0100
0010
,  // measure 28
2002
0000
0000
3003
,  // measure 29
1100
0101
1010
0011
,  // measure 30
0001
0100
0010
0010
,  // measure 31
1000
0100
0010
0010
,  // measure 32
0001
1000
0010
1000
,  // measure 33
0001
1001
1000
1001
,  // measure 34
0001
0010
0100
0100
,  // measure 35
1000
0010
0100
0100
,  // measure 36
0001
1000
0100
1000
,  // measure 37
0010
0110
0100
0110
,  // measure 38
2002
0000
0000
3003
,  // measure 39
1000
0100
1000
0010
,  // measure 40
0100
0010
0100
0010
,  // measure 41
0100
0001
0010
0001
,  // measure 42
1000
0001
1000
0001
,  // measure 43
1000
1000
0100
0100
,  // measure 44
0010
0010
0001
0001
,  // measure 45
0100
0100
0010
0010
,  // measure 46
1000
1000
0001
0001
,  // measure 47
1000
0100
1000
0010
,  // measure 48
0100
0001
0100
1000
,  // measure 49
0100
0001
0010
1000
,  // measure 50
0010
0011
0001
1001
,  // measure 51
1000
0010
1000
0100
,  // measure 52
0010
0001
0010
1000
,  // measure 53
0010
0001
0100
1000
,  // measure 54
0110
0101
1001
1001
,  // measure 55
2002
0000
0000
3003
0000
0000
0000
0000
;
