#TITLE:Verflucht;
#SUBTITLE:;
#ARTIST:Tyrfing;
#TITLETRANSLIT:;
#SUBTITLETRANSLIT:;
#ARTISTTRANSLIT:;
#GENRE:HARD NRG;
#CREDIT:;
#BANNER:Verflucht.png;
#BACKGROUND:Verflucht-bg.png;
#LYRICSPATH:;
#CDTITLE:CDTitle.png;
#MUSIC:Verflucht.mp3;
#OFFSET:-0.550000;
#SAMPLESTART:88.529999;
#SAMPLELENGTH:10.647000;
#SELECTABLE:YES;
#DISPLAYBPM:90.000000:180.000000;
#BPMS:0.000000=180.000000
,102.000000=90.000000
,103.000000=180.000000
,133.000000=90.000000
,134.000000=180.000000
,165.000000=360.000000
,166.000000=180.000000
,198.000000=90.000000
,214.000000=180.000000
,242.000000=360.000000
,244.000000=90.000000
,245.000000=180.000000
;
#STOPS:165.000000=0.167000,
242.000000=0.042000,
242.250000=0.042000,
242.500000=0.042000,
242.750000=0.042000,
243.000000=0.042000,
243.250000=0.042000,
243.500000=0.042000,
243.750000=0.042000
;
#BGCHANGES:;
#KEYSOUNDS:;
#ATTACKS:;

//---------------dance-single - DDRDAIKENKAI----------------
#NOTES:
     dance-single:
     DDRDAIKENKAI:
     Hard:
     10:
     0.744151,0.902391,0.017306,0.095182,0.449952,602.000000,600.000000,2.000000,11.000000,0.000000,0.000000,0.744151,0.902391,0.017306,0.095182,0.449952,602.000000,600.000000,2.000000,11.000000,0.000000,0.000000:
0000
0000
0000
0000
,
0000
0000
0000
0000
,
0000
0000
0000
0000
,
0000
0000
0000
0000
,
0000
0000
0000
0000
,
0000
0000
0000
0000
,
1000
0001
1000
0001
,
0100
0010
0100
0010
,
1000
0010
0100
0001
,
1000
0000
0100
0000
0010
0000
0001
0000
0100
0001
0100
0001
0200
0000
0000
0000
,
0301
0000
0010
0000
0100
0000
1000
0000
0010
0000
0100
0001
0000
0100
0001
0000
,
1000
0000
0100
0000
0010
0000
0001
0000
0100
0000
0010
1000
0000
0010
1000
0000
,
0001
0000
1000
0000
0010
0000
0100
0000
0001
0000
1000
0100
0000
1000
0100
0000
,
1000
0000
0001
0000
0100
0000
0010
0000
1000
0000
0001
0010
0000
0001
0010
0000
,
0001
0000
0100
0000
0010
0000
1000
0000
0100
0000
1000
0001
0000
1000
0001
0000
,
1000
0000
0010
0000
0100
0000
0001
0000
0010
0000
0001
1000
0000
0001
1000
0000
,
0001
0000
0100
0000
1000
0000
0100
0000
0001
0000
0010
0100
0000
0010
0100
0000
,
1000
0000
0010
0000
0001
0000
0010
0000
1000
0000
0100
0010
0000
0100
0010
0000
,
0001
1000
0001
1000
0001
1000
0001
1000
,
0001
1000
0100
0010
0002
0000
0000
0000
,
0103
0010
0000
0100
0001
0000
0010
0001
,
0000
1000
0001
0000
1000
0100
1000
1000
,
0001
0010
0001
0010
0001
0010
0001
0010
,
0001
0000
0010
0000
0100
0000
1000
0000
0002
0000
0000
0000
0000
0000
0000
0003
,
1000
0010
1000
0001
0001
1000
0010
0010
,
0100
0001
0001
0000
0022
0033
0001
0010
,
0001
0010
0001
0010
0001
0001
0100
0001
,
0100
0001
1000
0000
1000
0001
1000
0010
,
1000
0010
1000
0010
1000
1000
0100
0010
,
0100
0010
0100
0100
0010
0100
1000
0010
,
1000
0100
0010
0100
1000
1000
0001
0010
,
0100
1000
0001
0000
0001
0010
0001
0100
,
0010
1000
0100
0010
0001
0001
0100
0010
,
0100
0010
0120
0230
0310
1000
0100
0010
,
0100
1000
0010
0100
0001
0010
0100
1000
,
0010
0100
0001
1000
0001
0010
0001
0100
,
0010
1000
0100
0010
0001
0100
0010
1000
,
0001
1000
0001
1000
0010
0100
0001
0010
,
0001
0100
0010
1000
0010
1000
0001
0010
,
0001
1000
0001
1000
0100
0010
0100
1000
,
0100
0010
0001
0010
0100
0100
1000
1000
,
0010
0100
0010
0100
0002
0000
0000
0000
1003
0000
0100
0000
1000
0000
0010
0000
,
0001
0010
1000
0100
0010
0001
0100
1000
,
0100
0001
0010
0001
0010
1000
0010
0001
,
0100
0010
0001
0010
1000
0100
0010
1000
,
0010
0001
0010
0001
1000
0010
0100
1000
,
0100
0001
0010
0001
0100
0010
0001
0010
,
1000
0100
0010
0001
1000
0010
0001
0010
,
0100
1000
0100
0001
0010
0100
0010
0100
,
1000
0000
0000
0000
0001
0000
0000
0000
1000
0000
0000
0000
0001
0000
0000
0000
0100
0001
0000
0000
0010
0000
0001
0010
0001
0000
0000
1000
0000
0000
0100
0000
,
0000
1000
0000
0000
0001
0000
0000
0000
0100
0000
0000
0010
0000
0000
1000
0000
0001
0010
0000
0000
0100
0000
1000
0100
1000
0000
0000
0010
0000
0000
1000
0000
,
0000
0001
0000
0000
0100
0000
0000
0000
0010
0000
0000
1000
0000
0000
0010
0000
0100
0001
0000
0000
1000
0000
0001
1000
0001
0000
0000
0100
0000
0000
0010
0000
,
0000
0100
0000
0000
0001
0000
0000
0000
1000
0000
0000
0010
0000
0000
0100
0000
0001
1000
0000
0000
0100
0000
1000
0010
1000
0000
0000
0010
0000
0000
0100
0000
,
0000
0001
0000
0000
1000
0000
0000
0000
0200
0000
0000
0010
0000
0000
0310
0000
0100
0000
0000
0000
0010
0000
0000
0000
0100
0000
0000
0000
0010
0000
0000
0000
,
0100
0010
0100
0100
1000
0100
1000
0100
,
1000
0000
1000
0001
1000
0001
1000
0001
,
1000
0001
1000
1000
0010
1000
0010
1000
,
0010
0010
0100
0010
0100
0001
0010
0001
,
0100
0010
1000
1000
0010
0100
0001
0010
,
0001
0000
0001
0010
1000
0010
0001
0100
,
1000
0000
0100
0000
0001
0000
0010
0000
0100
1000
0100
1000
0100
1000
0100
1000
,
0002
0000
0000
0000
1003
0000
0100
0000
1000
0000
0010
0000
0100
0000
0001
1000
,
0000
0001
1000
0000
0001
0000
0010
0000
0001
0000
0100
0000
0010
0000
1000
0100
,
0000
1000
0100
0000
0010
0000
0001
0000
0010
0000
1000
0000
0010
0000
0001
0100
,
0000
0001
0100
0000
0010
0000
1000
0000
0100
0000
1000
0000
0010
0000
0100
0001
,
0000
0100
0001
0000
1000
0000
0100
0000
1000
0000
0010
0000
0100
0000
0001
1000
,
0000
0001
1000
0000
0001
0000
0010
0000
1000
0000
0010
0000
0001
0000
0100
0010
,
0000
0100
0010
0000
1000
0000
0100
0000
1000
0000
0010
0000
0100
0000
0001
0010
,
0000
0001
0010
0000
0001
0000
0100
0000
0010
0000
1000
0000
0100
1000
0100
1000
,
0002
0000
0003
0000
1000
0001
0000
0001
1000
0000
0010
0000
0100
0000
0001
0010
,
0000
0001
0100
0000
0001
1000
0000
0001
1000
0000
0100
0000
0010
0000
0100
1000
,
0000
0100
0010
0000
0001
0010
0000
0010
0001
0000
0100
0000
0010
0000
1000
0100
,
0000
1000
0001
0000
0010
0100
0000
0010
0100
0000
0010
0000
0001
0000
0100
0010
,
0000
1000
0010
0000
1000
0001
0000
0001
0010
0000
0001
0000
0100
0000
0010
1000
,
0000
0010
1000
0000
0001
0010
0000
0001
0010
0000
0100
0000
0010
0000
0001
0100
,
0000
0010
1000
0000
0010
0100
0000
0100
0010
0000
1000
0000
0100
0000
0010
0001
,
0000
1000
0001
0000
0010
0100
0000
0010
0100
0000
1000
0000
0001
0000
1000
0010
,
0000
1000
0010
0000
0001
0000
0000
0000
0000
0000
0000
0000
0000
0000
0000
0000
;

//---------------dance-single - DDRDAIKENKAI----------------
#NOTES:
     dance-single:
     DDRDAIKENKAI:
     Medium:
     7:
     0.553787,0.568172,0.199017,0.112488,0.095182,448.000000,425.000000,23.000000,13.000000,0.000000,0.000000,0.553787,0.568172,0.199017,0.112488,0.095182,448.000000,425.000000,23.000000,13.000000,0.000000,0.000000:
0000
0000
0000
0000
,
0000
0000
0000
0000
,
0000
0000
0000
0000
,
0000
0000
0000
0000
,
0000
0000
0000
0000
,
0000
0000
0000
0000
,
1000
1000
0001
0001
,
1000
1000
0001
0001
,
0100
0010
0100
0010
,
1000
0001
1000
0001
1000
0001
1000
0000
,
0001
0000
0010
0000
0001
0000
0000
0000
1000
0000
0000
1000
0000
0000
1000
0000
,
0010
0000
1000
0000
0010
0000
0000
0000
1000
0000
0000
1000
0000
0000
1000
0000
,
0001
0000
0010
0000
0001
0000
0000
0000
1000
0000
0000
1000
0000
0000
1000
0000
,
0010
0000
0100
0000
0010
0000
0000
0000
1000
0000
0000
1000
0000
0000
1000
0000
,
0001
0000
0010
0000
0100
0000
0000
0000
1000
0000
0000
1000
0000
0000
1000
0000
,
0001
0000
0100
0000
0010
0000
0000
0000
1000
0000
0000
1000
0000
0000
1000
0000
,
0100
0000
0010
0000
0001
0000
0000
0000
1000
0000
0000
1000
0000
0000
1000
0000
,
0010
0100
0010
0100
0010
0100
0010
0010
,
1000
0000
0100
0000
0010
0100
0010
0000
,
0001
0010
0001
0010
0002
0000
0003
0000
,
1000
1000
0000
0001
0001
0000
0100
0100
,
0000
0010
0010
0000
1000
0001
1000
1000
,
0001
0000
0001
0000
0010
0100
0010
0000
,
0100
1000
0100
1000
0200
0000
0300
0000
,
1000
1000
0000
0010
0010
0000
0100
0100
,
0000
0001
0001
0000
2002
3003
0001
0100
,
0001
0000
0100
0010
0100
0000
0010
1000
,
0010
0000
1000
0000
1000
1000
0100
0010
,
0100
0000
0010
0001
0010
0000
0001
0100
,
0001
0000
1000
1000
0001
1000
0010
0100
,
0010
0000
1000
0010
1000
0000
0100
1000
,
0100
0000
0010
0000
0010
0010
0001
0010
,
0001
0000
0100
0010
0100
0000
0010
1000
,
0001
0000
0220
0330
1001
0000
1100
0000
,
1000
0001
0100
0000
0110
0000
1010
0000
,
1000
0001
0010
0000
0110
0000
0011
0000
,
0100
0001
0010
0000
0110
0000
1100
0000
,
0010
1000
0100
0000
1000
0001
0100
0000
,
0010
0100
0001
0000
1000
0001
0100
0000
,
0010
1000
0100
0000
1001
0000
0101
0000
,
1001
0000
1100
0000
1000
0001
1000
0001
,
0100
0100
0200
0000
0310
1000
0010
0000
,
0100
0001
0010
0000
0100
0010
0001
0000
,
1000
0000
0101
0000
0010
1000
0010
0000
,
0100
0001
0100
0000
0001
1000
0100
0000
,
0010
0000
1100
0000
0010
0100
0001
0000
,
0010
0100
1000
0000
0010
1000
0100
0000
,
0010
0000
1001
0000
0001
0100
0001
0001
,
0100
0010
0100
0100
0010
1000
0010
1000
,
0001
0000
1001
0000
2000
0000
0100
3100
,
0010
0010
0001
0001
0200
0000
0010
0310
,
0100
0100
0001
0001
2000
0000
3001
0001
,
0010
0010
0100
0100
2000
0000
3010
0010
,
0100
0100
0001
0001
1000
0100
1000
0000
,
0100
0010
0100
0000
0010
0001
0100
0010
,
1000
0000
1000
1000
0001
0100
0001
0000
,
0100
0010
0100
0000
0010
1000
0100
0010
,
0001
0001
0001
0000
1000
0100
1000
0000
,
0010
0100
0010
0000
0100
0001
1000
0100
,
0010
0000
0010
0010
0001
1000
0010
0000
,
1000
0001
0100
0010
0220
0000
0000
0000
,
0330
0000
0000
0000
1000
0000
0001
0000
0100
0000
0000
0000
0010
0000
0000
0010
,
0000
0000
0010
0000
1000
0000
0100
0000
0010
0000
0000
0000
0001
0000
0000
0001
,
0000
0000
0001
0000
1000
0000
0010
0000
0100
0000
0000
0000
0001
0000
0000
0001
,
0000
0000
0001
0000
0010
0000
0100
0000
1000
0000
0000
0000
0010
0000
0000
0010
,
0000
0000
0010
0000
0100
0000
0001
0000
0100
0000
0000
0000
0010
0000
0000
0010
,
0000
0000
1000
0000
0100
0000
1000
0000
0001
0000
0000
0000
0100
0000
0000
0100
,
0000
0000
0001
0000
0010
0000
0001
0000
1000
0000
0000
0000
0010
0000
0000
0010
,
0000
1000
0100
0010
0001
0010
0100
1000
,
0001
0000
0000
0000
0100
0000
0010
0000
0100
0000
0010
0000
1000
0000
0000
1000
,
0000
0000
1000
0000
0010
0000
0100
0000
0010
0000
0100
0000
0001
0000
0000
0001
,
0000
0000
0001
0000
1000
0000
0100
0000
1000
0000
0100
0000
0010
0000
0000
0010
,
0000
0000
0010
0000
0001
0000
0100
0000
0001
0000
0100
0000
0010
0000
0000
0010
,
0000
0000
0010
0000
1000
0000
0001
0000
1000
0000
0000
0000
0010
0000
0000
0110
,
0000
0000
0100
0000
0001
0000
0010
0000
0100
0000
0000
0000
0010
0000
0000
0110
,
0000
0000
0100
0000
1000
0000
0001
0000
0100
0000
0000
0000
0010
0000
0000
0110
,
0000
0000
0100
0000
0001
0000
1000
0000
0100
0000
0010
0000
0001
0000
0000
1001
,
0000
0001
1000
0000
0000
0000
0000
0000
;

//---------------dance-single - DDRDAIKENKAI----------------
#NOTES:
     dance-single:
     DDRDAIKENKAI:
     Beginner:
     2:
     0.215087,0.367641,0.129794,0.034612,0.000000,174.000000,159.000000,15.000000,4.000000,0.000000,0.000000,0.215087,0.367641,0.129794,0.034612,0.000000,174.000000,159.000000,15.000000,4.000000,0.000000,0.000000:
0000
0000
0000
0000
,
0000
0000
0000
0000
,
0000
0000
0000
0000
,
0000
0000
0000
0000
,
0000
0000
0000
0000
,
0000
0000
0000
0000
,
0000
0000
0000
0000
,
0000
0000
0000
0000
,
0000
0000
0000
0000
,
0000
0000
0000
0000
,
1000
1000
1000
0000
,
0001
0001
0001
0000
,
1000
1000
1000
0000
,
0001
0001
0001
0000
,
0100
0100
0100
0000
,
0010
0010
0010
0000
,
0100
0100
0100
0000
,
0010
0010
0010
0000
,
1000
0000
0001
0000
,
1000
0000
1000
0000
,
0001
0000
1000
0000
,
0001
0000
0001
0000
,
0100
0000
0010
0000
,
0100
0000
0100
0000
,
0010
0000
0100
0000
,
0010
0000
0110
0110
,
0000
0100
0000
0001
,
0000
0001
0000
1000
,
0000
1000
0000
0100
,
0000
0100
0000
0010
,
0000
0010
0000
0001
,
0000
0001
0000
1000
,
0000
0001
0000
0100
,
0100
0100
0100
0000
,
0010
0000
1000
1000
,
1000
0000
0001
0000
,
1000
0000
0010
0010
,
0010
0000
0100
0000
,
0001
0000
0100
0100
,
0100
0000
0010
0000
,
1000
0000
0001
0001
,
0001
0001
0001
0000
,
1000
0000
0100
0100
,
0100
0000
0010
0000
,
0001
0000
1000
1000
,
1000
0000
0010
0000
,
0100
0000
0010
0010
,
0010
0000
1000
0000
,
0001
0000
0100
0100
,
0100
0100
0200
0000
,
0300
0000
0020
0000
,
0030
0000
2000
0000
,
3000
0000
0002
0000
,
0003
0000
1001
0000
,
0100
0000
0010
0000
,
1000
0000
1001
0000
,
0100
0000
0010
0000
,
0001
0000
1001
0000
,
0100
0000
0010
0000
,
1000
0000
1001
0000
,
0100
0000
1001
0000
,
0000
1001
0000
1000
,
0000
0001
0000
0001
,
0000
0100
0000
0100
,
0000
0010
0000
0010
,
0000
1000
1000
1000
,
0000
0010
0000
0100
,
0000
0001
0001
0001
,
0000
0100
0100
0100
,
0000
0010
0010
0010
,
0000
1000
1000
1000
,
0000
0010
0010
0010
,
0000
0100
0100
0100
,
0000
1001
0000
0001
,
0000
1001
0000
1000
,
0000
0110
0000
0100
,
0000
0110
0110
0110
,
0000
1001
0000
0000
;

//---------------dance-single - DDRDAIKENKAI----------------
#NOTES:
     dance-single:
     DDRDAIKENKAI:
     Challenge:
     13:
     1.163199,1.570828,0.051917,0.095182,1.821438,941.000000,935.000000,6.000000,11.000000,15.000000,0.000000,1.163199,1.570828,0.051917,0.095182,1.821438,941.000000,935.000000,6.000000,11.000000,15.000000,0.000000:
// measure 0
0000
0000
0000
0000
,  // measure 1
0000
0000
0000
0000
,  // measure 2
0000
0000
0000
0000
,  // measure 3
0000
0000
0000
0000
,  // measure 4
0000
0000
0000
0000
,  // measure 5
0000
0000
0000
0000
,  // measure 6
1000
0010
0100
0001
,  // measure 7
1000
0100
0010
0001
,  // measure 8
0100
0010
0100
0010
,  // measure 9
1000
0000
0001
0000
1000
0000
0001
0000
1000
0001
1000
0001
2000
0000
3000
0000
,  // measure 10
1001
0000
1000
0001
0100
0001
0000
0100
0001
0000
1000
0001
0000
1000
0001
0000
,  // measure 11
0020
0000
0130
1000
0001
1000
0000
0010
1000
0000
0010
1000
0000
0001
1000
0000
,  // measure 12
1010
0000
1000
0100
1000
0010
0000
1000
0010
0000
0100
0001
0000
1000
0001
0000
,  // measure 13
0020
0000
0031
0100
0001
1000
0000
0010
1000
0000
0010
1000
0000
0100
1000
0000
,  // measure 14
1001
0000
1000
0100
0010
0001
0000
1000
0001
0000
0100
0001
0000
0010
0001
0000
,  // measure 15
0200
0000
0301
0010
0100
1000
0000
0010
1000
0000
0100
1000
0000
0001
1000
0000
,  // measure 16
1010
0010
0100
0100
0001
0001
1000
1000
,  // measure 17
0100
1000
0100
1000
0001
1000
0001
1000
0001
0100
0001
0100
0010
1000
0010
1000
,  // measure 18
0001
0001
0001
0001
0001
0001
0001
0001
,  // measure 19
0001
1000
0010
0100
0002
0000
0000
0000
,  // measure 20
1003
1000
0100
1000
1000
0010
1000
1000
,  // measure 21
0001
1000
1000
0001
1000
0010
1000
1000
,  // measure 22
0010
0010
0010
0010
0010
0010
0010
0010
,  // measure 23
0010
1000
0001
0100
0020
0000
0000
0000
,  // measure 24
1030
1000
1000
0001
0010
1000
0001
0100
,  // measure 25
1000
0000
0001
0000
0010
0000
0001
0000
2MM2
0000
3003
0000
M001
0100
0001
0100
,  // measure 26
0001
0100
0001
0100
0001
0100
0001
0100
0001
0000
0001
0010
0001
0010
0001
0010
,  // measure 27
0001
0010
0001
0010
0001
0000
0000
0000
0001
0000
0001
1000
0001
1000
0001
1000
,  // measure 28
0001
1000
0001
1000
0001
1000
0001
1000
0001
0000
0001
1000
0100
1000
0100
1000
,  // measure 29
0100
1000
0100
1000
0100
0000
0100
1000
0010
0100
0001
0010
0100
0010
0100
0010
,  // measure 30
0100
0010
0100
0010
0100
0010
0100
0010
0100
0000
0100
1000
0100
1000
0100
1000
,  // measure 31
0100
1000
0100
1000
0010
0000
0000
0000
0010
0000
0010
1000
0010
1000
0010
1000
,  // measure 32
0010
1000
0010
1000
0010
1000
0010
1000
0010
0000
0010
1000
0100
1000
0100
1000
,  // measure 33
0001
0000
0010
0000
0001
0000
0100
0000
M010
0000
001M
1000
0200
0000
0000
0000
130M
0000
0010
0000
1000
0000
0100
0000
0010
0000
0100
0000
1000
0000
0010
0000
,  // measure 34
0100
0001
0010
0100
0010
0001
0010
0001
0100
0001
0010
0001
0100
0010
1000
0100
,  // measure 35
1000
0010
1000
0001
1000
0100
0010
0001
1000
0010
1000
0001
0010
0001
0100
0010
,  // measure 36
0100
0001
0010
0100
0010
0001
0100
0010
1000
0100
1000
0010
0100
0001
0010
0100
,  // measure 37
1000
0100
0010
0001
1000
0100
0010
0001
1000
0010
1000
0001
1000
0010
0100
0001
,  // measure 38
0010
0001
0100
0010
1000
0010
0100
0001
1000
0100
0010
0100
1000
0001
0010
0001
,  // measure 39
1000
0100
1000
0010
1000
0100
0010
0001
1000
0100
1000
0010
0100
0001
0010
0001
,  // measure 40
1000
0100
0010
0100
1000
0001
0100
0001
1000
0010
1000
0000
0100
0010
0000
0100
,  // measure 41
1000
0001
1000
0001
M200
0000
0000
0000
03M1
0100
0001
0010
0100
0010
0001
0100
,  // measure 42
0010
1000
0100
0010
0100
1000
0100
1000
0010
1000
0100
1000
0010
0100
0001
0010
,  // measure 43
0001
0100
0001
1000
0001
0010
0100
1000
0001
0100
0001
1000
0100
1000
0010
0100
,  // measure 44
0010
1000
0100
0010
0100
1000
0010
0100
0001
0010
0001
0100
0010
1000
0100
0010
,  // measure 45
0001
0010
0100
1000
0001
0010
0100
1000
0001
0100
0001
1000
0001
0100
0010
1000
,  // measure 46
0100
1000
0010
0100
0001
0100
0010
1000
0001
0010
0100
0010
0001
1000
0100
1000
,  // measure 47
0001
0010
0001
0100
0001
0010
0100
1000
0100
0000
0100
0000
1000
0000
1000
0000
,  // measure 48
0001
0100
0001
0100
0010
0100
0010
0100
0001
1000
0100
1000
0010
1000
0100
0010
,  // measure 49
0001
0000
0100
0000
0010
0000
0100
0000
0001
0000
1000
0000
0010
0000
1000
0000
0MM1
1000
0100
0010
0001
0000
1000
0010
1000
0000
1000
0010
0000
0010
0100
0000
,  // measure 50
0100
0001
0000
0001
1000
0000
0100
0010
0001
0000
0001
0010
0000
0010
0001
0000
1000
0001
1000
0100
1000
0000
0010
1000
0010
0000
0010
0100
0000
0100
0001
0000
,  // measure 51
0001
1000
0000
1000
0100
0000
0100
0010
0001
0000
0001
0100
0000
0100
0001
0000
0001
0010
0001
0100
0010
0000
1000
0100
1000
0000
1000
0010
0000
0010
1000
0000
,  // measure 52
1000
0001
0000
0001
0100
0000
0100
0010
1000
0000
1000
0100
0000
0100
1000
0000
0010
0100
0001
0010
0001
0000
0100
0010
1000
0000
1000
0100
0000
0100
1000
0000
,  // measure 53
1000
0001
0000
0001
0100
0000
0100
0010
1000
0000
1000
0100
0000
0100
1000
0000
0MM1
0000
1000
0000
0001
0000
1000
0000
0001
0000
1000
0000
0001
0000
1000
0000
,  // measure 54
0001
1000
0001
1000
0001
0000
0001
1000
0100
1000
0100
1000
0100
1000
0100
1000
,  // measure 55
0100
0000
0000
0000
0100
0000
0100
1000
0010
1000
0010
1000
0010
1000
0010
1000
,  // measure 56
0010
1000
0010
1000
0010
0000
0010
0100
0010
0100
0010
0100
0010
0100
0010
0100
,  // measure 57
0001
0000
0001
0010
0001
0100
0010
1000
0100
0010
0100
0010
0100
0010
0100
0010
,  // measure 58
0100
0010
0100
0010
0100
0000
0100
1000
0100
1000
0100
1000
0100
1000
0100
1000
,  // measure 59
0001
0000
0000
0000
0001
0000
0001
0100
0010
0100
0010
0100
0010
0100
0010
0100
,  // measure 60
0010
0100
0010
0100
0010
0000
0010
1000
0100
1000
0010
0100
0001
0010
0100
1000
,  // measure 61
0MM1
1000
0001
1000
0001
1000
0010
0100
M001
0000
0010
0000
0100
0000
1000
0000
0010
0000
1000
0000
0100
0000
0010
0000
0001
0000
0000
0000
1000
0000
0010
0000
,  // measure 62
0000
1000
0001
0000
1000
0100
0000
0010
0001
0000
0100
0010
1000
0000
0010
1000
,  // measure 63
0000
0100
1000
0000
0001
0010
0100
1000
0010
1000
0100
0010
0001
0000
1000
0010
,  // measure 64
0000
1000
0001
0000
0100
0010
0000
0100
0001
0000
0010
0001
0100
0000
0010
1000
,  // measure 65
0000
0100
1000
0000
0001
1000
0010
0100
0001
0100
0010
1000
0001
0000
1000
0100
,  // measure 66
0000
1000
0010
0000
0100
0001
0000
0010
0001
0000
0100
0010
1000
0000
0010
1000
,  // measure 67
0000
1000
0001
0000
1000
0010
0100
0001
0010
0001
0100
0010
1000
0000
0100
0010
,  // measure 68
0000
0001
1000
0000
0100
0000
0100
0000
1000
0000
1000
0000
0010
0100
0010
0100
,  // measure 69
0001
0010
0100
1000
0001
0010
0001
0100
0010
1000
0100
1000
0001
0100
0001
1000
,  // measure 70
0100
1000
0001
1000
0010
0100
0001
0010
0001
1000
0010
1000
0100
0010
0100
1000
,  // measure 71
0010
0100
0001
1000
0100
0010
0100
1000
0010
1000
0100
0010
0001
1000
0010
0100
,  // measure 72
0001
0100
0010
0100
0001
0000
0001
0000
1000
0000
1000
0000
0010
0100
0010
0100
,  // measure 73
0002
0000
0000
0000
0103
0000
1000
0000
0100
0000
0001
0000
0010
0100
0010
0100
,  // measure 74
0010
0000
0010
0000
0100
0000
1000
0000
0100
0000
0001
0000
0100
1000
0100
1000
,  // measure 75
0100
0000
1000
0000
0001
0100
0001
0100
0010
1000
0010
1000
0010
0100
0010
0100
,  // measure 76
0010
0000
0010
1000
0100
1000
0100
1000
0010
1000
0010
1000
0001
0000
0001
0100
,  // measure 77
0010
1000
0001
0000
1001
0000
0000
0000
0000
0000
0000
0000
0000
0000
0000
0000
;

//---------------dance-single - DDRDAIKENKAI----------------
#NOTES:
     dance-single:
     DDRDAIKENKAI:
     Easy:
     4:
     0.353533,0.401063,0.155752,0.147100,0.000000,286.000000,268.000000,18.000000,17.000000,0.000000,0.000000,0.353533,0.401063,0.155752,0.147100,0.000000,286.000000,268.000000,18.000000,17.000000,0.000000,0.000000:
0000
0000
0000
0000
,
0000
0000
0000
0000
,
0000
0000
0000
0000
,
0000
0000
0000
0000
,
0000
0000
0000
0000
,
0000
0000
0000
0000
,
1000
1000
1000
1000
,
0001
0001
0001
0001
,
0100
0100
0100
0100
,
0020
0000
0000
0030
,
1000
0100
1000
1000
,
0001
0100
0001
0001
,
1000
0010
1000
1000
,
0001
0010
0001
0001
,
0100
0010
0100
0100
,
0001
1000
0001
0001
,
1000
0100
0010
0001
,
0100
0100
0100
0100
,
0010
0010
0010
0010
,
0010
0010
0020
0030
,
1000
0000
0000
0001
0000
0000
1000
0000
,
0000
0001
0000
0000
0100
0000
0100
0000
,
0010
0010
0010
0010
,
0010
0010
0020
0030
,
1000
0000
0000
1000
0000
0000
0001
0000
,
0000
1000
0000
0000
2002
3003
1000
0000
,
0001
0100
0010
1000
,
0001
0100
0100
0010
,
1000
0010
0100
0001
,
0010
0001
0001
1000
,
0100
0010
0100
1000
,
0001
0100
0100
0010
,
0100
0001
1000
0100
,
0010
0000
2002
3003
0110
0000
0100
0000
,
0010
1000
0010
0100
,
0001
1001
0100
0001
,
1000
0010
1000
0100
,
1001
1001
0100
1000
,
0001
0100
0010
1000
,
0001
1001
0100
0001
,
1000
0100
0010
0010
,
0010
1100
1001
0001
,
1000
0001
0100
0010
,
0100
0110
0010
1000
,
0100
1000
0001
0100
,
0110
0110
0001
0010
,
0100
1000
0001
0100
,
0001
0110
0001
1000
,
0100
0010
0001
1000
,
1001
0000
1001
0000
0200
0000
0000
0300
,
0020
0000
0000
0030
2000
0000
0000
0000
,
3002
0000
2003
0000
,
3020
0000
0230
0000
,
0302
0000
1003
0100
,
1000
0100
0100
1000
,
0100
0100
0010
0001
,
0010
0010
0001
0010
,
0001
0001
0100
0010
,
1000
0100
0100
1000
,
0100
0100
0010
0001
,
1000
0001
1002
0000
,
0200
0303
0001
0000
0010
0000
0001
0000
,
0010
0100
1000
0100
,
1000
0001
0100
0001
,
0100
0010
1000
0010
,
1000
0100
0001
0100
,
1000
0010
0001
0010
,
1000
0100
0010
0100
,
1000
0010
0100
0010
,
0100
0001
0010
1000
,
0010
0001
0100
1000
,
0100
0001
0010
0100
,
0010
0001
1000
0010
,
1000
1001
1000
0001
,
0100
0010
0010
1000
,
0100
1000
0100
0010
,
0001
1000
0001
0100
,
0010
0110
0000
0000
;
