#TITLE:V;
#SUBTITLE:(for EXTREME);
#ARTIST:TAKA;
#TITLETRANSLIT:;
#SUBTITLETRANSLIT:;
#ARTISTTRANSLIT:;
#GENRE:;
#CREDIT:;
#BANNER:V (for EXTREME).png;
#BACKGROUND:V (for EXTREME)-bg.png;
#LYRICSPATH:;
#CDTITLE:./CDTITLES/BEATMANIA IIDX.PNG;
#MUSIC:V(for EXTREME).mp3;
#OFFSET:-0.325;
#SAMPLESTART:81.900;
#SAMPLELENGTH:13.000;
#SELECTABLE:YES;
#DISPLAYBPM:150.000;
#BPMS:0.000=150.000;
#STOPS:;
#TIMESIGNATURES:0.000=4=4
;
#BGCHANGES:;
#KEYSOUNDS:;
#ATTACKS:;

//---------------dance-single - DDRDAIKENKAI----------------
#NOTES:
     dance-single:
     DDRDAIKENKAI:
     Beginner:
     2:
     0.217,0.357,0.167,0.288,0.000,114.000,18.000,31.000,0.000,0.000,0.000,-1.000,-1.000,0.217,0.357,0.167,0.288,0.000,114.000,18.000,31.000,0.000,0.000,0.000,-1.000,-1.000:
0000
0000
0000
0000
,
0000
0000
0000
0000
,
0000
0000
0000
0000
,
0100
0100
0100
0100
,
0100
0100
0100
0000
,
0010
0010
0010
0000
,
1000
1000
1000
0000
,
0001
0001
0001
0001
,
0001
0001
0001
0000
,
1000
0000
0100
0000
,
1000
0000
0100
0000
,
1000
0000
0001
0000
,
1000
0000
0001
0000
,
2002
0000
3003
0000
,
0220
0000
0330
0000
,
1001
0000
1001
0000
,
1001
1001
1001
1001
,
2002
0000
0000
0000
,
0000
0000
0000
0000
,
0000
0000
3003
0000
,
1000
0000
1000
0000
,
0100
0100
0100
0000
,
1000
1000
1000
0000
,
1001
0000
1000
0000
,
0001
0000
1000
0000
,
0010
0000
0100
0000
,
0010
0000
0100
0000
,
0001
0001
0001
0000
,
2002
0000
3003
0000
,
1000
0000
0100
0000
,
0220
0000
0330
0000
,
0001
0000
1000
0000
,
2002
0000
3003
0000
,
0010
0000
0100
0000
,
0220
0000
0330
0000
,
0001
0000
1000
0000
,
0001
0001
0000
1000
,
0000
0100
0000
1000
,
0000
0001
0000
0100
,
0000
0010
0000
1000
,
0000
0100
0000
0010
,
0020
0030
0002
0003
,
0000
1000
0000
0001
,
0000
1000
0000
1000
,
2000
3000
0020
0030
,
0000
1000
0000
1000
,
0000
0100
0000
0100
,
0220
0000
0330
0000
,
2002
0000
3003
0000
,
0001
0000
0001
0000
,
1000
0000
1000
0000
,
2002
0000
3003
0000
,
1000
0000
1000
0000
,
2000
0000
3000
0000
,
0001
0000
0001
0000
,
0002
0000
0003
0000
,
0100
0000
0100
0000
,
0200
0000
0300
0000
,
0010
0000
0010
0000
,
0020
0000
0030
0000
,
0200
0000
0300
0000
,
0001
0000
1000
0000
,
2002
0000
0000
0000
,
0000
0000
0000
0000
,
3003
0000
0000
0000
;

//---------------dance-single - DDRDAIKENKAI----------------
#NOTES:
     dance-single:
     DDRDAIKENKAI:
     Easy:
     4:
     0.308,0.357,0.139,0.353,0.000,179.000,15.000,38.000,0.000,0.000,0.000,-1.000,-1.000,0.308,0.357,0.139,0.353,0.000,179.000,15.000,38.000,0.000,0.000,0.000,-1.000,-1.000:
0000
0000
0000
0000
,
0000
0000
0000
0000
,
0000
0000
0000
0000
,
0100
0100
0100
0100
,
0100
0100
0100
0100
,
0010
0010
0010
0010
,
1000
1000
1000
1000
,
0001
0001
0001
0001
,
0001
0001
0001
0001
,
1000
1000
1000
1000
,
0001
0001
0001
0001
,
1000
1000
0001
0001
,
0100
0100
0010
0010
,
0220
0000
0000
0330
,
2002
0000
0000
3003
,
0220
0330
2002
3003
,
0110
0110
0110
0110
,
2002
0000
0000
0000
,
0000
0000
0000
0000
,
0000
0000
0000
3003
,
1000
1000
1000
1000
,
0100
0100
0100
0100
,
0010
0010
0010
0010
,
0001
0001
0000
1000
,
0000
0001
0000
1000
,
0000
0010
0000
0100
,
0000
0010
0000
0100
,
0001
0001
1000
1000
,
2002
0000
0000
3003
,
0001
0001
0001
0001
,
0202
0000
0000
0303
,
0010
0010
0010
0010
,
2020
0000
0000
3030
,
1000
1000
1000
1000
,
2200
0000
0000
3300
,
0010
0010
0010
0010
,
0001
0100
0000
0001
,
0000
1000
0000
0100
,
0000
0010
0000
0001
,
0000
0100
0000
0010
,
0010
1000
1000
0001
,
0002
0000
0203
0310
,
0000
1000
0000
0001
,
0100
0100
0010
0010
,
2000
0000
3002
1003
,
0000
0001
0000
0010
,
0000
0001
0000
1000
,
2000
0100
0200
3300
,
0020
0001
0002
0033
,
0002
0103
0200
0310
,
0020
1030
2000
3001
,
2002
0000
0000
3003
,
1000
1000
1000
1000
,
0100
1000
0100
1000
,
0001
0001
0001
0001
,
0100
0001
0100
0001
,
0100
0100
0100
0100
,
0010
0100
0010
0100
,
0020
2030
3002
2003
,
3001
0100
0001
0100
,
0010
1000
0010
1000
,
0100
0010
0001
1000
,
2002
0000
0000
0000
,
0000
0000
0000
0000
,
3003
0000
0000
0000
;

//---------------dance-single - DDRDAIKENKAI----------------
#NOTES:
     dance-single:
     DDRDAIKENKAI:
     Medium:
     6:
     0.434,0.476,0.205,0.437,0.000,258.000,22.000,47.000,0.000,0.000,0.000,-1.000,-1.000,0.434,0.476,0.205,0.437,0.000,258.000,22.000,47.000,0.000,0.000,0.000,-1.000,-1.000:
0000
0000
0000
0000
,
0000
0000
0000
0000
,
0000
0000
0000
0000
,
1001
1000
1000
1000
,
1000
1000
1000
1000
,
0101
0001
0001
0001
,
0110
0010
0010
0010
,
1001
1000
1000
1000
,
1000
1000
1000
1000
,
0002
2003
3002
0203
,
0320
0230
0302
1003
,
2100
3200
0320
0032
,
2003
3002
0203
0310
,
0220
0330
1000
0100
,
2002
3003
0001
0100
,
2002
3003
0220
0330
,
1001
0110
1001
0110
,
2002
0000
0000
0000
,
0000
0000
0000
0000
,
0000
0000
0000
3003
,
2000
0000
0100
0000
0100
0000
0100
3000
,
0100
0100
0100
0100
,
0100
0000
0100
0000
0010
0100
0010
0100
,
1000
0000
0001
0100
0001
0000
1000
0000
,
0001
0000
1000
0010
1000
0000
0001
0000
,
1000
0000
0001
0010
0001
0000
1000
0000
,
0001
0000
1000
0100
1000
0000
0001
0000
,
0100
0010
0100
0010
0100
0010
0100
0020
,
0200
0000
0000
0330
,
1001
1000
0001
0100
,
0202
0000
0000
0303
,
1001
1000
0100
0010
,
0220
0000
0000
0330
,
1100
1000
0001
0100
,
0220
0000
0000
0000
0000
0330
0000
0000
,
0010
1000
0010
1000
0010
1000
0010
1000
,
0200
0310
0100
1000
,
0001
0100
0001
1000
,
0001
1000
0010
0100
,
0001
0001
1000
1000
,
0100
0010
0001
1000
,
1002
0000
1003
0001
2000
0000
3100
0000
,
0100
0010
0100
1000
,
0010
0001
0010
1000
,
2010
0000
3010
0100
0020
0000
0130
0000
,
0100
0001
0010
0001
,
0200
0320
2030
3200
,
0310
0100
0010
0100
0020
0000
0031
0000
,
1000
0100
1000
0100
2000
0000
3001
0000
,
0100
0010
0100
0000
0001
1000
0001
0000
,
1000
0100
1000
0100
1000
0100
1000
0100
,
2000
0000
0000
3000
,
0001
0010
0001
0000
1000
0010
1000
0000
,
0001
0100
0001
0100
0001
0100
0001
0000
,
0100
0010
0100
0000
0010
1000
0010
0000
,
1000
0100
1000
0100
1000
0100
1000
0000
,
0001
0010
0001
0000
1000
0010
1000
0000
,
0010
0100
0010
0100
0010
0100
0010
0000
,
1000
0001
1000
0001
1000
0001
1000
0001
,
1000
0000
0001
0100
0001
0000
0100
0000
,
0010
0000
1000
0100
1000
0000
0010
0000
,
1000
0001
1000
0001
1000
0001
1000
0002
,
2000
0000
0000
0000
,
0000
0000
0000
0000
,
3003
0000
0000
0000
;

//---------------dance-single - DDRDAIKENKAI----------------
#NOTES:
     dance-single:
     DDRDAIKENKAI:
     Hard:
     9:
     0.655,0.714,0.167,0.130,0.265,461.000,18.000,14.000,0.000,0.000,0.000,-1.000,-1.000,0.655,0.714,0.167,0.130,0.265,461.000,18.000,14.000,0.000,0.000,0.000,-1.000,-1.000:
0000
0000
0000
0000
,
0000
0000
0000
0000
,
0000
0000
0000
0000
,
0102
0103
0100
0100
,
0100
0000
0100
0000
0100
0000
0100
0001
,
2001
3001
0001
0001
,
0012
0000
0013
0000
0010
0000
0010
0100
,
1200
1300
1000
1000
,
1000
1000
1000
1000
,
1001
0000
0000
1000
0010
0000
0100
0000
0001
0000
0000
1000
0100
0000
0000
0000
,
1000
0000
0000
0001
0010
0000
0100
0000
1000
0000
0000
0001
0100
0000
0010
0000
,
0110
0000
0000
0010
0100
0000
0001
0000
1000
0000
0000
0100
1000
0000
0000
0000
,
0001
0000
0000
1000
0100
0000
0010
0000
0001
0000
0000
1000
0010
0000
0100
0000
,
0201
0001
0301
1000
0100
0010
0001
1000
,
2100
0100
3100
1000
0010
0001
0010
0100
,
0202
0303
2002
3003
,
0001
0100
0001
0100
0010
1000
0001
1000
,
2002
0000
0000
0000
,
0000
0000
0000
0000
,
0000
0000
0000
3003
,
0001
0100
0001
0100
0001
0100
0001
0000
,
0100
0100
0100
0100
,
0010
1000
0100
0010
0001
0100
0001
0100
,
0001
0010
0100
0010
0001
0010
0100
0010
,
0001
0100
0010
0100
0001
0100
0010
0100
,
0001
1000
0100
1000
0001
1000
0100
1000
,
0001
1000
0001
1000
0001
0100
0001
0100
,
0010
0010
1000
1000
0001
1000
0010
1000
,
0100
0000
1000
0010
1000
0010
1000
0010
1000
0000
0010
0000
1000
0000
0010
0000
,
0110
0010
0100
0001
0010
0001
0100
0010
,
1000
0000
0001
0100
0001
0100
0001
0100
0001
0000
0010
0000
0100
0000
1000
0000
,
1100
0100
0010
0001
0100
0010
1000
0001
,
1000
0000
0010
0100
0010
0100
0010
0100
0010
0000
0100
0000
0001
0000
1000
0000
,
1001
0001
1000
0001
0100
0010
1000
0100
,
1000
0000
0100
0010
0100
0010
0100
0010
0100
0000
1000
0000
0001
0000
0010
0000
,
0100
0000
1000
0000
0001
0000
0100
0000
0010
1000
0000
1000
0100
0000
0010
0000
,
0001
0100
0001
0100
0010
0100
0010
0100
,
0010
1000
0010
1000
0001
1000
0001
1000
,
0100
1000
0010
1000
0001
1000
0100
0010
,
0001
0100
0010
0100
0001
0100
0010
0100
,
0001
1000
0100
0010
0001
1000
0010
0100
,
0001
0000
0000
0010
0001
0000
0100
0000
0010
0000
1000
0000
0100
0000
1000
0000
,
0010
0100
0001
0100
0010
0100
0001
0100
,
0010
1000
0100
0010
0001
1000
0010
0100
,
0001
0000
0000
0010
0100
0000
0010
0000
0001
0000
1000
0000
0100
0000
1000
0000
,
0001
0010
0001
0100
0001
0010
0001
0100
,
0010
1000
0001
1000
0100
1000
0010
1000
,
0001
0000
1000
0000
0100
0000
0010
0000
0001
0100
0001
0100
0001
0000
0010
0000
,
0100
0000
1000
0000
0001
0000
0100
0000
0010
1000
0010
1000
0010
0000
1000
0000
,
0001
0100
0001
0000
1000
0100
1000
0000
0001
0100
0001
0000
1000
0100
1000
0000
,
0001
1000
0001
0000
0100
0000
0001
0000
1000
0001
1000
0000
0100
0000
1000
0000
,
0001
0000
1000
0010
1000
0010
1000
0010
1000
0000
0001
0000
0100
0000
0001
0000
,
0101
0001
0010
0001
0100
0010
1000
0001
,
1000
0000
0010
0100
0010
0100
0010
0100
0010
0000
1000
0000
0010
0000
0100
0000
,
0110
0100
0001
0010
0100
1000
0010
0100
,
0001
0000
1000
0100
1000
0100
1000
0100
1000
0000
0010
0000
0100
0000
0001
0000
,
0011
0001
0100
0010
1000
0100
0010
0001
,
1000
0000
0001
0100
0001
0100
0001
0100
0001
0000
0010
0000
0001
0000
0100
0000
,
0010
1000
0010
0000
1000
0001
1000
0000
0100
1000
0100
0000
1000
0001
1000
0001
,
1000
0000
0001
0100
0001
0100
0001
0100
0001
0000
0010
0000
0001
0000
0100
0000
,
0010
0000
1000
0100
1000
0100
1000
0100
1000
0000
0010
0000
0100
0000
0001
0000
,
0010
0100
0010
0100
1000
0001
1000
0001
,
2002
0000
0000
0000
,
0000
0000
0000
0000
,
3003
0000
0000
0000
;

//---------------dance-single - DDRDAIKENKAI----------------
#NOTES:
     dance-single:
     DDRDAIKENKAI:
     Challenge:
     11:
     0.895,0.952,0.251,0.232,0.893,622.000,27.000,25.000,0.000,0.000,2.000,-1.000,-1.000,0.895,0.952,0.251,0.232,0.893,622.000,27.000,25.000,0.000,0.000,2.000,-1.000,-1.000: // measure 1
0000
0000
0000
0000
,  // measure 2
0000
0000
0000
0000
,  // measure 3
0000
0000
0000
0000
,  // measure 4
0201
0000
0000
0301
0010
0000
0100
0000
1000
0001
0000
0001
1000
0000
0010
0000
,  // measure 5
0100
0001
0000
0001
0100
0000
0010
0000
1000
0100
0000
0100
0010
0000
0011
0000
,  // measure 6
2001
0000
0000
3001
0010
0000
0100
0000
1000
0010
0000
0010
0100
0000
0001
0000
,  // measure 7
0102
0000
0000
0103
0001
0000
0010
0000
0001
0100
0000
0100
0010
0000
1000
0000
,  // measure 8
2010
0000
0000
3010
1000
0000
0100
0000
1000
0010
0000
0010
0100
0000
0001
0000
,  // measure 9
1000
0100
0000
0100
1000
0000
0001
0000
1000
0010
0000
0010
1000
0000
0100
0000
,  // measure 10
2100
3100
1000
0010
1000
0100
1000
0010
,  // measure 11
0100
0001
0100
0010
0100
0001
0100
0010
,  // measure 12
1000
0001
0010
0001
1000
0001
0010
0001
,  // measure 13
0010
0100
0010
0001
0010
0100
0010
0001
,  // measure 14
0102
0100
0103
0010
1000
0100
1000
0010
,  // measure 15
0210
0010
0310
1000
0100
1000
0010
0100
,  // measure 16
0101
0001
0010
0100
1100
0100
1000
0010
,  // measure 17
1000
0001
1000
0001
1000
0001
1000
0001
1000
0001
1000
0001
1000
0001
1000
0001
,  // measure 18
0400
0000
0000
0000
,  // measure 19
0000
0000
0000
0000
,  // measure 20
0000
0000
0000
0000
,  // measure 21
0301
0010
0001
0010
0001
0010
0001
0000
,  // measure 22
0100
0100
0100
0100
,  // measure 23
0010
0000
1000
0000
0100
0000
0010
0000
0001
0100
0001
0100
0001
0100
0001
0100
,  // measure 24
0001
0010
0100
1000
0001
0100
0010
1000
,  // measure 25
0001
1000
0100
0010
0001
1000
0010
0100
,  // measure 26
0001
0010
0001
0010
0100
1000
0100
1000
,  // measure 27
0001
0100
0001
0100
0010
1000
0010
1000
,  // measure 28
0001
0100
1000
0100
0001
0010
0001
0100
,  // measure 29
0120
0000
1030
0100
1000
0100
1000
0100
1000
0000
1000
0000
1000
0000
1000
0000
,  // measure 30
2001
3001
1000
0010
0001
0010
1000
0100
,  // measure 31
1200
0000
1300
0100
1000
0100
1000
0100
1000
0000
0010
0000
0100
0000
0001
0000
,  // measure 32
0201
0301
0010
0001
0100
0010
1000
0001
,  // measure 33
1002
0000
1003
0010
1000
0010
1000
0010
0100
0001
0100
0001
0100
0000
0001
0000
,  // measure 34
0021
0031
1000
0010
0100
0001
0010
0001
,  // measure 35
0102
0000
0103
0010
0100
0010
0100
0010
0100
0000
0010
0000
1000
0000
0100
0000
,  // measure 36
1000
0000
0001
0000
0100
0000
0010
0000
1000
0001
0000
0001
1000
0100
1000
0100
,  // measure 37
1000
0010
0100
0001
0010
0001
0100
0010
1000
0010
0100
0001
0010
0001
0100
0010
,  // measure 38
1000
0100
0010
0001
0010
0100
1000
0001
0100
0010
1000
0100
1000
0010
0100
0001
,  // measure 39
0010
0000
0001
0000
0100
0010
1000
0100
1000
0010
0100
0001
0010
0100
1000
0001
,  // measure 40
0100
0010
1000
0010
0100
0010
0100
0010
0100
0001
0100
0001
0010
0001
0010
0001
,  // measure 41
1000
0100
0010
0001
0010
0100
1000
0001
1000
0100
0010
0001
0010
0100
1000
0001
,  // measure 42
0200
0000
0300
0000
0000
0000
0000
0000
0000
0100
0000
0000
0002
0000
0003
0010
0000
0000
0100
0000
0000
1000
0000
0000
0001
0000
0000
0100
0000
0000
0010
0000
0000
1000
0000
0000
0100
0000
0000
0010
0000
0000
0001
0000
0000
1000
0000
0000
,  // measure 43
0010
0100
0001
1000
0010
0100
0001
1000
0010
0100
0001
1000
0010
0100
0001
1000
,  // measure 44
0001
0010
0100
1000
0001
0100
0010
1000
0001
0010
0100
1000
0001
0100
0010
1000
,  // measure 45
0002
0000
0003
0000
0000
0000
0000
0000
0000
0001
0000
0000
2000
0000
3000
0100
0000
0000
0010
0000
0000
0001
0000
0000
0010
0000
0000
0100
0000
0000
1000
0000
0000
0100
0000
0000
0010
0000
0000
0001
0000
0000
1000
0000
0000
0010
0000
0000
,  // measure 46
1000
0001
0100
0001
1000
0010
0100
0001
1000
0010
0100
0001
1000
0010
0100
0001
,  // measure 47
1000
0100
1000
0100
0010
0100
0010
0100
0010
0001
0010
0001
1000
0001
1000
0001
,  // measure 48
0010
0000
0100
0000
1000
0000
0001
0000
0100
0010
0100
0010
1000
0001
0010
0100
,  // measure 49
1000
0000
0001
0000
0010
0000
0100
0000
1000
0001
1000
0001
0100
0010
1000
0001
,  // measure 50
1000
0100
1000
0100
0010
0100
0010
0100
0010
0001
0010
0001
1000
0001
1000
0001
,  // measure 51
1000
0010
0100
0001
1000
0010
0100
0001
1000
0100
0010
0001
1000
0010
0100
0001
,  // measure 52
0020
0000
0130
1000
0001
1000
0100
1000
0001
0100
0001
0100
0001
0100
0001
1000
,  // measure 53
2001
3001
0010
0001
0100
0010
1000
0100
,  // measure 54
2100
0000
3100
0010
0100
1000
0100
0010
0100
0000
0010
0000
0001
0000
1000
0000
,  // measure 55
2010
3010
0100
0001
0010
0001
0100
0010
,  // measure 56
2010
0000
3010
0100
0001
0100
0010
0100
0001
0000
0010
0000
0001
0000
0100
0000
,  // measure 57
0201
0301
0010
0100
1000
0001
0100
0010
,  // measure 58
2010
0000
3010
1000
0100
1000
0010
1000
0100
0000
0010
0000
0001
0000
1000
0000
,  // measure 59
0001
1000
0100
0010
0001
1000
0010
0100
0001
1000
0100
0010
0001
1000
0010
0100
,  // measure 60
0001
0000
1000
0100
1000
0100
1000
0100
1000
0000
0010
0000
0100
0000
0001
0000
,  // measure 61
0010
0000
0001
0100
0001
0100
0001
0100
0001
0000
0010
0000
0100
0000
1000
0000
,  // measure 62
1010
0000
0101
0000
0011
0000
1100
0000
0001
1000
0010
0100
0001
1000
0100
0010
,  // measure 63
0004
0000
0000
0000
,  // measure 64
0000
0000
0000
0000
,  // measure 65
0003
0000
0000
0000
;
