#TITLE:Until We Black Out;
#SUBTITLE:;
#ARTIST:BlenderBlaster;
#TITLETRANSLIT:;
#SUBTITLETRANSLIT:;
#ARTISTTRANSLIT:;
#GENRE:Glitch Hop;
#CREDIT:;
#MENUCOLOR:;
#NEWMETERSYSTEM:NO;
#BANNER:Until We Black Out.png;
#BACKGROUND:Until We Black Out-bg.png;
#LYRICSPATH:;
#CDTITLE:CDTitle.png;
#MUSIC:Until We Black Out.ogg;
#OFFSET:-0.023;
#SAMPLESTART:21.366;
#SAMPLELENGTH:11.000;
#SELECTABLE:YES;
#LISTSORT:;
#BPMS:0.000=180.000,32.000=360.000,33.503=180.000,34.500=360.000,36.003=180.000,41.000=360.000,42.503=180.000,43.500=360.000,45.003=180.000,50.000=360.000,51.503=180.000,52.500=360.000,54.003=180.000,59.000=360.000,60.503=180.000,61.500=360.000,63.003=180.000,196.000=90.000,244.000=180.000;
#STOPS:33.500=0.083
,36.000=0.083
,42.500=0.083
,45.000=0.083
,51.500=0.083
,54.000=0.083
,60.500=0.083
,63.000=0.083
;
#DISPLAYBPM:90.000:180.000;
#BGCHANGES:;
#ATTACKS:;

//---------------dance-single - DDRDAIKENKAI----------------
#NOTES:
     dance-single:
     DDRDAIKENKAI:
     Hard:
     9:
     0.735,1.000,0.250,0.268,0.308:
0000
0000
0000
0000
,
0000
0000
0000
0000
,
0000
0000
0000
0000
,
0000
0000
0000
0000
0000
0001
1000
0001
,
1001
0000
0001
1000
0100
0010
0100
1000
,
0001
0010
0001
1000
0000
1000
0010
1000
,
1001
0000
0010
0000
1001
0000
0100
0100
,
1000
0010
1000
0001
1000
1000
0100
1000
,
0020
0000
0000
0000
0000
0000
0000
0000
0000
0000
0000
0000
0000
0000
0000
0000
0000
0000
0000
0000
0000
0000
0000
0000
0030
0001
0000
0000
0000
0000
0000
0000
0010
0000
0000
0000
0000
0000
0000
0000
2000
0000
0000
0000
0000
0000
0000
0000
0000
0000
0000
0000
0000
0000
0000
0000
0000
0000
0000
0000
0000
0000
0000
0000
,
3000
0001
0000
0000
0000
0000
0000
0000
0010
0000
0000
0000
0000
0000
0000
0000
1000
0000
0000
0000
0000
0000
0000
0000
0010
0000
0000
0000
0000
0000
0000
0000
0001
0000
0000
0000
0000
0000
0000
0000
1000
0000
0000
0000
0000
0000
0000
0000
0100
0000
0000
0000
0000
0000
0000
0000
0010
0000
0000
0000
0000
0000
0000
0000
,
0002
0000
0000
0000
0000
0000
0000
0000
0000
0000
0000
0000
0000
0000
0000
0000
2003
0000
0000
0000
0000
0000
0000
0000
0000
0000
0000
0000
0000
0000
0000
0000
0000
0000
0000
0000
0000
0000
0000
0000
3000
0100
0000
0000
0000
0000
0000
0000
0010
0000
0000
0000
0000
0000
0000
0000
0002
0000
0000
0000
0000
0000
0000
0000
,
0000
0000
0000
0000
0000
0000
0000
0000
0000
0000
0000
0000
0000
0000
0000
0000
0003
0100
0000
0000
0000
0000
0000
0000
0010
0000
0000
0000
0000
0000
0000
0000
0001
0000
0000
0000
0000
0000
0000
0000
0010
0000
0000
0000
0000
0000
0000
0000
1000
0000
0000
0000
0000
0000
0000
0000
1000
0000
0000
0000
0000
0000
0000
0000
,
0100
0000
0000
0000
0000
0000
0000
0000
1000
0000
0000
0000
0000
0000
0000
0000
0001
0000
0000
0000
0000
0000
0000
0000
0010
0000
0000
0000
0000
0000
0000
0000
2000
0000
0000
0000
0000
0000
0000
0000
0000
0000
0000
0000
0000
0000
0000
0000
0000
0000
0000
0000
0000
0000
0000
0000
3000
0010
0000
0000
0000
0000
0000
0000
,
0100
0000
0000
0000
0000
0000
0000
0000
2000
0000
0000
0000
0000
0000
0000
0000
0000
0000
0000
0000
0000
0000
0000
0000
0000
0000
0000
0000
0000
0000
0000
0000
3000
0010
0000
0000
0000
0000
0000
0000
0100
0000
0000
0000
0000
0000
0000
0000
1000
0000
0000
0000
0000
0000
0000
0000
0100
0000
0000
0000
0000
0000
0000
0000
,
0001
1000
0100
0010
0001
0100
0020
0000
,
0000
0000
0000
0000
0000
0000
0000
0000
0030
1000
0000
0000
0000
0000
0000
0000
0100
0000
0000
0000
0000
0000
0000
0000
0002
0000
0000
0000
0000
0000
0000
0000
0000
0000
0000
0000
0000
0000
0000
0000
0000
0000
0000
0000
0000
0000
0000
0000
0003
1000
0000
0000
0000
0000
0000
0000
0100
0000
0000
0000
0000
0000
0000
0000
,
0001
0000
0100
0100
1000
1000
0010
0010
,
0001
0100
1000
0001
0010
1000
0001
0100
,
0010
1000
0000
1001
0000
0001
0001
0001
,
1000
0100
0010
1000
0010
0001
1000
0001
,
0100
0010
0000
0110
0000
0100
0100
0100
,
0001
0010
1000
0001
0100
1000
0001
0100
,
0001
1000
0000
1001
0000
1000
1000
1000
,
0010
1000
0100
0001
0100
0010
0001
1000
,
0100
0001
0000
1001
0000
0001
0100
1000
,
0001
1000
0100
0010
0001
1000
0001
0010
,
0100
1000
0100
0001
0100
0010
0001
0100
,
0010
0000
1000
0100
0002
0203
0310
0000
,
0100
0010
0100
1000
0000
1000
0010
0100
,
0001
0000
0010
0100
1000
0010
0100
0001
,
1000
0010
0010
0010
0010
1000
0001
0010
,
1000
0000
1010
0000
0020
2030
3010
0001
,
1000
0010
0100
0001
0000
0010
0100
1000
,
0001
0100
0001
0000
1000
0010
2000
0000
,
3001
0000
1000
0010
1000
0100
0001
1000
,
0000
0001
0100
0010
0001
0000
0001
1000
,
0010
0010
0010
0000
0001
0010
1000
0001
,
1001
1000
0100
1000
0010
1000
0100
1000
,
1010
0010
0001
0010
0100
0010
0001
0010
,
0110
0100
0001
1000
1100
0100
0010
0001
,
0010
1000
0010
1000
0010
0001
0010
0001
,
0101
0001
1000
0000
1010
0010
0100
0001
,
1000
0100
1000
0000
1001
1000
0002
0003
,
1000
0100
0010
0000
1001
0001
1000
0010
,
0100
0001
1000
0000
1010
1000
0002
0003
,
0100
0001
1000
0000
1001
0001
1000
0100
,
1000
0010
0100
0000
0110
0100
0002
0003
,
0010
0100
1000
0000
1100
1000
0100
1000
,
0010
0001
0010
1000
1100
0000
0101
0000
,
0001
0010
0100
2000
0000
0000
3000
0000
0100
0010
0001
2000
0000
0000
3000
0000
,
0100
1000
0001
0020
0001
0000
0031
1000
0100
1000
0100
0000
2200
0000
3300
0000
,
1000
0100
0010
0002
1000
0000
0003
0000
0001
0010
0100
2000
0001
0000
3000
0000
,
1000
0001
0100
0010
2000
0000
3010
0100
0001
1000
0010
0000
0210
0000
0000
0000
,
0310
1000
0100
1000
0001
0000
0000
0000
0100
0001
0010
0001
1000
0000
0000
0000
,
0010
1000
0100
0010
0001
0000
1000
0100
0001
0100
1000
0000
1001
1000
0002
0000
,
1003
0100
1000
0001
0010
0000
0001
0000
1000
0010
1000
0001
0100
0000
0010
0000
,
0100
0001
0010
0100
1000
0000
0010
1000
0100
0010
0001
0000
1001
1000
0001
0000
,
1000
0100
1000
0001
1000
0000
0010
0010
0100
0001
0100
0010
0100
0000
0001
0001
,
0010
0100
0010
0001
0010
0000
0100
1000
0010
0100
0001
0000
1001
0001
2000
0000
,
3100
1000
0010
0100
0001
1000
0100
0100
1000
0010
0100
0001
0010
0100
1000
1000
,
0001
0100
0001
0100
0010
1000
0010
1000
0010
0100
0010
0100
0001
1000
0001
1000
,
0100
0001
0100
0001
0100
0001
0100
0001
,
0100
1000
0100
1000
0100
1000
0100
1000
,
0010
0001
0010
0001
0010
0001
0010
0001
,
0010
1000
0010
1000
0010
1000
1000
1000
,
0001
0010
0100
0010
0001
0010
0100
0010
,
0001
0100
1000
0100
0001
0100
1000
0100
,
0010
1000
0100
1000
0001
0010
1000
0010
,
0001
0001
0100
0100
0010
0010
0120
0000
,
2030
0000
0000
0000
,
0000
0000
0000
0000
,
3000
0000
0000
0000
;

//---------------dance-single - DDRDAIKENKAI----------------
#NOTES:
     dance-single:
     DDRDAIKENKAI:
     Medium:
     7:
     0.527,0.761,0.420,0.143,0.138: // measure 1
0000
0000
0000
0000
,  // measure 2
0000
0000
0000
0000
,  // measure 3
0000
0000
0000
0000
,  // measure 4
0000
0000
0000
0000
,  // measure 5
1001
0000
1000
0000
0001
0100
0000
0010
,  // measure 6
1000
0100
0000
1000
0000
0001
0010
0000
,  // measure 7
0110
0000
0010
0000
0001
0100
0000
0010
,  // measure 8
1000
0100
0000
1000
0000
0001
0100
0000
,  // measure 9
0120
0000
0000
0030
0100
0002
0000
0000
,  // measure 10
0003
1000
0100
0000
1000
0000
0100
0000
,  // measure 11
0010
0000
0002
0000
0000
0003
1000
0200
,  // measure 12
0000
0000
0300
1000
0010
0000
0100
0000
,  // measure 13
0001
0000
1000
0000
0020
0000
0000
0030
,  // measure 14
1000
0020
0000
0000
0030
1000
0001
0000
,  // measure 15
0100
0001
0010
0200
,  // measure 16
0000
0300
1000
0020
0000
0000
0030
1000
,  // measure 17
0001
0001
0001
0101
,  // measure 18
1001
0000
1000
0001
0100
0000
0001
1000
,  // measure 19
0000
0100
1000
0000
1001
0000
0000
0000
,  // measure 20
0010
0000
0100
0001
0010
0000
0100
0010
,  // measure 21
0000
0100
1000
0000
1001
0000
0000
0000
,  // measure 22
0100
0000
1000
0001
0100
0000
0010
0100
,  // measure 23
0000
0010
1000
0000
1001
0000
0000
0000
,  // measure 24
0010
0000
0100
0001
1000
0000
0100
0010
,  // measure 25
0000
0100
1000
0000
1001
0000
0001
0000
,  // measure 26
0101
0000
0100
0000
0110
0000
1000
0100
,  // measure 27
0000
1000
0001
0000
1001
0000
0001
0000
,  // measure 28
0100
0000
0010
0000
0110
0000
0100
0001
,  // measure 29
0000
1000
0100
0000
0110
0000
0100
0000
,  // measure 30
1000
0000
0001
0000
1001
0000
0001
0010
,  // measure 31
0000
0001
1000
0000
1010
0000
0010
0000
,  // measure 32
0100
0000
0001
0000
1001
0000
0001
0100
,  // measure 33
0000
0010
1000
0000
1100
0000
0100
0000
,  // measure 34
0010
0000
0001
0000
1001
0000
0001
0010
,  // measure 35
0000
0001
1000
0000
1001
0000
1000
0000
,  // measure 36
0010
0000
0100
0000
0101
0000
0001
1000
,  // measure 37
0000
0100
1000
0000
1001
0000
0001
0000
,  // measure 38
1001
0000
1000
0000
0100
0010
0100
0000
,  // measure 39
0110
0000
0100
0000
1000
0001
1000
0000
,  // measure 40
1100
1000
1001
0001
,  // measure 41
0101
0101
1100
1100
,  // measure 42
0001
0000
1000
0100
1000
0001
0000
0100
,  // measure 43
0000
0010
0100
0000
0220
0000
0330
0000
,  // measure 44
0100
0000
0001
0010
0001
1000
0000
0010
,  // measure 45
0000
0100
0010
0000
0220
0000
0330
0000
,  // measure 46
0100
0000
0001
1000
0100
0010
0000
0100
,  // measure 47
0000
1000
0001
0000
2002
0000
3003
0000
,  // measure 48
1000
0000
0001
0010
0100
0010
0000
0001
,  // measure 49
0000
0100
0010
0000
0110
0000
0110
0000
,  // measure 50
0001
0000
0000
0000
1000
0000
0000
0100
0000
0000
0010
0000
0001
0000
0000
0000
,  // measure 51
1000
0000
0000
0000
0001
0000
0000
0100
0000
0000
0010
0000
1000
0000
0000
0000
,  // measure 52
0010
0000
0000
1000
0001
0000
0000
0100
0000
0000
0001
0000
1000
0000
0000
0000
,  // measure 53
0100
0000
0000
0010
0001
0000
0000
0100
0000
0000
0001
0000
2001
0000
0000
0000
,  // measure 54
3001
0000
1000
0000
1001
0000
1000
0010
1000
0100
0010
0000
0110
0000
0000
0000
,  // measure 55
0100
0000
1000
0000
1001
0000
0001
0100
0010
1000
0010
0000
0110
0000
0000
0000
,  // measure 56
1000
0000
0010
0000
0110
0000
0100
0001
1000
0100
1000
0000
1100
0000
0000
0000
,  // measure 57
0010
0000
0001
0000
1001
0000
0001
0100
0010
1000
0001
0000
1001
0000
1001
0000
,  // measure 58
0001
0100
0001
0100
0000
0000
0010
0000
1000
0100
1000
0100
0000
0000
0010
0000
,  // measure 59
0001
1000
0001
1000
0000
0000
0010
0000
0100
0001
1000
0000
1100
0000
0000
0000
,  // measure 60
0100
1000
0010
0100
0001
0000
0001
0000
0010
0100
0010
0001
1000
0000
1000
0000
,  // measure 61
0100
0010
0100
1000
0001
0000
0001
0000
0100
0010
0100
0010
1000
0001
1000
0001
,  // measure 62
0100
0000
0001
1000
0100
0000
1000
0001
,  // measure 63
0100
0010
0000
1000
0000
0001
0010
0100
,  // measure 64
1000
0000
0001
0100
0001
0000
1000
0100
,  // measure 65
1000
0001
0000
1000
0000
0001
0100
0010
,  // measure 66
1000
0000
0010
0100
0010
0000
1000
0001
,  // measure 67
1000
0001
0000
0100
0000
0010
1000
0010
,  // measure 68
1000
0000
0100
0010
0001
0000
0010
0100
,  // measure 69
1000
0010
0000
0100
0000
0001
1001
0000
,  // measure 70
2000
0000
0000
0000
,  // measure 71
0000
0000
0000
0000
,  // measure 72
3000
0000
0000
0000
;

//---------------dance-single - DDRDAIKENKAI----------------
#NOTES:
     dance-single:
     DDRDAIKENKAI:
     Easy:
     3:
     0.269,0.317,0.116,0.143,0.000:
0000
0000
0000
0000
,
0000
0000
0000
0000
,
0000
0000
0000
0000
,
0000
0000
0000
0000
,
1001
0000
0000
0000
,
0110
0000
0000
0000
,
1000
0000
0001
0000
,
1000
1000
0001
0001
,
0200
0000
0000
0300
0000
0020
0000
0000
,
0030
0100
0001
1000
,
0000
0000
0200
0000
0000
0300
0000
0020
,
0000
0030
0100
1000
,
0001
0000
0000
0000
2000
0000
0000
3000
,
0000
0002
0000
0000
0003
0000
1000
0000
,
0001
0100
0000
0020
,
0000
0030
0000
0020
0000
0000
0030
0000
,
0010
0010
0020
0030
,
1000
0000
0001
0000
,
1000
0100
0010
0000
,
0001
0000
1000
0000
,
0001
0010
0100
0000
,
1000
0000
0001
0000
,
0100
0010
1000
0000
,
0001
0000
1000
0000
,
0010
0100
0001
0000
,
0010
0000
0001
0000
,
0100
0010
1000
0000
,
0100
0000
0010
0000
,
0100
1000
0001
0000
,
0100
0000
0010
0000
,
1000
0001
1000
0000
,
0010
0000
0100
0000
,
0001
1000
0001
0000
,
1000
0000
0100
0000
,
1000
0001
0100
0000
,
0001
0000
1000
0000
,
0010
1000
0001
0000
,
0100
0000
0100
0000
,
0001
0000
0001
0000
,
1000
0000
1000
0000
,
1001
0000
1001
1001
,
1000
0000
0001
0000
,
0100
0100
0010
0000
,
1000
0001
1000
0000
,
0001
0010
0100
0000
,
1000
0001
1000
0000
,
0010
0100
0001
0000
,
1000
1000
0001
0000
,
0100
0010
1000
1000
,
0002
0003
0200
0300
,
0020
0000
0030
0000
1000
0001
1000
0000
,
0020
0030
0200
0300
,
0002
0000
0003
0000
1000
0001
1000
0000
,
0001
1000
0100
1000
,
0001
0000
0100
0000
0010
0010
0010
0000
,
1000
0001
1000
0001
,
0100
0000
0010
0000
0100
0100
0100
0000
,
0001
0010
0100
1000
,
0001
0000
1000
0000
0001
0001
0001
0000
,
1000
1000
0001
0001
,
0100
0000
0100
0000
0010
0010
0010
0010
,
0010
0000
0010
0000
,
1000
1000
0001
0000
,
1001
0000
0001
0000
,
0100
0010
0100
0000
,
0110
0000
0001
0000
,
1000
0001
1000
0000
,
1001
0000
0110
0000
,
1001
1001
1001
1001
,
2000
0000
0000
0000
,
0000
0000
0000
0000
,
3000
0000
0000
0000
;
