#TITLE:Universal Mind Control;
#SUBTITLE:;
#ARTIST:Common;
#TITLETRANSLIT:;
#SUBTITLETRANSLIT:;
#ARTISTTRANSLIT:;
#GENRE:;
#CREDIT:;
#MENUCOLOR:;
#BANNER:UMC.png;
#BACKGROUND:UMC-bg.png;
#LYRICSPATH:;
#CDTITLE:CDTitle.png;
#MUSIC:Universal Mind Control.ogg;
#OFFSET:0.000;
#SAMPLESTART:49.980;
#SAMPLELENGTH:16.000;
#SELECTABLE:YES;
#LISTSORT:;
#BPMS:0.000=120.000;
#STOPS:;
#TICKCOUNT:0.000=2;
#BGCHANGES:;
#KEYSOUNDS:;
#ATTACKS:;

//---------------dance-single - DDRDAIKENKAI----------------
#NOTES:
     dance-single:
     DDRDAIKENKAI:
     Hard:
     7:
     0.552,0.538,0.305,0.185,0.185:
0000
0000
0000
0000
,
1000
0001
0100
0010
2000
0000
3001
0000
,
0001
1000
0010
0100
0002
0000
1003
0000
,
0001
0010
0001
1000
0200
0000
1300
0000
,
0001
0100
0001
1000
0020
0000
1030
0000
,
0100
0000
1000
0000
0010
0100
0000
0000
0102
0000
0010
0000
0013
0000
0000
0000
,
0001
0000
0100
0000
0010
1000
0000
0000
1200
0000
1000
0000
1300
0000
0000
0000
,
0001
0000
1000
0000
0100
0010
0000
0000
0012
0000
1000
0000
1003
0000
0000
0000
,
0001
0000
0100
0000
0010
1000
0000
0000
2002
0000
3003
0000
0000
0000
1010
0000
,
0000
0110
0000
0100
0001
0100
0010
0000
,
1000
0100
0001
0100
1000
0001
0100
0000
,
0010
1000
0100
1000
0010
0100
0001
0000
,
0010
0001
0010
0100
1000
0001
0100
0000
,
0001
0010
0001
0010
0100
1000
0100
1000
,
0001
0100
1000
0100
0001
0010
0001
0100
,
0010
1000
0100
0010
0001
1000
0010
0100
,
0001
0010
1000
0010
0001
0100
0010
1000
,
0100
0000
0100
0000
0010
0001
0000
0000
0011
0000
0000
0000
1010
0000
0000
0000
,
0001
0000
0001
0000
0100
0010
0000
0000
0110
0000
0000
0000
1010
0000
0000
0000
,
1000
0000
1000
0000
0010
0100
0000
0000
0110
0000
0000
0000
0101
0000
0000
0000
,
0001
0000
1000
0000
0100
0010
0100
0010
0002
0000
0000
0000
1003
0000
0000
0000
,
0001
1000
0100
0010
0001
0100
0010
1000
,
0001
0010
0100
1000
0010
0100
0001
1000
,
0001
0100
1000
0100
0001
0010
0100
0010
,
0001
0100
0010
1000
0100
0010
0011
0202
,
0303
0001
0100
0010
1000
0100
0000
1000
,
0010
0100
0001
1000
0000
0001
0001
1000
,
0100
1000
0000
0100
0000
1000
0000
0000
0010
0000
0100
0000
0001
0000
0010
0000
,
0100
1000
0100
0010
0001
0000
0011
0000
,
0001
0100
0010
1000
0100
1000
0000
0010
,
0100
0000
0001
0000
1000
0000
0001
0000
0100
0000
0000
0000
0010
0000
1000
0001
,
1000
0000
0100
0000
1000
0000
0100
0000
0010
0000
0001
0000
0000
0000
1000
0100
,
1000
0000
0000
0100
0000
0010
0001
0000
1000
0000
0001
0000
0100
0000
0010
0000
,
1000
0000
0010
1000
0010
0000
1000
0000
1010
0000
0000
0000
0011
0000
0000
0000
,
0001
0000
0100
0001
0100
0000
0001
0000
0101
0000
0000
0000
0011
0000
0000
0000
,
0010
0000
0100
0010
0100
0000
1000
0100
0000
1000
0100
0000
0010
0100
0010
0100
,
0010
0000
0001
0010
0001
0000
0010
0100
0000
0010
0100
0000
0210
0000
0000
0000
,
1300
0000
0010
0000
0100
0001
0000
0000
0101
0000
0000
0000
1010
0000
0000
0000
,
0100
0000
0001
0000
0010
0100
0000
0000
0110
0000
0000
0000
1100
0000
0000
0000
,
1000
0000
0001
0000
1000
0100
0000
0000
1100
0000
0000
0000
0011
0000
0000
0000
,
1000
0000
0010
0000
0100
0001
0000
0000
0101
0000
0000
0000
1010
0000
0000
0000
,
0001
1000
0100
0010
0002
0000
1003
0000
,
0001
0100
0010
1000
0200
0000
1300
0000
,
0010
0100
0001
0010
0002
0000
0003
0000
,
0001
1000
0100
1000
0100
0010
0001
1000
0002
0000
0000
0000
0000
0000
0000
0000
,
0003
0000
0000
0000
;

//---------------dance-single - DDRDAIKENKAI----------------
#NOTES:
     dance-single:
     DDRDAIKENKAI:
     Challenge:
     9:
     0.733,0.685,0.294,0.272,0.788: // measure 1
0000
0000
0000
0000
,  // measure 2
1000
0001
0010
0001
1000
0100
1000
0001
0200
0000
0000
0000
0310
0000
0000
0000
,  // measure 3
1000
0100
1000
0010
0100
0001
0100
0010
2000
0000
0000
0000
3001
0000
0000
0000
,  // measure 4
1000
0100
0010
0001
0010
0100
1000
0001
2000
0000
0000
0000
3001
0000
0000
0000
,  // measure 5
0010
0001
0010
0001
0100
0010
0100
0001
0200
0000
0000
0000
0310
0000
0000
0000
,  // measure 6
1000
0100
1000
0100
1000
0010
0100
0010
2000
0000
0001
0000
0002
3003
0000
0000
,  // measure 7
1000
0100
0010
0100
0010
0001
0100
0001
0020
0000
0100
0000
0200
0330
0000
0000
,  // measure 8
1000
0001
0100
0001
0100
0010
1000
0010
0200
0000
0001
0000
0002
0303
0000
0000
,  // measure 9
1000
0001
0100
0001
0010
0100
1000
0100
0020
0000
0030
0000
0000
0000
0011
0000
,  // measure 10
0000
0000
1100
0000
0000
0000
0001
0000
0100
0000
0010
1000
0000
0001
0000
0000
,  // measure 11
1000
0000
0100
0000
0010
0000
0001
0100
0001
0000
0010
0100
0000
1000
0000
0000
,  // measure 12
0001
0000
0100
0000
1000
0000
0100
0000
0001
0000
0010
0001
0000
0100
0000
0000
,  // measure 13
0010
0000
1000
0000
0100
0000
0010
0000
0100
0000
1000
0001
0000
0100
0000
0000
,  // measure 14
0010
0000
1000
0000
0100
0000
1000
0000
0010
0000
0100
0001
0000
0100
0000
0000
,  // measure 15
0001
0000
0010
0000
0001
0000
1000
0000
0100
0000
1000
0001
0000
0100
0000
0000
,  // measure 16
0010
0000
0100
0000
0010
0000
1000
0000
0001
0000
1000
0100
0000
1000
0000
0000
,  // measure 17
0001
0000
0100
0000
1000
0100
1000
0000
0100
0000
0001
1000
0000
0100
0000
0000
,  // measure 18
1100
0000
1100
0000
0100
1000
0000
0000
1010
0000
0000
0000
0110
0000
0000
0000
,  // measure 19
0101
0000
0101
0000
1000
0100
0000
0000
0110
0000
0000
0000
0011
0000
0000
0000
,  // measure 20
1001
0000
1001
0000
1000
0010
0000
0000
0110
0000
0000
0000
1010
0000
0000
0000
,  // measure 21
0101
0000
0101
0000
0001
1000
0100
1000
0100
0000
0000
0000
1100
0000
0000
0010
,  // measure 22
0000
0001
0000
1000
0010
0000
0100
0001
0000
0010
0100
0000
1000
0000
0001
0100
,  // measure 23
0000
0010
1000
0000
0100
0000
1000
0001
0000
0010
0001
0000
1000
0000
0001
0100
,  // measure 24
0001
0000
0100
0010
0100
0000
0010
1000
0000
1000
0100
0000
0010
0000
0001
1000
,  // measure 25
0000
1000
0100
0000
0010
0000
0001
1000
0000
0001
0100
0000
0101
0000
1010
0000
,  // measure 26
0110
0010
1000
0100
0010
0001
0000
1000
,  // measure 27
0001
0010
0100
1000
0000
0001
0100
1000
,  // measure 28
0100
0001
0000
0010
0000
0100
0000
0000
1000
0000
0001
0000
0100
0000
0010
0000
,  // measure 29
1000
0100
0010
0001
0100
0000
0110
0000
,  // measure 30
1000
0100
1000
0100
1000
0010
0100
0001
0100
0000
0010
0000
1000
0000
0001
0000
,  // measure 31
1000
0100
0010
0001
0010
0100
1000
0001
0200
0000
0001
0000
0301
0000
0010
0001
,  // measure 32
0010
0001
0100
0010
0100
0001
1000
0100
2000
0000
0001
0000
3000
0000
0001
0010
,  // measure 33
0001
1000
0100
0010
0001
1000
0100
0010
0001
0000
1000
0000
0001
0000
0100
0000
,  // measure 34
0110
0000
0010
0100
0010
0000
0100
0010
0000
0100
0010
0000
0110
0000
0000
0000
,  // measure 35
1010
0000
0010
1000
0010
0000
1000
0010
0000
1000
0010
0000
1010
0000
0000
0000
,  // measure 36
1001
0000
0001
1000
0001
0000
1000
0100
0000
1000
0100
0000
0010
0001
0010
0100
,  // measure 37
1000
0000
0001
0100
0010
0000
1000
0010
0000
0100
0001
0000
0202
0000
0303
0000
,  // measure 38
0001
0010
0001
1000
0100
1000
0001
1000
0020
0000
0130
0001
0100
0000
0000
0000
,  // measure 39
0001
0100
0001
1000
0010
1000
0001
0010
0002
0000
1003
0001
1000
0000
0000
0000
,  // measure 40
0100
0010
0100
1000
0100
0010
0001
1000
0200
0000
1300
0100
1000
0000
0000
0000
,  // measure 41
0100
0010
0001
0010
0001
0100
0001
1000
0020
0000
1030
0010
1000
0000
0000
0000
,  // measure 42
0010
0100
0001
0100
0010
1000
0100
0010
0002
0000
1003
0010
2000
0000
3000
0000
,  // measure 43
0001
1000
0010
0100
0001
0100
0010
1000
0200
0000
1300
0001
2000
0000
3000
0000
,  // measure 44
0001
0010
0100
1000
0100
0010
0001
1000
0002
0000
0000
0000
0003
0000
0000
0000
,  // measure 45
1000
0100
0010
0001
0010
0100
1000
0001
0200
0000
0000
0000
0000
0000
0000
0000
,  // measure 46
0300
0000
0000
0000
;

//---------------dance-single - DDRDAIKENKAI----------------
#NOTES:
     dance-single:
     DDRDAIKENKAI:
     Medium:
     5:
     0.429,0.367,0.185,0.196,0.000:
0000
0000
0000
0000
,
1000
0001
1000
0001
0020
0000
0030
0000
,
0001
0010
0001
0010
0200
0000
0300
0000
,
1000
0010
1000
0010
2000
0000
3000
0000
,
0001
0100
0001
0100
0002
0000
0003
0000
,
0010
0100
0010
0100
2000
0000
3000
0000
,
0001
0100
0001
0100
0020
0000
0030
0000
,
1000
0001
1000
0001
2000
0000
3000
0000
,
0010
0100
0010
0100
0020
0000
0030
0000
,
1000
0000
0100
0000
1000
0001
1000
0000
,
0001
0100
0001
0000
0100
0010
0100
0000
,
0010
1000
0010
0000
1000
0001
1000
0000
,
0001
0010
0001
0000
1000
0100
1000
0000
,
0001
0000
0100
0000
0010
1000
0010
0000
,
1000
0100
1000
0000
0100
0010
0100
0000
,
1000
0001
1000
0000
0010
0100
0010
0000
,
1000
0100
1000
0000
0010
0100
0010
0000
,
1000
0001
1000
0000
1001
0000
1001
0000
,
0010
0100
0010
0000
0110
0000
0110
0000
,
0100
0001
0100
0000
0010
1000
0010
0000
,
1010
1100
2002
3003
,
0001
0010
0100
0000
0010
0001
0010
0000
,
0001
0100
0010
0000
0100
0010
0100
0000
,
0010
1000
0100
0000
1000
0100
1000
0000
,
0001
1000
0001
0000
0100
0010
0100
0000
,
0010
0000
1001
0000
1000
0001
1000
0000
,
0001
0010
0001
0000
1000
0100
1000
0000
,
0010
0100
0001
0000
0100
0010
1000
0000
,
0001
1000
0001
1000
0001
0000
1001
0000
,
1000
0100
1000
0000
0100
0010
0000
0010
,
0001
0000
0001
1000
0000
1000
0010
0000
,
0010
0100
0010
0000
0100
0001
0000
0001
,
1000
0000
1000
0100
0000
0100
1000
0000
,
0001
0010
0001
0000
0011
0000
1100
0000
,
0010
1000
0010
0000
1010
0000
0101
0000
,
1000
0001
1000
0000
1001
0000
0110
0000
,
0100
0010
0100
0000
0110
0000
1001
0000
,
1000
0100
1000
0000
0200
0010
0310
0000
,
0001
0010
0001
0000
0200
0001
0301
0000
,
1000
0001
1000
0000
0020
1000
1030
0000
,
0010
0100
0010
0000
0200
0001
0301
0000
,
1000
0100
1000
0000
0020
1000
1030
0000
,
0010
0100
0010
0000
0200
0001
0301
0000
,
0010
0100
0010
0000
0200
1000
1300
0000
,
0001
1000
0100
0010
0002
0000
0000
0000
,
0003
0000
0000
0000
;

//---------------dance-single - DDRDAIKENKAI----------------
#NOTES:
     dance-single:
     DDRDAIKENKAI:
     Easy:
     3:
     0.312,0.343,0.185,0.326,0.000:
0000
0000
0000
0000
,
1000
1000
0002
0003
,
0100
0100
0020
0030
,
1000
1000
0200
0300
,
0010
0010
0002
0003
,
1000
0001
1000
0001
,
0100
0010
0100
0010
,
1000
0100
1000
0100
,
0010
0001
0010
0000
,
0001
0001
1000
1000
,
0010
0010
1000
1000
,
0001
0100
0001
0100
,
0001
1000
0001
1000
,
0010
0010
1000
1000
,
0100
0010
0100
0010
,
0001
0001
1000
1000
,
0001
0100
0001
0100
,
0010
1000
0100
1000
,
0010
0100
0001
0100
,
0010
1000
0100
0010
,
0001
1000
2002
3003
,
0001
0100
0001
1000
,
0001
0010
0100
0010
,
0001
0010
0100
1000
,
1000
0100
0010
0001
,
2002
3003
0001
1000
,
2200
3300
1000
0010
,
0220
0330
0010
0100
,
0202
0303
0001
1000
,
2002
3003
0001
0010
,
0022
0033
0010
0100
,
2200
3300
1000
0010
,
2020
3030
0010
0100
,
0010
1000
1001
1001
,
1000
0001
1001
1001
,
0001
0010
0110
0110
,
0010
0100
0110
0110
,
0100
1000
0002
0003
,
0001
0100
0020
0030
,
0010
1000
0200
0300
,
0100
1000
0020
0030
,
0100
0001
2000
3000
,
0001
1000
0200
0300
,
0010
0100
2000
3000
,
0100
0010
0002
0000
,
0003
0000
0000
0000
;

//---------------dance-single - DDRDAIKENKAI----------------
#NOTES:
     dance-single:
     DDRDAIKENKAI:
     Beginner:
     1:
     0.205,0.196,0.196,0.011,0.000:
0000
0000
0000
0000
,
1000
1000
1000
0000
,
0100
0100
0100
0000
,
0010
0010
0010
0000
,
0001
0001
0001
0000
,
0100
0100
0100
0000
,
0010
0010
0010
0000
,
1000
1000
1000
0000
,
0001
0001
0001
0000
,
1000
0000
1000
0000
,
0001
0001
0001
0000
,
0100
0100
0100
0000
,
0010
0010
0010
0000
,
1000
0000
1000
0000
,
0001
0001
0001
0000
,
1000
1000
1000
0000
,
0100
0100
0100
0000
,
1000
0000
1001
0000
,
0001
0000
1001
0000
,
0100
0000
0110
0000
,
0010
0000
0110
0000
,
0010
0010
0010
0000
,
1000
1000
1000
0000
,
0001
0000
1000
0000
,
0001
0001
0001
0000
,
1001
0000
1000
0000
,
0100
0000
0010
0000
,
0110
0000
0010
0000
,
0001
0000
0100
0000
,
0110
0000
0010
0000
,
1000
0000
0001
0000
,
1001
0000
0001
0000
,
1000
0000
0100
0000
,
0110
0000
0110
0110
,
0000
0000
1001
1001
,
0000
0000
0110
0110
,
0000
0000
1001
1001
,
1001
0000
1000
0000
,
0001
0001
0001
0000
,
0100
0100
0100
0000
,
0010
0010
0010
0000
,
1000
1000
1000
0000
,
0100
0100
0100
0000
,
0010
0010
0010
0000
,
0001
0001
0002
0000
,
0003
0000
0000
0000
;
