#TITLE:鳥の歌;
#SUBTITLE:(The Speedfreak's Noise Rave Mix);
#ARTIST:DJ Sharpnel;
#TITLETRANSLIT:Tori no Uta;
#SUBTITLETRANSLIT:;
#ARTISTTRANSLIT:;
#GENRE:SPEEDRAVE;
#CREDIT:;
#MENUCOLOR:;
#NEWMETERSYSTEM:NO;
#BANNER:Tori no Uta (The Speedfreaks Noise Rave Mix).png;
#BACKGROUND:Tori no Uta (The Speedfreaks Noise Rave Mix)-bg.png;
#LYRICSPATH:;
#CDTITLE:;
#MUSIC:Torinouta (The Speedfreak's Noise Rave Mix).ogg;
#OFFSET:0.000;
#SAMPLESTART:77.335;
#SAMPLELENGTH:10.677;
#SELECTABLE:YES;
#LISTSORT:;
#BPMS:0.000=179.996,328.000=89.998,340.000=179.996;
#STOPS:;
#BGCHANGES:;
#ATTACKS:;

//---------------dance-single - DDRDAIKENKAI----------------
#NOTES:
     dance-single:
     DDRDAIKENKAI:
     Challenge:
     11:
     0.981,1.000,0.973,0.701,0.375:
0000
0000
0000
0000
,
0000
0000
0000
0000
,
0000
0000
0000
0000
,
0000
0000
0000
0000
,
1000
0000
0000
0001
0100
0000
0000
0000
0010
0000
1000
0000
0100
0000
1000
0000
,
0001
0000
0000
0010
0100
0000
0000
0000
0010
0000
0001
0000
0100
0000
0010
0000
,
1000
1000
1000
1000
,
1000
0000
1000
0000
1000
0000
1001
0001
,
0102
0000
0000
0000
1003
0100
1000
0000
0010
0100
0010
0000
1000
0100
1000
0100
,
0000
0100
0010
0000
0001
0010
0001
0000
0100
0001
0100
0000
0010
1000
0010
1000
,
0000
1000
0001
0000
1000
0100
1000
0000
0001
0100
0001
0000
0100
0010
0100
0010
,
0000
0010
0000
1000
0100
1000
0100
0000
1000
0001
0010
0001
0000
0001
0010
0000
,
0021
0000
0000
0000
0031
1000
0001
0000
1000
0100
1000
0000
0010
0100
0010
0100
,
0000
0100
0001
0000
1000
0100
1000
0000
0001
0100
0001
0000
1000
0010
1000
0010
,
0000
0010
0100
0000
0001
0010
0001
0000
0010
0100
0010
0000
0100
1000
0100
1000
,
0000
0001
0000
0001
1000
0100
1000
0000
0001
0100
0010
1000
0000
1000
0001
0000
,
1000
0010
0110
0110
0010
1000
1100
1100
,
0100
0000
0010
0000
0011
0000
0011
0000
1000
0000
0001
1000
0001
0000
1000
0000
,
0010
0100
0110
0110
0010
1000
1001
1001
,
0001
0400
0301
0001
4000
3010
0004
0013
,
0100
0010
0110
0110
0010
1000
1010
1010
,
0010
0100
0101
0401
0301
4000
3200
0000
,
1300
0000
0100
0000
1000
0000
0100
0000
1000
0000
0100
0000
1000
0000
0000
0100
,
1000
0100
1000
0040
0130
0001
1001
0000
,
M001
1001
1000
0010
1010
0110
1010
0110
,
M000
1010
1000
0010
0110
0101
0101
0101
,
0M00
1001
1000
0010
1010
1100
1010
1100
,
00M0
1001
0001
0100
0101
1001
0101
1001
,
0M00
0000
1001
0000
0001
0000
0010
0000
0110
0000
0110
0000
0100
1000
0100
1000
,
0000
1100
0100
0010
0110
0100
4100
3000
,
0M00
0000
0101
0000
0001
0010
0001
0000
0010
0000
0001
0000
1001
0000
0101
0000
,
000M
0000
0110
0000
0010
0000
1000
0000
1001
0000
1000
0001
1000
0000
2002
0000
,
3003
1001
0001
0100
0101
0110
0101
0110
,
000M
0101
0001
0100
0110
1010
1010
1010
,
000M
1001
0001
0100
0101
0011
0101
0011
,
0M00
1001
1000
0010
1010
1001
1010
1001
,
00M0
0000
0101
0000
0001
0000
1000
0000
1001
0000
1100
0000
1000
0001
1000
0100
,
0000
1100
1000
0001
0101
0100
1040
0030
,
2000
3000
0000
0000
0000
0000
0000
0000
0000
0000
0000
0000
0000
0000
0000
0000
0200
0300
0000
0000
0000
0000
0000
0000
0000
0000
0000
0000
0000
0000
0000
0000
0002
0003
0000
0000
0000
0000
0000
0000
0000
0000
0000
0000
0000
0000
0000
0000
0100
0000
0000
0000
0000
0000
0000
0000
1000
0000
0000
0000
0000
0000
0000
0000
,
0010
1000
0010
1000
0010
0000
1000
0000
0001
0000
0100
0000
0010
0000
0100
0000
,
0120
0000
0130
0002
0000
0013
0100
1000
,
0020
0000
1030
0200
0000
0310
0001
1000
,
0020
0000
0230
0000
0301
1000
0100
1000
,
0020
0000
2030
0000
3100
0010
0001
0100
,
0002
0000
0103
0020
0000
1030
0100
0010
,
0002
0000
1003
0020
0000
0130
0010
1000
,
0200
0000
1300
0010
0200
0000
0320
0000
,
4030
3040
0430
0304
0043
0430
4300
3001
,
0012
0000
1003
0010
0200
0000
0302
0000
,
1003
0001
0100
0010
1000
0100
1000
0010
,
0200
0000
0301
0010
0200
0000
0310
0000
,
0001
0100
0010
2000
0100
3100
1000
0010
,
0200
0000
0301
0100
0020
0000
1030
0000
,
0010
1000
0100
1000
0010
0001
0010
1000
,
0002
0000
2003
0000
3001
0010
0001
1000
,
0200
0000
1300
0000
0001
0100
0020
0000
,
2030
0000
0000
0000
,
3001
0001
0001
0001
0001
0100
0110
0010
,
1010
1010
0000
1000
1100
1100
0000
0100
,
0210
0000
0000
0000
0310
0001
0010
0001
0010
0000
0001
0000
0000
0000
0100
0000
,
0110
0110
0000
0010
1010
1010
0000
1000
,
1002
0000
0000
0000
1003
0100
1000
0100
1000
0000
0001
0000
0000
0000
0100
0000
,
0110
0110
0000
0010
1010
1010
0000
1000
,
2001
0000
0000
0000
3001
0100
0001
0100
0001
0000
1000
0000
0000
0000
1000
0000
,
0010
0100
0010
0100
0010
0100
0000
0010
,
1000
0100
1000
0100
1000
0100
1000
0100
1000
0100
1000
0100
1000
0000
1000
0000
,
1001
1001
0001
0100
0110
0110
0020
1030
,
1200
0000
0000
0000
1300
0001
1000
0001
1000
0000
0001
0000
0100
0000
0010
0000
,
1010
1010
1000
0001
0101
0101
0002
1003
,
1200
0000
0000
0000
1300
0100
1000
0100
1000
0000
1000
0000
0001
0000
0100
0000
,
0110
0110
0010
1000
1010
1010
0020
0130
,
0201
0000
0000
0000
0301
0010
0001
0010
0001
0000
0001
0000
1000
0000
0100
0000
,
0110
0110
0000
0100
1100
1100
0000
1000
,
1001
0000
1020
0000
0130
0001
0100
0010
,
0120
0000
1030
0100
0020
0000
0031
0000
,
0002
0000
1003
0100
1000
0010
0100
0001
,
0020
0000
0130
0010
0002
0000
1003
0000
,
0001
0000
0100
0020
0000
1030
0100
1000
,
0002
0000
1003
0001
0200
0000
0310
0000
,
2000
0000
3010
1000
0100
0001
0100
1000
,
0002
0000
0000
1003
0000
0000
0001
0000
0200
0000
0000
0000
0310
0000
1000
0000
,
0200
2300
3020
0032
,
0023
0000
0130
0001
0200
0000
0310
0000
2000
0000
3001
0010
1000
0010
0100
0010
,
0002
0000
1003
0100
2000
0000
3001
0000
2000
0000
3001
0200
0000
0310
1000
0100
,
0020
0000
0031
1000
0020
0000
1030
0000
0001
0100
1000
0100
0010
0100
0001
0100
,
0010
0000
1000
0000
0100
0010
0000
0001
0100
0000
0010
0100
0000
0010
1000
0000
,
0100
0000
1000
0000
0001
0100
0000
0010
0100
0010
0100
0000
0001
0000
0000
0000
;

//---------------dance-single - DDRDAIKENKAI----------------
#NOTES:
     dance-single:
     DDRDAIKENKAI:
     Hard:
     9:
     0.702,0.894,0.363,0.404,0.049:
0000
0000
0000
0000
,
0000
0000
0000
0000
,
0000
0000
0000
0000
,
0000
0000
0000
0000
,
2000
0001
0001
0100
,
0100
0010
0010
0100
,
3100
1000
0001
0000
0100
0001
1000
0000
,
0010
1000
0100
0010
0001
0000
1001
0000
,
0102
0000
1003
0001
0100
0010
1000
0000
,
1020
0000
0130
0001
0010
0100
1000
0000
,
1002
0000
1003
0001
0100
0010
1000
0000
,
0010
1000
1100
0101
,
0110
0000
1010
0000
0010
1000
0010
0100
,
0110
0000
0101
0000
0001
0100
0010
0100
,
0110
0000
1010
0000
0010
1000
0010
0100
,
0001
0010
0001
0010
0100
1000
0100
1000
,
1100
0000
1001
0100
0010
0000
1001
0100
,
0010
0000
1001
0100
1000
1000
1000
0001
,
0100
0000
1001
0010
0100
0000
1001
0010
,
0100
0000
1001
0010
1000
1000
0001
0001
,
0100
0000
1001
0100
0010
0000
1001
0100
,
0010
0000
1001
0100
1000
0001
0100
0100
,
0001
0001
0001
0001
,
0001
0001
0001
1001
,
0101
0001
0010
0100
1000
0100
1000
0100
,
0000
1000
0100
0010
0001
0010
0001
0010
,
0000
0001
0100
0010
1000
0100
1000
0100
,
0000
1000
0010
0100
0001
0010
0001
0010
,
0000
0001
1000
0100
0001
0100
1000
1000
,
0000
1000
0001
0010
1000
0010
0002
0003
,
0000
0001
0010
0100
0010
0100
1000
0001
,
0000
1000
0100
0010
0100
0010
0001
1000
,
0000
0001
0010
0100
1000
0010
0100
0001
,
0000
1000
0100
0010
0001
0100
0010
1000
,
0000
0001
0100
0010
1000
0001
1000
0001
,
0000
1000
0010
0100
0001
1000
0001
1000
,
0000
0010
1000
0100
0001
0100
1000
0001
,
0000
0100
0001
0010
1000
0010
0001
0000
,
1001
0000
0101
0000
1010
0000
1000
0100
,
1000
0001
1000
0001
1000
0010
0100
0001
,
1002
0000
0000
0000
1003
0100
1000
0010
,
0200
0000
0000
0000
0301
0010
0100
1000
,
0002
0000
1000
0000
1000
0000
1003
0001
,
0200
0000
0010
0000
0310
1000
0010
0100
,
0002
0000
0000
0000
1003
0100
1000
0010
,
0200
0000
0000
0000
0301
0010
0100
0010
,
0002
1000
2003
0001
,
3001
0100
0010
1000
0100
1000
0010
0100
,
0002
0000
0013
0100
2000
0000
0001
0000
,
3002
0000
1003
0001
0100
0010
0100
0010
,
2000
0000
3001
0010
0002
0000
1000
0000
,
2003
0000
3010
0100
0001
0010
0001
0100
,
0020
0000
1030
0100
0020
0000
0001
0000
,
0032
0000
1003
0100
1000
0001
0100
0010
,
2000
0001
0010
0100
,
3002
0100
0013
0011
,
0202
0000
0000
0303
,
0010
1000
0010
1000
0010
1000
1001
0000
,
0001
1000
0000
1000
0100
0010
0000
0010
,
0011
0000
1100
0000
1000
0001
0000
0001
,
0100
0010
0000
0010
1000
0100
0000
0100
,
1100
0000
1001
0000
0001
0100
0000
0100
,
0010
1000
0000
1000
0010
0100
0000
0001
,
0101
0000
0011
0000
0001
0010
0000
0010
,
0100
1000
0100
1000
0100
1000
0000
1000
,
0001
0100
0001
0100
0001
0100
0001
0001
,
1001
0100
1000
0001
0100
0010
1000
0001
,
0012
0000
1003
0100
1000
1000
0000
1000
,
0001
0010
0100
0010
0001
1000
0010
0100
,
0201
0000
0301
0010
0100
0100
0000
0100
,
1000
0010
0100
0001
0010
0001
0100
0010
,
0120
0000
1030
0001
1000
1000
0000
1000
,
0001
0100
0000
0010
1000
0100
0000
0010
,
0011
0000
1100
0000
0100
1000
0001
0100
,
0120
0000
1030
0100
0020
0000
0030
0000
,
0001
0000
1000
0100
0010
0001
0100
0010
,
2000
0000
0001
3002
0000
0000
0003
0000
,
1000
0000
0010
0000
0100
0001
0010
0100
,
2000
0000
3001
1000
0020
0000
0030
0000
,
1000
0000
0001
1000
0100
1000
0100
0010
,
0002
0000
0000
1003
0000
0000
0200
0000
0000
0000
0000
0000
0300
0000
1000
0000
,
0020
0032
0023
2030
,
3002
0000
0013
0100
0020
0000
0030
0000
0001
0000
1000
0100
0010
0100
1000
0001
,
2000
0000
0001
3002
0000
0000
0003
0000
1000
0000
0001
0000
0100
0010
0100
0010
,
1000
0000
0001
0010
0002
0000
0000
0000
2003
0000
3010
1000
0100
0001
0100
1000
,
0002
0000
1003
0000
1000
0001
0100
0010
,
0200
0000
0010
0000
0310
1000
0001
0000
;

//---------------dance-single - DDRDAIKENKAI----------------
#NOTES:
     dance-single:
     DDRDAIKENKAI:
     Medium:
     7:
     0.483,0.608,0.124,0.181,0.000:
0000
0000
0000
0000
,
0000
0000
0000
0000
,
0000
0000
0000
0000
,
0000
0000
0000
0000
,
0000
0000
0000
0000
,
0000
0000
0000
0000
,
0000
0000
0000
0000
,
0000
0000
0000
0100
,
1001
0000
0001
0000
1000
0001
0100
0000
,
0110
0000
0010
0000
1000
0100
0010
0000
,
0110
0000
0100
0000
0010
0001
0100
0000
,
0110
0010
1000
0001
,
1001
0000
0101
0000
0010
1000
0001
0000
,
1001
0000
1100
0000
0100
1000
0001
0000
,
1001
0000
0101
0000
0100
0001
1000
0000
,
1000
0001
1000
0000
0010
0100
0100
0000
,
0010
1000
0100
0000
0010
0001
0100
0000
,
0010
1000
0100
0000
1000
1000
1000
0000
,
0010
1000
0100
0000
0010
0001
0100
0000
,
0010
1000
0100
0000
1000
1000
1000
0000
,
0010
0100
0001
0000
0010
0100
1000
0000
,
0010
0100
0001
0000
1000
1000
1000
0000
,
0001
0001
0001
0001
,
0001
0001
0001
1001
,
1000
0100
0100
0000
1000
0010
1000
0000
,
0010
0100
0010
0000
0100
0100
0100
0000
,
0001
0010
0001
0000
0100
0010
0100
0000
,
0010
1000
0010
0000
1000
1000
1000
0000
,
0001
0100
0001
0000
1000
1000
1000
0000
,
0010
0100
0010
0000
0100
0100
0100
0000
,
0001
0010
0001
0000
0100
0100
0100
0000
,
0010
1000
0010
1000
0010
1000
0010
0000
,
1000
1000
1000
0000
0001
0001
0001
0000
,
0100
0100
0100
0000
0010
0010
0010
0000
,
1000
0001
1000
0000
0010
0100
0010
0000
,
0100
0001
0100
0000
0001
1000
0001
0000
,
1000
0100
0001
0010
,
0001
0100
1000
0010
,
1000
0000
0100
0000
0010
0000
0001
0001
,
2000
0000
0000
0000
0000
3001
0100
0001
,
0200
0000
0000
0000
0300
0010
1000
0010
,
2000
0000
0000
0000
3000
0001
1000
0001
,
2000
0000
3002
0000
,
0200
0000
0303
0000
0000
0010
1000
0010
,
2000
0000
0000
0000
3000
0100
1000
0100
,
2000
0000
0000
0000
3000
0010
0100
0010
,
0200
0000
0302
0000
,
2000
0000
3003
0000
,
1001
0001
1000
0100
,
0010
0100
1000
0010
,
0100
0001
0010
0100
,
1000
0001
0100
0010
,
1000
0100
1000
0010
,
0100
0001
0010
0100
,
2000
0000
0000
0000
,
3020
0000
0000
1000
,
2000
0000
0000
3030
,
0001
1000
0001
1000
0001
1000
0001
0000
,
1000
1000
0000
1000
0001
0001
0000
0001
,
0100
0100
0010
0010
,
1000
1000
0000
1000
0010
0010
0000
0010
,
0100
0001
0010
0100
,
1000
1000
0000
1000
0001
0001
0000
0001
,
1000
0100
0010
0001
,
1000
0001
1000
0001
1000
0000
0001
0000
,
0100
0010
0100
0010
0100
0010
0100
0000
,
0100
0001
0000
0001
0100
0010
0000
0010
,
1000
0000
0100
0000
0010
0001
0000
0001
,
1000
0001
0000
0001
0010
0100
0000
0100
,
1000
0000
0010
0000
0100
0001
0000
0001
,
0100
0001
0000
0001
0010
0001
0000
0001
,
0010
0000
0100
0000
1000
0100
0000
0100
,
1000
0010
0000
0010
1000
0001
0000
0001
,
0100
0000
0110
0000
0010
0100
0010
0000
,
1001
0000
1000
0000
0000
0001
0000
0001
,
0100
0000
0010
0000
0000
0100
0000
0100
,
0001
0000
1000
0000
0000
0100
0000
0100
,
0010
0001
1000
0010
,
0100
0000
0010
0000
0000
0100
0000
0100
,
0001
0000
1000
0000
0000
0100
0000
0100
,
1000
0000
0001
0000
0000
0010
0000
0010
,
0100
0010
0001
0100
,
0120
0100
0200
0330
0000
0010
1000
0100
,
2000
0100
0200
3300
0000
0000
0001
0100
,
0020
1000
2000
3030
0000
0100
1000
0001
,
0200
0000
0000
0000
,
0020
0000
0000
0330
;

//---------------dance-single - DDRDAIKENKAI----------------
#NOTES:
     dance-single:
     DDRDAIKENKAI:
     Beginner:
     1:
     0.198,0.322,0.074,0.107,0.000:
0000
0000
0000
0000
,
0000
0000
0000
0000
,
0000
0000
0000
0000
,
0000
0000
0000
0000
,
0000
0000
0000
0000
,
0000
0000
0000
0000
,
0000
0000
0000
0000
,
0000
0000
0000
0000
,
1001
0000
1000
0000
,
1001
0000
0001
0000
,
1001
0000
1000
0000
,
1001
0000
0001
0000
,
1001
0000
1000
0000
,
1001
0000
0001
0000
,
1001
0000
1000
0000
,
1001
0000
0001
0000
,
0100
0100
0100
0000
,
0010
0010
0010
0000
,
1000
1000
1000
0000
,
0001
0001
0001
0000
,
1000
0000
0001
0000
,
0100
0000
0010
0000
,
1000
1000
1000
1000
,
1000
1000
1000
1000
,
1000
0000
0010
0000
,
1000
0000
0100
0000
,
0010
0000
0001
0000
,
0100
0000
0010
0000
,
1000
0000
0100
0000
,
0001
0000
0100
0000
,
1000
0000
0010
0000
,
0001
0000
0010
0000
,
1000
1000
1000
0000
,
0001
0001
0001
0000
,
0100
0100
0100
0000
,
0010
0010
0010
0000
,
1000
1000
1000
0000
,
0001
0001
0001
0000
,
1000
1000
1000
1000
,
2000
0000
0000
0000
,
3000
0000
0000
0000
,
0001
0000
0000
0000
,
1000
0000
0000
0000
,
0010
0000
0000
0000
,
0100
0000
0000
0000
,
0001
0000
0000
0000
,
0100
0000
0000
0000
,
0020
0000
0000
0000
,
0030
0000
0000
0000
,
1000
0000
0000
0000
,
0001
0000
0000
0000
,
1000
0000
0000
0000
,
0100
0000
0000
0000
,
0010
0000
0000
0000
,
0002
0000
0000
0000
,
0003
0000
0000
1000
,
2000
0000
0000
0000
,
3000
0000
0000
0000
,
0010
0000
0010
0000
,
1000
1000
1000
0000
,
0001
0000
0001
0000
,
0100
0100
0100
0000
,
0010
0000
1000
0000
,
0100
0100
0100
0000
,
0010
0010
0010
0000
,
0001
0001
0001
0001
,
0001
0001
0000
1000
,
0000
0001
0001
0001
,
0000
0100
0000
0010
,
0000
0100
0100
0100
,
0000
0010
0000
1000
,
0000
0010
0010
0010
,
0000
1000
0000
0001
,
0001
0000
1000
0000
,
0200
0000
0000
0300
,
0000
0000
0000
0000
,
0020
0000
0000
0030
,
0000
0000
0000
0000
,
0002
0000
0000
0003
,
0000
0000
0000
0000
,
2000
0000
3000
0000
,
0010
0000
0100
0000
,
0002
0000
0000
0003
0000
0000
0000
0000
,
2000
0000
0000
3000
0000
0000
0000
0000
,
0200
0000
0000
0300
0000
0000
0000
0000
,
0220
0000
0000
0000
,
0000
0000
0000
0330
;

//---------------dance-single - DDRDAIKENKAI----------------
#NOTES:
     dance-single:
     DDRDAIKENKAI:
     Easy:
     5:
     0.344,0.429,0.190,0.148,0.000: // measure 1
0000
0000
0000
0000
,  // measure 2
0000
0000
0000
0000
,  // measure 3
0000
0000
0000
0000
,  // measure 4
0000
0000
0000
0000
,  // measure 5
0000
0000
0000
0000
,  // measure 6
0000
0000
0000
0000
,  // measure 7
0000
0000
0000
0000
,  // measure 8
0000
0000
0000
0100
,  // measure 9
1001
1000
0001
0100
,  // measure 10
0110
0010
1000
0001
,  // measure 11
1001
0001
0100
0010
,  // measure 12
0110
0010
1000
0100
,  // measure 13
1100
1000
0100
0010
,  // measure 14
0011
0001
0100
0010
,  // measure 15
1010
0010
0100
0001
,  // measure 16
0101
0001
1000
1000
,  // measure 17
0001
0101
1000
1100
,  // measure 18
0001
0101
0010
0010
,  // measure 19
1000
1100
0001
0101
,  // measure 20
1000
1100
0001
0001
,  // measure 21
0001
0011
1000
1010
,  // measure 22
0001
0011
1000
0010
,  // measure 23
0100
0100
0100
0100
,  // measure 24
0100
0100
0100
1001
,  // measure 25
0100
1000
0010
0010
,  // measure 26
0000
1000
0001
0001
,  // measure 27
0000
1000
0100
0100
,  // measure 28
0000
0010
0001
0010
,  // measure 29
0000
0001
1000
1000
,  // measure 30
0000
1000
0001
0001
,  // measure 31
0000
1000
0001
0100
,  // measure 32
0000
0010
0010
0010
,  // measure 33
0110
0100
0010
0100
,  // measure 34
0001
1000
0010
0100
,  // measure 35
0001
1000
0001
1000
,  // measure 36
1000
0001
1000
0001
,  // measure 37
1000
1000
1000
1000
,  // measure 38
0001
0001
0001
0001
,  // measure 39
0100
0100
0100
0100
,  // measure 40
0010
0010
0010
0010
,  // measure 41
0110
0000
0010
1000
,  // measure 42
0010
0000
1000
0100
,  // measure 43
1000
0000
0000
0001
,  // measure 44
0001
0000
1000
0001
,  // measure 45
0100
0000
0010
1000
,  // measure 46
0010
0000
0100
0001
,  // measure 47
0100
0000
0001
0000
,  // measure 48
2001
0000
3010
1000
,  // measure 49
0010
0010
2000
0000
,  // measure 50
3001
0001
1000
0100
,  // measure 51
0020
0000
0032
0000
,  // measure 52
0203
0000
0310
1000
,  // measure 53
0001
1000
2000
0000
,  // measure 54
3001
0100
0010
1000
,  // measure 55
0002
0000
0000
0000
,  // measure 56
0020
0000
0033
0001
,  // measure 57
2000
0000
0000
0000
,  // measure 58
3100
0100
0100
1001
,  // measure 59
0100
0000
0100
0000
,  // measure 60
1000
0001
0100
0010
,  // measure 61
1000
0000
1000
0000
,  // measure 62
0010
1000
0100
0010
,  // measure 63
0001
0000
0001
0000
,  // measure 64
0001
0010
0100
1000
,  // measure 65
0010
0010
0010
0000
,  // measure 66
1000
1000
1000
1000
,  // measure 67
0001
0001
1000
1000
,  // measure 68
0001
0100
0010
1000
,  // measure 69
0010
0010
0100
0100
,  // measure 70
0010
1000
0100
0010
,  // measure 71
0001
0001
1000
1000
,  // measure 72
0001
0100
0010
1000
,  // measure 73
0001
0001
1000
1000
,  // measure 74
0010
0110
0010
0100
,  // measure 75
0002
0000
0000
1003
,  // measure 76
0000
0000
0000
0000
,  // measure 77
0200
0000
0000
1300
,  // measure 78
0000
0000
0000
0000
,  // measure 79
0020
0000
0000
1030
,  // measure 80
0000
0000
0000
0000
,  // measure 81
2000
0000
0000
3100
,  // measure 82
0100
0010
0001
0100
,  // measure 83
0020
0000
0000
1030
0000
0000
0000
0000
,  // measure 84
0002
0000
0000
0103
0000
0000
0000
0000
,  // measure 85
0020
0000
0000
1030
0000
0010
1000
0100
,  // measure 86
2000
0000
0000
0000
,  // measure 87
0020
0000
0000
3030
;
