#TITLE:The Mother We Share;
#SUBTITLE:;
#ARTIST:Chvrches;
#TITLETRANSLIT:;
#SUBTITLETRANSLIT:;
#ARTISTTRANSLIT:;
#GENRE:SYNTHPOP;
#CREDIT:;
#MENUCOLOR:;
#NEWMETERSYSTEM:NO;
#BANNER:The Mother We Share.png;
#BACKGROUND:The Mother We Share-bg.png;
#LYRICSPATH:;
#CDTITLE:CDTitle.png;
#MUSIC:The Mother We Share.mp3;
#OFFSET:-5.540;
#SAMPLESTART:38.130;
#SAMPLELENGTH:11.010;
#SELECTABLE:YES;
#LISTSORT:;
#DISPLAYBPM:87.000;
#BPMS:0.000=87.000;
#STOPS:;
#BGCHANGES:;
#ATTACKS:;

//---------------dance-single - DDRDAIKENKAI----------------
#NOTES:
     dance-single:
     DDRDAIKENKAI:
     Hard:
     7:
     0.506,0.464,0.274,0.266,0.552: // measure 1
1000
0000
0001
0000
0102
0000
0000
0100
0000
0103
0000
0000
0110
0000
0000
0100
,  // measure 2
0001
0000
1000
0000
2010
0000
0000
0010
0000
0000
3010
0000
0110
0000
0000
0000
,  // measure 3
1001
0000
0100
0000
0210
0000
0000
0001
0000
0301
0000
0000
1001
0000
0000
0001
,  // measure 4
1000
0000
0100
0000
0000
0010
0010
0010
0001
0000
0000
0100
0010
0010
1000
0010
,  // measure 5
2000
0000
0100
0000
3020
0000
0000
1000
0000
1000
0000
0000
0130
0000
0001
0010
,  // measure 6
0002
0000
1000
0000
0023
0000
0000
1000
0000
1000
0000
0000
0031
0100
0010
0010
,  // measure 7
0200
0000
0010
0000
0302
0000
0000
1000
0000
1000
0000
0000
0103
0001
0010
0100
,  // measure 8
1000
0010
0000
1000
0010
0000
1000
0010
0000
0100
0000
0100
0000
0100
1000
0100
,  // measure 9
0002
0000
1000
0000
0203
0000
0000
1000
0000
1000
0000
0000
0301
0000
1000
0100
,  // measure 10
2000
0010
0010
0000
3200
0000
0000
0001
0000
0000
0001
0000
1300
0001
0100
1000
,  // measure 11
0200
0000
0001
0000
0320
0000
0000
1000
0000
1000
0000
0000
0130
0001
1000
0100
,  // measure 12
0010
0001
0000
0010
0001
0000
0010
0001
0000
0100
0000
0100
0000
0100
1000
0100
,  // measure 13
0000
0001
1000
0000
1010
0000
0010
1000
0000
0001
0100
0000
0010
0000
0100
0000
,  // measure 14
0001
0000
0010
0000
0110
0000
0000
0000
1000
0000
0010
0000
0110
0010
0100
0010
,  // measure 15
0000
1000
0010
0000
1000
0000
0001
1000
0000
0010
1000
0000
0100
0000
0010
0000
,  // measure 16
0001
0000
0100
0000
1100
0000
0000
0000
1000
0000
0010
0000
0011
0000
0001
0010
,  // measure 17
0001
0000
0100
0000
0001
0000
0010
0100
0000
1000
0010
0000
1000
0000
0100
0000
,  // measure 18
0010
0000
0001
0000
0101
0000
0000
0000
0001
0000
1000
0000
1010
0010
1000
0001
,  // measure 19
0000
1000
0100
0000
1000
0000
0010
0100
0000
0001
1000
0000
0100
0000
0010
0000
,  // measure 20
0001
0010
1010
0000
1000
0100
0202
0000
,  // measure 21
0303
0000
2000
0000
0000
3020
0000
0000
0000
0100
0000
0000
0130
0000
0000
0000
,  // measure 22
0002
0000
1000
0000
0000
0010
0010
0013
0002
0000
1003
0002
0000
1003
0002
0000
,  // measure 23
2003
0000
0000
0000
0000
0000
0000
0000
0000
0010
0000
0000
0010
0000
0000
0000
,  // measure 24
3000
0000
0001
0000
0000
0100
0100
0100
1000
0000
0000
0010
0000
0001
0100
0010
,  // measure 25
1000
0000
0001
0000
0022
0000
0000
0000
0000
0030
0000
0000
0003
0000
0010
0100
,  // measure 26
1000
0010
1000
0000
2020
0000
0000
0000
0000
0000
3000
0000
0000
0130
0001
0010
,  // measure 27
0100
0000
0010
0000
0220
0000
0000
0000
0000
0030
0000
0000
0300
0010
0001
0010
,  // measure 28
0100
0010
0000
0100
0010
0000
0100
0010
0000
0100
0000
0100
0000
0100
1000
0010
,  // measure 29
1000
0000
0001
0000
1002
0000
0000
0000
0000
1003
0100
0100
1000
0001
1000
1000
,  // measure 30
0001
0000
0100
0010
0120
0000
0100
0100
0000
0130
0001
0001
1000
0000
0100
0010
,  // measure 31
0001
0000
0010
0001
0012
0000
0100
0100
0000
1003
1000
0000
1100
0100
0010
0001
,  // measure 32
1000
0001
0000
1000
0001
0000
1000
0001
0000
1000
0000
1000
0000
1000
0001
0100
,  // measure 33
0000
0001
0010
0000
0110
0000
0100
1000
0000
1000
0010
0000
0001
0000
0010
0000
,  // measure 34
1000
0000
0001
0000
0011
0000
0000
0000
0001
0000
1000
0000
1100
0100
1000
0010
,  // measure 35
0000
0100
0010
0000
0100
0000
0010
1000
0000
0100
1000
0000
0010
0000
0100
0000
,  // measure 36
0001
0000
0010
0000
1010
0000
0000
0000
1000
0000
0100
0000
0101
0000
0100
0001
,  // measure 37
1000
0000
0001
0000
0100
0000
0010
1000
0000
0100
1000
0000
0010
0000
0100
0000
,  // measure 38
0001
0000
0010
0000
1010
0000
0000
0000
0100
0000
0001
0000
0101
0100
0001
0010
,  // measure 39
0000
0001
0100
0000
0010
0000
1000
0010
0000
1000
0100
0000
0010
0000
0100
0000
,  // measure 40
1000
0010
0110
0000
0100
0001
1002
0000
,  // measure 41
1003
0000
0001
0000
1000
0100
0000
1000
0010
0000
0100
0001
0011
0000
0001
0010
,  // measure 42
0001
0000
0100
0000
0010
0001
0000
0010
1000
0000
0100
1000
1010
0000
1000
0100
,  // measure 43
1000
0000
0001
0000
0100
0001
0000
0100
0010
0000
1000
0100
0110
0000
0010
0001
,  // measure 44
1000
0000
0001
0000
0000
0010
0010
0010
1000
0000
0000
0100
0000
0000
0001
0000
;

//---------------dance-single - DDRDAIKENKAI----------------
#NOTES:
     dance-single:
     DDRDAIKENKAI:
     Medium:
     4:
     0.251,0.241,0.110,0.172,0.094:
2000
0000
0000
0000
0000
0000
0000
0100
0000
0100
0000
0000
3010
0000
0000
0000
,
0002
0000
0000
0000
0000
0000
0000
0100
0000
0000
0100
0000
0013
0000
0000
0000
,
2000
0000
0000
0000
0000
0000
0000
0001
0000
0001
0000
0000
3100
0000
0000
0000
,
2002
0000
0000
3003
,
0100
0010
0200
0000
0000
0000
0301
0000
,
1000
0100
2000
0000
0000
0000
3010
0000
,
0100
0001
2000
0000
0000
0000
3100
0000
,
1000
0000
0000
1000
0000
0000
1000
0000
0000
1000
0000
1000
0000
0000
0000
0000
,
0001
0100
0020
0000
0000
0000
0130
0000
,
0001
0010
2000
0000
0000
0000
3010
0000
,
0001
1000
0200
0000
0000
0000
0310
0000
,
0001
0000
0000
0001
0000
0000
0001
0000
0000
0001
0000
0001
0000
0000
0000
0000
,
1000
0000
0001
0100
0010
1000
0001
0000
,
1000
1000
0100
0000
0000
1000
0001
0000
,
0100
0000
0010
1000
0100
1000
0001
0000
,
1000
1010
0110
1001
,
0001
0000
0100
0001
1000
0010
0100
0000
,
0010
0010
1000
0000
0000
0100
0001
0000
,
0100
0000
1000
0010
0001
0010
1000
0000
,
0001
0101
0110
1001
,
0200
0000
0000
0300
,
0020
0000
0000
0030
,
2000
0000
0000
3000
,
0000
0000
0001
0000
0000
1000
0000
0000
0001
0000
0000
1000
0000
0000
0001
0000
,
0200
0000
0310
0000
0000
0000
0000
1000
,
0002
0000
1003
0000
0000
0000
0000
0100
,
0020
0000
0031
0000
0000
0000
0000
0100
,
0010
0000
0000
0010
0000
0000
0010
0000
0000
0010
0000
0010
0000
0000
1000
0000
,
2000
0000
3001
0000
0000
0100
0001
0000
,
2000
0000
3100
0000
0000
0010
0001
0000
,
0200
0000
0310
0000
0000
1000
0001
0000
,
2002
0000
0000
3003
,
0001
0000
1000
0010
0100
0001
1000
0000
,
0001
0001
0100
0000
0000
0010
1000
0000
,
0100
0000
0010
0100
1000
0001
0100
0000
,
0010
1010
0101
1001
,
0001
0000
1000
0100
0001
0100
1000
0000
,
0010
0010
0100
0000
0000
0100
0001
0000
,
0010
0000
0100
1000
0010
0100
0001
0000
,
0010
0011
0101
1001
,
1000
0000
0100
0000
0000
1000
0000
0000
0001
0000
0000
0100
0000
0000
0010
0000
,
0000
0000
0100
0000
0000
0001
0000
0000
1000
0000
0000
0100
0000
0000
0010
0000
,
0000
0000
0100
0000
0000
1000
0000
0000
0001
0000
0000
0100
0000
0000
0010
0000
,
0000
0000
0100
0000
0000
0001
0000
0000
1000
0000
0000
0100
0000
0000
1000
0000
;

//---------------dance-single - DDRDAIKENKAI----------------
#NOTES:
     dance-single:
     DDRDAIKENKAI:
     Easy:
     2:
     0.178,0.189,0.133,0.211,0.000:
2000
0000
0000
3001
,
0200
0000
0000
0301
,
0020
0000
0000
0031
,
2002
0000
0000
3003
,
1000
1100
0000
0000
,
0001
0011
0000
0000
,
1000
1010
0000
0000
,
0202
0000
0000
0303
,
0100
0110
0000
0000
,
0001
1001
0000
0000
,
0100
0110
0000
0000
,
2002
0000
0000
3003
,
1000
0001
0100
0010
,
1000
1000
0100
0000
,
0010
0001
1000
0100
,
0010
0010
0001
0001
,
1000
0100
1000
0100
,
1000
1000
0000
0001
,
0100
0010
0100
0001
,
1000
0010
0100
0110
,
0020
0000
0000
0030
,
2000
0000
0000
3000
,
0002
0000
0000
0003
,
0000
0000
0000
0000
,
0002
1003
0000
1000
,
0200
0310
0000
0010
,
0002
1003
0000
1000
,
2002
0000
0000
3003
,
0100
0100
2000
0000
0000
0000
3000
0000
,
0010
0010
0002
0000
0000
0000
0003
0000
,
0100
0100
0002
0000
0000
0000
0003
1000
,
2002
0000
0000
3003
,
1000
0100
1000
0001
,
0100
0110
0000
0010
,
0100
0001
1000
0100
,
1000
1000
0001
0001
,
0100
0001
1000
0100
,
1000
1001
0000
0001
,
0100
0010
0100
0010
,
1000
0100
0001
0101
,
2001
0000
0010
3010
,
0200
0000
0001
0301
,
0020
0000
0100
0130
,
2002
0000
0000
0000
0000
0000
0000
3003
;
