#TITLE:THE EARTH LIGHT;
#SUBTITLE:(ARMAGEDDON MIX);
#ARTIST:L.E.D. LIGHT remixed by CMG(UTOPIA);
#TITLETRANSLIT:;
#SUBTITLETRANSLIT:;
#ARTISTTRANSLIT:;
#GENRE:;
#CREDIT:;
#MENUCOLOR:;
#METERTYPE:DDR;
#BANNER:THE EARTH LIGHT (AM).png;
#BACKGROUND:THE EARTH LIGHT (AM)-bg.png;
#LYRICSPATH:;
#CDTITLE:CDTitle.png;
#MUSIC:TEL(AM).ogg;
#OFFSET:-0.018;
#SAMPLESTART:26.460;
#SAMPLELENGTH:13.420;
#SELECTABLE:YES;
#LISTSORT:;
#BPMS:0.000=145.000;
#STOPS:;
#BGCHANGES:;
#ATTACKS:;

//---------------dance-single - DDRDAIKENKAI----------------
#NOTES:
     dance-single:
     DDRDAIKENKAI:
     Beginner:
     1:
     0.168,0.241,0.075,0.298,0.000:
0000
0000
0000
0000
,
0000
0000
0000
0000
,
0000
0000
0000
0000
,
0000
0000
0000
0000
,
0000
0000
0000
0000
,
0000
0000
0000
0000
,
0000
0000
0000
0000
,
0000
0000
0000
0000
,
2000
0000
3000
0000
,
0002
0000
0003
0000
,
2000
0000
3000
0000
,
0002
0000
0003
0000
,
0200
0000
0300
0000
,
0020
0000
0030
0000
,
0200
0000
0300
0000
,
0020
0000
0030
0000
,
1000
1000
1000
0000
,
0001
0001
0001
0000
,
1000
1000
1000
0000
,
0001
0001
0001
0000
,
0100
0100
0100
0000
,
0010
0010
0010
0000
,
0100
0100
0100
0000
,
0010
0010
0010
0000
,
1000
0000
0001
0000
,
0100
0000
0100
0000
,
0001
0000
1000
0000
,
0100
0000
0100
0000
,
2000
0000
3000
0000
,
0200
0000
0300
0000
,
0020
0000
0030
0000
,
0002
0000
0003
0000
,
0200
0000
0300
0000
,
0002
0000
0003
0000
,
2000
0000
3000
0000
,
0200
0000
0300
0000
,
2000
0000
3000
0000
,
0020
0000
0030
0000
,
0200
0000
0300
0000
,
0002
0000
0003
0000
,
1000
0000
1000
0000
,
0001
0000
0001
0000
,
1000
0000
1000
0000
,
0001
0000
0001
0000
,
0100
0000
0100
0000
,
0010
0000
0010
0000
,
0100
0000
0100
0000
,
0010
0000
0010
0000
,
0110
0000
0000
0000
,
1000
0000
0000
0000
,
0001
0000
0000
0000
,
1000
0000
0000
0000
,
1001
0000
0000
0000
,
0001
0000
0000
0000
,
0100
0000
0000
0000
,
0010
0000
0000
0000
,
0220
0000
0330
0000
,
2000
0000
3000
0000
,
0002
0000
0003
0000
,
0200
0300
0000
0000
,
0220
0000
0330
0000
,
2000
0000
3000
0000
,
0002
0000
0003
0000
,
2000
0000
3000
0000
,
1001
0000
0100
0000
,
1001
0000
0100
0000
,
0110
0000
0010
0000
,
0110
0000
0100
0000
,
2000
0000
3000
0000
,
0002
0000
0003
0000
,
0200
0000
0300
0000
,
0020
0000
0030
0000
,
2002
0000
0000
3003
;

//---------------dance-single - DDRDAIKENKAI----------------
#NOTES:
     dance-single:
     DDRDAIKENKAI:
     Easy:
     3:
     0.284,0.330,0.033,0.364,0.000:
0000
0000
0000
0000
,
0000
0000
0000
0000
,
0000
0000
0000
0000
,
0000
0000
0000
0000
,
0000
0000
0000
0000
,
0000
0000
0000
0000
,
0000
0000
0000
0000
,
0000
0000
0000
0000
,
2000
0000
3100
0000
,
0002
0000
0103
0000
,
0002
0000
0013
0000
,
2000
0000
3010
0000
,
0020
0000
0130
0000
,
0002
0000
1003
0000
,
0200
0000
0310
0000
,
0002
1000
2000
3003
,
0001
1000
0001
0001
,
1000
0001
1000
0001
,
0100
0010
0100
0100
,
0010
0100
0010
0100
,
0001
1000
0001
0001
,
1000
0001
1000
0001
,
0100
0100
0010
0010
,
0100
0010
0220
0330
,
0001
0001
1000
0001
,
0100
0100
0001
0100
,
0010
0010
0100
0010
,
1000
1000
0010
1000
,
0001
0001
1000
1000
,
0001
0100
0001
1000
,
0100
0100
1000
1000
,
0010
0100
0220
0330
,
0002
0100
0003
0100
,
0002
1000
0003
1000
,
0200
0010
0300
0010
,
0002
0100
0003
0001
,
2000
0100
3000
0100
,
2000
0010
3000
0010
,
0200
0001
0300
0001
,
0020
0100
0030
0100
,
2000
0001
0001
3001
,
0200
0010
0010
0310
,
2000
0100
0100
3100
,
0020
0001
0001
0031
,
2000
0100
0100
3100
,
0020
0100
0100
0130
,
2000
0001
0001
3001
,
0002
0100
0100
0200
,
0303
0001
0000
1000
,
0000
0100
1000
0100
,
0000
1000
0000
0001
,
0000
0100
0001
0100
,
0000
0001
0000
0010
,
0000
1000
0010
0001
,
0000
1000
0000
0100
,
0000
0001
0100
1000
,
2000
3000
0100
0000
,
0020
0030
0001
0000
,
2000
3000
0010
0000
,
0200
0300
0001
0000
,
0020
0030
0001
0000
,
0200
0300
0010
0000
,
2000
3000
0100
0000
,
0020
0030
0001
0000
,
1001
0001
0100
0001
,
1000
0100
1000
0100
,
0010
0001
0010
0001
,
1000
0001
1000
0001
,
0200
0000
0000
0300
,
0020
0000
0000
0030
,
2000
0000
0000
3000
,
0002
0000
0000
0003
,
2002
0000
3003
0000
;

//---------------dance-single - DDRDAIKENKAI----------------
#NOTES:
     dance-single:
     DDRDAIKENKAI:
     Medium:
     6:
     0.437,0.510,0.025,0.464,0.000:
0000
0000
0000
0000
,
0000
0000
0000
0000
,
0000
0000
0000
0000
,
0000
0000
0000
0000
,
0000
0000
0000
0000
,
0000
0000
0000
0000
,
0000
0000
0000
0000
,
0000
0000
0000
0000
,
2000
0100
0000
0100
0000
0100
0000
3100
,
0020
0001
0000
0001
0000
0001
0000
0031
,
0200
0010
0000
0010
0000
0010
0000
0310
,
2000
0001
0000
0001
0000
0001
0000
3001
,
1000
0100
0000
1000
0000
0001
0000
0100
,
0001
1000
0000
0001
0000
1000
0000
0010
,
0100
0010
0000
1000
0000
0100
0000
0010
,
0001
0100
0000
0001
0000
1000
0000
0100
,
1000
0000
0001
0000
0100
0001
0100
0000
,
0010
0000
1000
0000
0100
1000
0100
0000
,
1000
0000
0001
0000
0010
0001
0010
0000
,
0001
0000
1000
0000
0010
1000
0010
0000
,
1000
0100
0001
0010
,
0001
0100
1000
0010
,
1000
0100
1000
0000
0001
0010
0001
0000
,
1000
0001
2002
3003
,
0001
0000
0100
0000
0010
0100
0010
0000
,
0100
0000
0001
0000
1000
0100
1000
0000
,
0001
0000
0010
0000
0001
1000
0001
0000
,
0100
0000
0010
0000
1000
0001
1000
0000
,
1000
0100
0010
0001
,
0001
0010
0100
1000
,
1000
0001
1000
0000
0010
0100
0010
0000
,
1000
0001
2002
3003
,
0001
0000
0100
0000
0001
0100
0001
0000
,
0001
0000
1000
0000
0100
1000
0100
0000
,
1000
0000
0010
0000
0100
0001
0100
0000
,
0010
0000
1000
0000
0001
0010
0001
0000
,
0001
0100
0001
0000
1000
0000
0100
0000
,
1000
0010
1000
0000
0100
0000
0010
0000
,
0001
1000
0001
0000
0100
0000
0010
0000
,
1000
0100
1000
0000
0001
0000
0010
0000
,
0001
0100
0001
0000
1000
0100
1000
0000
,
0020
0130
0200
0301
,
0001
1000
0001
0000
0010
0100
0010
0000
,
0200
1300
2000
3010
,
1000
0001
1000
0000
0100
1000
0100
0000
,
2000
3001
0002
0103
,
0100
0010
0100
0000
0010
0000
1000
0000
,
0002
0023
0230
2300
,
3000
0001
0100
0000
0001
1000
0001
0000
,
0100
0000
0100
0000
0010
1000
0010
1000
,
0000
1000
0100
0000
1000
0001
1000
0000
,
0001
0000
0001
0000
0010
0100
0010
0100
,
2000
3020
2030
3002
,
2003
0000
3200
0000
1300
0010
1000
0010
,
2000
3200
0320
0032
,
2003
0000
3002
0000
0103
0010
0100
0010
,
0000
1000
0001
0000
1000
0100
1000
0000
,
0001
0000
0001
0000
1000
0001
1000
0001
,
0000
0001
1000
0000
1000
0010
1000
0000
,
0001
0000
0001
0000
1000
0001
1000
0001
,
0200
0302
2003
3200
,
0320
0000
0032
0000
0013
0001
0010
0001
,
0020
0032
0203
0320
,
2030
0000
3200
0000
1300
0001
1000
0001
,
2000
3001
0002
0103
,
0200
0310
0020
1030
,
2000
3100
0200
1300
,
2000
3001
0002
0103
,
0020
0100
0100
0130
,
0002
1000
1000
1003
,
0200
0010
0010
0310
,
0002
1000
1000
1003
,
2002
0000
3003
0000
;

//---------------dance-single - DDRDAIKENKAI----------------
#NOTES:
     dance-single:
     DDRDAIKENKAI:
     Hard:
     8:
     0.506,0.510,0.041,0.182,0.265:
0000
0000
0000
0000
,
0000
0000
0000
0000
,
0000
0000
0000
0000
,
0000
0000
0000
0000
,
0000
0000
0000
0000
,
0000
0000
0000
0000
,
0000
0000
0000
0000
,
0000
0000
0000
0000
,
1000
0000
0000
0001
0000
0000
1000
0000
0100
0000
0000
1000
0000
0000
0001
0000
,
0100
0000
0000
0001
0000
0000
0010
0000
0100
0000
0000
1000
0000
0000
1000
0000
,
0001
0000
0000
0100
0000
0000
0010
0000
1000
0000
0000
0100
0000
0000
0010
0000
,
0100
0000
0000
1000
0000
0000
0010
0000
0100
0000
0000
0001
0000
0000
0010
0000
,
0001
0000
0000
0010
0000
0000
0100
0000
1000
0000
0000
0001
0000
0000
0100
0000
,
0001
0000
0000
1000
0000
0000
0100
0000
0010
0000
0000
0100
0000
0000
1000
0000
,
0010
0000
0000
0100
0000
0000
0001
0000
0010
0000
0000
0001
0000
0000
1000
0000
,
0001
1000
0100
1000
0100
1000
0100
1000
,
1001
0000
0000
0000
0101
0000
0000
0100
0000
0001
0000
0000
1000
0000
0100
0000
,
1000
0000
0001
0000
0100
0000
0000
0010
0000
1000
0000
0000
0100
0000
0010
0000
,
0001
0000
0000
0000
1000
0000
0000
0001
0000
0010
0000
0000
0100
0000
1000
0000
,
0001
0000
0000
0000
0100
0000
0001
0000
0000
1000
0000
0000
0001
0000
1000
0000
,
0001
0000
0000
0000
0101
0000
0000
0100
0000
0010
0000
0000
1000
0000
0010
0000
,
0100
0000
0001
0000
1000
0000
0000
0001
0000
0010
0000
0000
0001
0000
0100
0000
,
0010
0000
0000
0000
1000
0000
0000
0010
0000
0100
0000
0000
0010
0000
1000
0000
,
0001
1000
0010
0000
2020
0000
3030
0000
,
0020
0000
0000
0000
1030
0000
0000
0100
0000
0010
0000
0000
0100
0000
1000
0000
,
0010
0000
0100
0000
0001
0000
0000
0010
0000
0001
0000
0000
0100
0000
0010
0000
,
2000
0000
0000
0000
3001
0000
0000
1000
0000
0001
0000
0000
0100
0000
0010
0000
,
1000
0000
0000
0000
0001
0000
1000
0000
0000
0100
0000
0000
1000
0000
0001
0000
,
0200
0000
0000
0000
0301
0000
0000
0010
0000
0001
0000
0000
0100
0000
0010
0000
,
1000
0000
0100
0000
1000
0000
0000
0010
0000
0100
0000
0000
0001
0000
0010
0000
,
0200
0000
0000
0000
1300
0000
0000
0100
0000
0010
0000
0000
0001
0000
1000
0000
,
0100
0010
0001
0000
0022
0000
0033
0000
,
0001
1000
0100
0000
1000
0001
0100
0000
,
0010
1000
0100
0000
0010
0100
1000
0000
,
0100
0010
0001
0000
0100
0010
1000
0000
,
0010
1000
0100
0000
0010
0100
1000
0000
,
0001
0100
0001
0000
1000
0100
1000
0000
,
0001
0010
0001
0000
1000
0010
1000
0000
,
0010
0100
0010
0000
1000
0001
1000
0000
,
0100
0010
0100
0000
1000
0001
1000
0000
,
0001
0100
0001
0100
0010
1000
0100
0000
,
1000
0010
1000
0010
0100
0001
0010
0000
,
0001
1000
0001
1000
0010
0100
0001
0000
,
1000
0001
1000
0001
0100
0010
1000
0000
,
0100
0010
0100
0010
0001
1000
0100
0000
,
0010
0100
0010
0100
1000
0001
0100
0000
,
0010
0100
0010
1000
0001
1000
0001
0000
,
0100
0010
0100
0001
1000
0001
1000
0000
,
1000
0000
0001
0000
0100
0000
0000
0000
0010
0000
0000
1000
0000
0000
0001
0000
,
1000
0100
1000
0000
0001
0100
0001
0000
,
0010
0000
0100
0000
0010
0000
0000
0000
0001
0000
0000
1000
0000
0000
0001
0000
,
0100
0001
0100
0000
0010
1000
0010
0000
,
1000
0000
0100
0000
1000
0000
0000
0000
0001
0000
0000
0100
0000
0000
0001
0000
,
0010
0100
1000
0000
0100
0010
0001
0100
,
0010
0000
1000
0000
0100
0000
0000
0000
1000
0000
0000
0010
0000
0000
0100
0000
,
0001
1000
0100
0000
1000
0001
1000
0001
,
0100
0000
0001
0000
0100
0000
0000
0000
0001
0000
0000
0010
0000
0000
0001
0000
,
0010
0100
1000
0000
0010
1000
0010
1000
,
0100
0000
0010
0000
0001
0000
0000
0000
1000
0000
0000
0001
0000
0000
0100
0000
,
0001
0010
0001
0000
1000
0100
1000
0100
,
1000
0000
0010
0000
1000
0000
0000
0000
0010
0000
0000
0100
0000
0000
0001
0000
,
1000
0001
0100
0000
0001
0010
0001
0010
,
0100
0000
1000
0000
0001
0000
0000
0000
1000
0000
0000
0001
0000
0000
0100
0000
,
0001
0100
0010
0000
1000
0100
1000
0010
,
2000
0000
0000
3001
0000
0000
0001
0000
0010
0000
0000
0001
0000
0000
1000
0000
,
0002
0000
0000
0103
0000
0000
0010
0000
1000
0000
0000
0010
0000
0000
0100
0000
,
0001
0000
0000
0010
0000
0000
0100
0000
2000
0000
0000
3001
0000
0000
0100
0000
,
0020
0000
0000
1030
0000
0000
0100
0000
0010
0000
0000
0100
0000
0000
1000
0000
,
0002
0000
0000
0100
0003
0000
0100
0000
0020
0000
0000
1000
0030
0000
1000
0000
,
0200
0000
0000
0010
0300
0000
0010
0000
0200
0000
0000
1000
0300
0000
1000
0000
,
0002
0000
0000
0100
0003
0000
0100
0000
0020
0000
0000
1000
0030
0000
1000
0000
,
0200
0000
0000
0010
0300
0000
0010
0000
0002
0000
0000
0103
0000
0000
0020
0000
,
2000
0000
3030
0000
;

//---------------dance-single - DDRDAIKENKAI----------------
#NOTES:
     dance-single:
     DDRDAIKENKAI:
     Challenge:
     10:
     0.725,0.751,0.025,0.331,0.836:
0000
0000
0000
0000
,
0000
0000
0000
0000
,
0000
0000
0000
0000
,
0000
0000
0000
0000
,
0000
0000
0000
0000
,
0000
0000
0000
0000
,
0000
0000
0000
0000
,
0000
0000
0000
0000
,
1000
0001
0100
1000
0100
0001
1000
0000
,
0001
1000
0010
0001
0010
1000
0001
0000
,
1000
0010
0100
1000
0100
0010
1000
0000
,
0001
0100
0010
0001
0010
0100
0001
0000
,
1000
0001
0010
0100
1000
0001
0100
0000
,
0001
1000
0100
0010
0001
1000
0010
0000
,
1000
0010
1000
0010
0100
0001
0100
0000
,
0001
0010
0001
0010
0100
1000
0100
1000
,
1001
0000
0000
0000
0001
0000
0000
1000
0000
0001
0000
0000
0100
0000
0010
0100
,
0010
0000
1000
0000
0001
0000
0000
1000
0000
0100
0000
0000
0010
0000
0001
0100
,
0001
0000
0000
0000
0010
0000
0000
0100
0000
1000
0000
0000
0010
0000
1000
0001
,
1000
0000
0000
0000
0001
0000
0100
0000
0000
0001
0000
0000
0010
0000
0001
0100
,
0001
0000
0000
0000
0010
0000
0000
0100
0000
1000
0000
0000
0010
0000
1000
0001
,
1000
0000
0010
0000
1000
0000
0000
0100
0000
0010
0000
0000
0100
0000
1000
0001
,
1000
0000
0000
0000
0100
0000
0000
0010
0000
0001
0000
0000
1000
0000
0001
0100
,
0001
0000
0010
0000
0001
0000
0000
0000
0004
0040
0000
0000
0000
0000
0003
0030
,
0100
0000
0000
0000
0010
0000
0000
0100
0000
1000
0000
0000
0010
0000
1000
0010
,
1000
0000
0010
0000
0100
0000
0000
0001
0000
1000
0000
0000
0100
0000
1000
0001
,
1000
0000
0000
0000
0010
0000
0000
0100
0000
0001
0000
0000
0010
0000
0001
0100
,
0001
0000
0000
0000
1000
0000
0100
0000
0000
1000
0000
0000
0010
0000
0100
0010
,
0100
0000
0000
0000
0001
0000
0000
1000
0000
0001
0000
0000
0010
0000
0100
1000
,
0100
0000
0010
0000
0001
0000
0000
1000
0000
0001
0000
0000
0100
0000
0010
1000
,
0010
0000
0000
0000
0100
0000
0000
0001
0000
1000
0000
0000
0001
0000
1000
0100
,
1000
0000
0001
0000
0100
0000
0000
0000
0400
0004
0000
0000
0000
0000
0300
0003
,
1000
0000
1000
0001
0000
0001
0200
0000
0320
0000
1030
0000
0100
1000
0000
1000
,
0001
0000
0001
0010
0000
0010
0200
0000
0320
0000
0031
0000
0100
0001
0000
0001
,
0100
0000
0100
0010
0000
0010
2000
0000
3002
0000
1003
0000
0010
1000
0000
1000
,
0010
0000
0010
0100
0000
0100
0002
0000
0023
0000
0130
0000
0010
0001
0000
0001
,
0100
0000
0100
0001
0000
0001
0020
0000
0230
0000
1300
0000
0100
1000
0000
1000
,
0001
0000
0001
0100
0000
0100
0020
0000
2030
0000
3001
0000
1000
0010
0000
0010
,
0001
0000
0001
0010
0000
0010
2000
0000
3200
0000
0301
0000
0100
0001
0000
0001
,
0100
0000
0100
1000
0000
1000
0200
0000
0320
0000
0031
0000
0100
0010
0000
0010
,
1000
0000
1000
0010
0000
0010
2000
0000
3200
0000
1300
0000
0001
0010
0000
0010
,
0100
0000
0100
1000
0000
1000
0200
0000
0320
0000
0031
0000
0100
0010
0000
0010
,
1000
0000
1000
0010
0000
0010
0200
0000
0320
0000
1030
0000
0010
1000
0000
1000
,
0010
0000
0010
1000
0000
1000
0200
0000
0320
0000
0031
0000
0100
0010
0000
0010
,
0100
0000
0100
0001
0000
0001
0200
0000
2300
0000
3100
0000
0001
0010
0000
0010
,
0100
0000
0100
1000
0000
1000
0020
0000
0230
0000
0310
0000
0001
0010
0000
0010
,
1000
0000
1000
0010
0000
0010
0200
0000
0302
0000
1003
0000
0100
0010
0000
0010
,
0001
0000
0001
0100
0000
0100
0020
0000
0230
0000
0310
0000
1000
0001
0000
1000
,
0002
0000
1003
0000
0001
0100
0001
0000
1000
0001
0000
0100
0000
0001
0100
0000
,
M0MM
0000
0001
0000
1000
0100
1000
0000
0001
0010
0001
0010
0001
0000
0001
0000
,
MMM0
0000
0001
0000
1000
0100
1000
0000
0001
0100
0000
0001
0000
1000
0100
0000
,
M0MM
0000
1000
0000
0001
0010
0001
0000
1000
0100
0000
1000
0000
1000
0100
2000
,
3MMM
0000
0010
0000
0100
0001
0100
0000
0010
1000
0000
0100
0000
0010
0001
0000
,
0010
0000
0100
0000
1000
0001
1000
0000
0010
1000
0010
1000
0010
0000
0100
0000
,
0001
0000
0010
0000
0001
0100
0001
0000
0010
0100
0000
1000
0000
0001
0100
0000
,
0010
0000
1000
0000
0001
0100
0001
0000
1000
0100
0000
1000
0000
0001
0100
0001
,
MMM0
0000
0001
0000
1000
0010
1000
0000
0001
1000
0000
0100
0000
0010
0001
0000
,
MMM0
0000
1000
0000
0001
0100
0001
0000
1000
0010
1000
0100
1000
0000
0100
0000
,
M0MM
0000
1000
0000
0001
1000
0001
0000
1000
0100
0000
0010
0000
0100
1000
0000
,
0MMM
0000
0010
0000
0100
0001
0100
0000
0001
0010
0000
0100
0000
0010
0001
0100
,
0001
0000
1000
0000
0001
0100
0001
0000
0010
0100
0000
1000
0000
1000
0010
0000
,
0100
0000
0001
0000
1000
0100
1000
0000
0001
0010
0001
0010
0001
0000
0101
0000
,
0001
0000
0010
0000
0100
1000
0100
0000
0010
0001
0000
0100
0000
0010
1000
0000
,
0001
0000
1000
0000
0100
0010
0100
0000
1000
0010
0000
0100
0000
0001
1000
0001
,
0100
0000
0001
0100
0000
0001
0100
0000
0001
0000
1000
0100
0000
1000
0100
0000
,
0010
0000
0100
0010
0000
0100
0010
0000
0001
0000
1000
0100
0000
0100
1000
0000
,
0010
0000
0100
0001
0000
0100
0001
0000
0010
0000
0100
1000
0000
0100
1000
0000
,
0010
0000
1000
0001
0000
1000
0001
0000
0010
0000
0001
0100
0000
0100
0010
0000
,
1000
0000
0100
1000
0000
0100
1000
0000
0010
0000
0100
0001
0000
0100
0001
0000
,
0010
0000
0100
0010
0000
0100
0010
0000
0001
0000
1000
0010
0000
0010
0100
0000
,
0001
0000
0010
0001
0000
0010
0001
0000
1000
0000
0100
1000
0000
0100
1000
0000
,
0001
0000
1000
0010
0000
1000
0010
0000
1000
0000
0001
1000
0000
1000
0001
0000
,
2002
0000
3003
0000
;
