#TITLE:Super Euro Flash;
#SUBTITLE:;
#ARTIST:HINOIチ-ム;
#TITLETRANSLIT:;
#SUBTITLETRANSLIT:;
#ARTISTTRANSLIT:HINOI Team;
#GENRE:PARAPARA;
#CREDIT:;
#MENUCOLOR:;
#NEWMETERSYSTEM:NO;
#BANNER:Super Euro Flash.png;
#BACKGROUND:Super Euro Flash-bg.png;
#LYRICSPATH:Super Euro Flash.lrc;
#CDTITLE:CDTitle.png;
#MUSIC:Super Euro Flash.ogg;
#OFFSET:-6.000;
#SAMPLESTART:80.920;
#SAMPLELENGTH:12.000;
#SELECTABLE:YES;
#LISTSORT:;
#BPMS:0.000=159.995;
#STOPS:;
#BGCHANGES:;
#ATTACKS:;

//---------------dance-single - DDRDAIKENKAI----------------
#NOTES:
     dance-single:
     DDRDAIKENKAI:
     Challenge:
     10:
     0.771,0.739,0.693,0.217,0.421: // measure 1
0000
0000
0000
0000
,  // measure 2
0000
0000
0000
0000
,  // measure 3
0000
0000
0000
0000
,  // measure 4
0000
0000
0000
0000
,  // measure 5
1000
0001
0011
0000
0001
0100
0110
0000
,  // measure 6
0010
1000
1001
0000
1000
0100
1100
0000
,  // measure 7
0100
0010
0110
0000
0001
1000
1001
0000
,  // measure 8
0101
0001
0001
0001
,  // measure 9
0100
0010
1001
0000
0010
1000
0101
0000
,  // measure 10
1000
0010
1100
0000
0010
0001
0110
0000
,  // measure 11
0001
0100
1010
0000
0100
0010
1001
0000
,  // measure 12
1001
0000
1001
0000
1001
0100
1100
0100
,  // measure 13
0010
0000
0100
1000
0000
0000
0100
0010
0000
0000
0001
0100
0000
0000
0010
0100
,  // measure 14
0000
0000
0001
0010
0000
0000
0001
1000
0000
0000
1001
0000
1001
0000
1001
0000
,  // measure 15
0110
1010
0110
0101
,  // measure 16
2001
0000
0001
0000
3001
0000
0100
0000
0102
0000
1003
0100
1000
0100
1000
0001
,  // measure 17
0000
0000
1000
0100
0000
0000
0100
0010
0000
0000
0010
0100
0000
0000
0100
0001
,  // measure 18
0000
0000
0001
0100
0000
0000
0100
1000
0000
0000
1001
0000
1001
0000
1001
0000
,  // measure 19
0101
0000
0001
0000
1000
0001
1000
0001
0100
0000
1000
0000
0100
0000
0001
0000
,  // measure 20
0100
0000
0010
0100
0010
0100
0010
0100
0020
0000
0000
0000
1030
0000
0000
0000
,  // measure 21
0010
1100
1101
1100
,  // measure 22
1101
0000
1100
0000
0010
0100
0001
0002
,  // measure 23
0000
0013
0100
2000
0000
3100
0010
0002
,  // measure 24
0000
0000
0000
2000
0000
0000
3003
0000
,  // measure 25
0110
0000
1001
0000
0101
1100
1002
0000
,  // measure 26
1000
1000
1003
1020
,  // measure 27
1030
0000
0001
0100
0000
0001
0100
0000
0010
0000
1000
0000
0100
0000
1000
0000
,  // measure 28
0010
0000
0100
0001
0000
0100
0001
0000
1000
0000
0010
0000
0001
0000
0010
0000
,  // measure 29
1000
0000
0001
0100
0000
0001
0100
0000
0010
0000
1000
0000
0100
0000
1000
0000
,  // measure 30
0001
0000
1000
0010
0000
1000
0010
0000
0001
0000
0010
0000
0100
0000
0001
0000
,  // measure 31
1000
0000
0100
0010
0000
0100
0010
0000
0001
0000
0010
0000
0100
0000
1000
0000
,  // measure 32
0010
0000
0100
0001
0000
0100
0001
0000
0010
0000
0001
0000
0100
0000
0010
0000
,  // measure 33
1000
0000
0001
1000
0000
0001
1000
0000
0010
0000
0100
0000
0001
0000
1000
0000
,  // measure 34
0200
0000
0310
0001
0010
0001
0010
0001
0020
0000
0001
0000
0001
0000
0031
0000
,  // measure 35
0011
0100
1100
0000
1020
0000
0031
0010
,  // measure 36
1000
0001
0010
1000
0000
1000
0010
0001
,  // measure 37
0011
0100
1100
0000
0110
0010
1000
0001
,  // measure 38
0100
0000
0010
1000
0010
0100
0001
0000
0100
0001
0100
0010
1000
0000
0001
0000
,  // measure 39
1001
0010
0011
0000
0201
0000
1300
0100
,  // measure 40
0001
1000
0100
0001
0000
0001
0100
1000
,  // measure 41
1100
0001
0011
0000
0101
0001
1000
0100
,  // measure 42
0001
0000
0100
0010
0001
0010
0100
0000
1000
0100
0010
0100
1000
0000
1000
0010
,  // measure 43
0000
0000
0010
1000
0000
0000
1000
0100
0000
0000
0100
0010
0000
0000
0010
0001
,  // measure 44
0000
0000
0001
0100
0000
0000
0100
0001
0000
0000
0001
1000
0100
0000
1000
0000
,  // measure 45
0000
0001
0010
0100
1000
0010
0100
0001
,  // measure 46
1000
0000
0010
0000
0100
0000
0010
0000
0001
0000
0010
0100
0010
0100
0010
1000
,  // measure 47
0010
0000
1000
0010
0000
0000
1000
0001
0000
0000
1000
0100
0000
0000
0010
0100
,  // measure 48
0000
0000
0010
0001
0000
0000
0010
0001
0000
0000
0100
0001
0100
0001
0100
0000
,  // measure 49
0000
0000
0010
0000
1000
0000
0010
0000
0110
0000
0100
0010
0100
0010
0100
0000
,  // measure 50
0000
0010
0100
0001
0101
0000
1020
0000
,  // measure 51
1030
0100
1000
0010
0001
0010
1000
0100
,  // measure 52
0020
0000
0001
0000
0032
0000
1000
0000
0003
0000
0001
0100
0001
1000
0001
1000
,  // measure 53
0001
0000
0101
0000
0011
0001
0100
0010
,  // measure 54
1000
0000
0100
0000
0010
0001
0000
0000
1001
0000
0000
0202
0000
0000
0303
0000
,  // measure 55
0011
0001
0100
0010
1000
0100
0010
0100
,  // measure 56
2000
0000
0010
0000
3020
0000
1000
0000
0030
0000
1000
0001
1000
0100
1000
0100
,  // measure 57
1000
0010
0110
0000
0101
0100
0001
0100
,  // measure 58
0010
0000
0110
0000
0010
1000
0000
0001
1000
0000
0001
1000
0000
0000
1010
0000
,  // measure 59
0110
0010
0100
0001
0010
0001
0100
0010
,  // measure 60
2000
0000
0001
0000
3002
0000
1000
0000
0003
0000
0001
0100
0001
0100
0001
0100
,  // measure 61
0010
0100
0110
0000
1010
0010
0100
0001
,  // measure 62
0010
0000
1000
0000
0010
0001
0000
0000
1001
0000
0000
2020
0000
0000
3030
0000
,  // measure 63
0110
0100
0001
0010
1000
0010
0001
0100
,  // measure 64
0020
0000
1000
0000
2030
0000
0100
0000
3000
0000
0100
0010
0100
1000
0100
1000
,  // measure 65
0100
1000
1010
0000
0110
0010
1000
0001
,  // measure 66
0100
0000
0101
0000
0000
1001
0000
0000
1100
0000
0000
0110
0000
0000
1001
0000
,  // measure 67
0001
0000
1000
0100
0000
1000
0100
0000
0010
0000
0100
0000
1000
0000
0010
0000
,  // measure 68
0001
0000
0010
0100
0000
0010
0100
0000
0001
0000
0010
0000
1000
0000
0010
0000
,  // measure 69
0001
0000
1000
0100
0000
1000
0100
0000
1000
0000
0001
0000
0100
0000
0010
0000
,  // measure 70
0001
0000
0010
1000
0000
0010
1000
0000
0001
0000
1000
0000
0100
0000
0001
0000
,  // measure 71
0100
0000
1000
0010
0000
1000
0010
0000
0100
0000
0010
0000
0001
0000
0010
0000
,  // measure 72
0100
0000
0001
0010
0000
0001
0010
0000
0100
0000
1000
0000
0100
0000
0010
0000
,  // measure 73
0100
0000
1000
0001
0000
1000
0001
0000
0100
0000
0010
0000
1000
0000
0100
0000
,  // measure 74
0110
0000
1001
0000
1100
0101
1001
0000
;

//---------------dance-single - DDRDAIKENKAI----------------
#NOTES:
     dance-single:
     DDRDAIKENKAI:
     Hard:
     8:
     0.606,0.585,0.467,0.309,0.017: // measure 1
0000
0000
0000
0000
,  // measure 2
0000
0000
0000
0000
,  // measure 3
0000
0000
0000
0000
,  // measure 4
0000
0000
0000
0000
,  // measure 5
0010
0001
0100
0000
0010
1000
0100
0000
,  // measure 6
0010
0001
0100
0000
0010
1000
0100
0000
,  // measure 7
1000
0001
0100
0000
0001
1000
0100
0000
,  // measure 8
1001
0000
0000
0000
,  // measure 9
1000
0001
0010
0000
0001
1000
0010
0000
,  // measure 10
1000
0001
0010
0000
0001
1000
0010
0000
,  // measure 11
0100
0001
0010
0000
0100
1000
0010
0000
,  // measure 12
0110
0000
0101
0000
0110
0010
1000
0001
,  // measure 13
0000
0100
0001
1000
0000
0100
1000
0001
,  // measure 14
0000
0010
0001
1000
0000
0100
1000
0010
,  // measure 15
0110
1010
0110
0101
,  // measure 16
2010
0000
3001
0000
0011
0001
0100
0010
,  // measure 17
0000
0010
1000
0100
0000
0100
0010
0001
,  // measure 18
0000
0001
0100
0010
0000
0010
1000
0001
,  // measure 19
1001
0011
1100
0201
,  // measure 20
0010
0010
0010
0010
0310
0000
1001
0000
,  // measure 21
0110
0101
1001
1100
,  // measure 22
1001
0000
1100
0000
0110
0001
0010
0200
,  // measure 23
0000
1300
0001
0200
0000
0310
1000
0020
,  // measure 24
0000
0000
0000
2030
0000
0000
3000
0000
,  // measure 25
0101
0000
1100
0000
0010
0001
0100
0000
,  // measure 26
0000
0000
0000
1000
,  // measure 27
0100
0001
0100
0001
0010
1000
0010
0001
,  // measure 28
1000
0100
1000
0100
0010
0001
0010
1000
,  // measure 29
0010
0001
0010
0001
0100
1000
0100
0001
,  // measure 30
1000
0010
1000
0010
0100
0001
0100
1000
,  // measure 31
0100
0001
0010
0100
1000
0010
0100
0001
,  // measure 32
1000
0100
0010
0001
1000
0010
0100
0001
,  // measure 33
0100
0010
0100
0010
1000
0001
1000
0001
,  // measure 34
2001
0001
0001
0001
3001
1000
0100
0010
,  // measure 35
0001
0101
0010
1100
,  // measure 36
0001
0100
0010
1000
0000
1000
0010
0100
,  // measure 37
0001
0101
0010
1100
,  // measure 38
0001
1000
1000
0100
1000
1000
0001
1000
,  // measure 39
1000
1010
0100
0011
,  // measure 40
1000
0010
0100
0001
0000
0001
0100
0010
,  // measure 41
1000
1010
0100
0011
,  // measure 42
1000
0001
0001
0010
0001
0001
1000
0001
,  // measure 43
0000
1000
0001
0100
0000
0001
1000
0020
,  // measure 44
0000
1030
0100
0020
0000
0001
0032
0000
,  // measure 45
1003
0001
0100
0001
0100
0010
2000
0001
,  // measure 46
3001
1000
0010
1000
0010
0100
0001
1000
,  // measure 47
0000
1000
0001
0010
0000
0010
0001
0200
,  // measure 48
0000
0310
1000
0200
0000
1300
1001
0000
,  // measure 49
1000
0100
0010
0100
1000
0001
0100
0010
,  // measure 50
0000
0010
1000
0001
0100
0000
0101
0000
,  // measure 51
0011
0000
0011
0000
0010
0100
2000
0000
,  // measure 52
3020
0000
0032
0000
0023
0000
1030
0001
,  // measure 53
0100
0000
0102
0000
0013
0001
0200
0000
,  // measure 54
0310
1000
0100
1000
2200
0000
3300
0000
,  // measure 55
0110
0000
0011
0000
1000
0001
0100
0000
,  // measure 56
0120
0000
2030
0000
3002
0000
1003
0100
,  // measure 57
1000
0000
1100
0000
0010
0001
0100
0010
,  // measure 58
2000
0000
0001
0000
0000
0010
0000
0000
0100
0000
0000
3100
0000
0000
0000
0000
,  // measure 59
1100
0000
1100
0000
0100
0010
0002
0000
,  // measure 60
0203
0000
2300
0000
3200
0000
0301
1000
,  // measure 61
0010
0000
2010
0000
3100
1000
0020
0000
,  // measure 62
0130
0001
0010
0001
0022
0000
0033
0000
,  // measure 63
0110
0000
1100
0000
0001
1000
0010
0000
,  // measure 64
0210
0000
0302
0000
2003
0000
3001
0010
,  // measure 65
0001
0000
0011
0000
0100
1000
0010
0100
,  // measure 66
0002
0000
1000
0000
0000
1000
0000
0000
1000
0000
0000
1000
0000
0000
1003
0000
,  // measure 67
0010
1000
0010
1000
0100
0001
0100
1000
,  // measure 68
0001
0010
0001
0010
0100
1000
0100
0001
,  // measure 69
0100
1000
0100
1000
0010
0001
0010
1000
,  // measure 70
0001
0100
0001
0100
0010
1000
0010
0001
,  // measure 71
0010
1000
0100
0010
0001
0100
0010
1000
,  // measure 72
0001
0010
0100
1000
0001
0100
0010
1000
,  // measure 73
0010
0100
0010
0100
0001
1000
0001
1000
,  // measure 74
1100
0000
0101
0000
0110
0110
1001
0000
;

//---------------dance-single - DDRDAIKENKAI----------------
#NOTES:
     dance-single:
     DDRDAIKENKAI:
     Medium:
     6:
     0.472,0.492,0.326,0.225,0.000: // measure 1
0000
0000
0000
0000
,  // measure 2
0000
0000
0000
0000
,  // measure 3
0000
0000
0000
0000
,  // measure 4
0000
0000
0000
0000
,  // measure 5
1000
1100
0001
0101
,  // measure 6
1000
1100
0001
0101
,  // measure 7
1000
1100
0001
0101
,  // measure 8
1001
0000
0000
0000
,  // measure 9
1000
1010
0001
0011
,  // measure 10
1000
1010
0001
0011
,  // measure 11
1000
1010
0001
0011
,  // measure 12
1001
1001
1001
1001
,  // measure 13
1000
0100
1000
0000
1000
0001
1000
0000
,  // measure 14
1000
0010
1000
0000
1000
0001
1000
0000
,  // measure 15
1001
1001
0101
0101
,  // measure 16
0001
0010
0100
1000
0001
0000
0000
0000
,  // measure 17
0001
0010
0001
0000
0001
1000
0001
0000
,  // measure 18
0001
0100
0001
0000
0001
1000
0001
0000
,  // measure 19
1001
1001
1010
1010
,  // measure 20
1000
0100
0010
0001
2000
0000
3000
0000
,  // measure 21
0110
0110
1001
1100
,  // measure 22
1001
0101
1001
1000
,  // measure 23
0200
0000
0000
0000
,  // measure 24
0000
0000
0300
0000
,  // measure 25
1100
0000
1100
0000
0010
0001
0100
0000
,  // measure 26
2000
0000
0000
3000
,  // measure 27
0001
1000
0001
0000
0010
0100
1000
0000
,  // measure 28
0001
0100
0001
0000
0100
0010
1000
0000
,  // measure 29
0100
0010
0100
0000
0010
0001
0100
0000
,  // measure 30
0010
1000
0010
0000
1000
0001
0010
0000
,  // measure 31
0100
1000
0100
0000
1000
0010
0100
0000
,  // measure 32
0001
0100
0001
0000
0100
0010
1000
0000
,  // measure 33
0001
1000
0001
0000
0100
0010
0100
0000
,  // measure 34
0220
0000
0330
0000
,  // measure 35
0001
1000
0100
0010
,  // measure 36
0100
1000
0100
1000
0000
1000
0100
0000
,  // measure 37
1000
0010
0100
0001
,  // measure 38
0010
0001
0010
0001
0000
0001
0010
0000
,  // measure 39
0001
0100
0010
1000
,  // measure 40
0010
0100
0010
0100
0000
0100
0010
0000
,  // measure 41
1000
0001
0100
0010
,  // measure 42
1000
0001
1000
0001
0000
0001
1000
0000
,  // measure 43
0001
0000
0010
0000
0100
0000
1000
0010
,  // measure 44
0100
0000
0001
0000
0010
0100
1000
0000
,  // measure 45
0001
0100
0001
0000
1000
0010
1000
0000
,  // measure 46
0010
0100
0010
0000
1000
0001
1000
0000
,  // measure 47
0001
0000
1000
0000
0100
0000
0010
0001
,  // measure 48
0100
0000
0010
0000
1000
0100
0010
0000
,  // measure 49
0001
0010
0001
0000
1000
0100
0000
1000
,  // measure 50
0000
0001
0100
0010
1000
0000
1001
0000
,  // measure 51
1000
0000
1000
0000
0001
0100
0001
0000
,  // measure 52
0020
0000
0001
0000
0031
0000
0001
0100
,  // measure 53
0020
0000
2030
0000
3010
0100
0010
0000
,  // measure 54
0200
0001
0002
0303
,  // measure 55
0001
0000
0001
0000
0100
0010
1000
0000
,  // measure 56
0020
0000
0100
0000
0130
0000
0001
0010
,  // measure 57
0002
0000
2003
0000
3100
0010
0001
0000
,  // measure 58
2002
0000
3003
0000
,  // measure 59
0010
0000
0010
0000
0001
1000
0100
0000
,  // measure 60
2000
0000
0010
0000
3010
0000
0010
0100
,  // measure 61
0002
0000
0023
0000
0031
0100
0010
0000
,  // measure 62
2000
0010
0020
3030
,  // measure 63
0100
0000
0100
0000
0001
0010
0100
0000
,  // measure 64
2000
0000
0001
0000
3001
0000
0001
0010
,  // measure 65
0200
0000
0320
0000
0130
1000
0001
0000
,  // measure 66
2000
3200
0320
0032
,  // measure 67
1003
0001
1000
0000
0100
0010
0001
0000
,  // measure 68
1000
0010
1000
0000
0010
0100
0001
0000
,  // measure 69
0010
0100
0010
0000
0100
1000
0010
0000
,  // measure 70
0100
0001
0100
0000
0001
1000
0100
0000
,  // measure 71
0010
0001
0010
0000
0001
0100
0010
0000
,  // measure 72
1000
0010
1000
0000
0010
0100
0001
0000
,  // measure 73
1000
0001
1000
0000
0010
0100
0010
0000
,  // measure 74
0110
0000
1001
0000
1000
0100
0001
0000
;

//---------------dance-single - DDRDAIKENKAI----------------
#NOTES:
     dance-single:
     DDRDAIKENKAI:
     Beginner:
     1:
     0.202,0.308,0.100,0.100,0.000: // measure 1
0000
0000
0000
0000
,  // measure 2
0000
0000
0000
0000
,  // measure 3
0000
0000
0000
0000
,  // measure 4
0000
0000
0000
0000
,  // measure 5
0000
1000
0000
1000
,  // measure 6
0000
0001
0000
0001
,  // measure 7
0000
1000
0000
0001
,  // measure 8
0000
0000
0000
0000
,  // measure 9
0000
0100
0000
0100
,  // measure 10
0000
0010
0000
0010
,  // measure 11
0000
0100
0000
0100
,  // measure 12
0100
0100
0100
0100
,  // measure 13
0000
1001
0000
1000
,  // measure 14
1000
0000
0001
0000
,  // measure 15
1000
1000
1000
1000
,  // measure 16
1000
0000
0001
0000
,  // measure 17
1000
1000
0000
0010
,  // measure 18
0010
0000
0100
0000
,  // measure 19
0001
0001
0001
0001
,  // measure 20
0002
0000
0003
0000
,  // measure 21
1001
0000
0110
0000
,  // measure 22
1001
0000
0110
0000
,  // measure 23
2002
0000
0000
0000
,  // measure 24
0000
0000
3003
0000
,  // measure 25
0100
0100
0100
0100
,  // measure 26
0000
0000
0000
0000
,  // measure 27
0010
0000
1000
0000
,  // measure 28
0001
0000
1000
0000
,  // measure 29
0100
0000
0010
0000
,  // measure 30
0001
0000
0100
0000
,  // measure 31
0010
0000
1000
0000
,  // measure 32
0001
0000
1000
0000
,  // measure 33
0100
0000
0010
0000
,  // measure 34
0001
0000
1001
0000
,  // measure 35
0000
0100
0000
0100
,  // measure 36
0000
0001
0001
0001
,  // measure 37
0000
1000
0000
1000
,  // measure 38
0000
0100
0100
0100
,  // measure 39
0000
0010
0000
0010
,  // measure 40
0000
0001
0001
0001
,  // measure 41
0000
1000
0000
0001
,  // measure 42
0000
0100
0100
0100
,  // measure 43
0000
0001
0000
1000
,  // measure 44
0000
0001
0000
1000
,  // measure 45
0000
0010
0010
0010
,  // measure 46
0000
0100
0100
0100
,  // measure 47
0000
0001
0000
1000
,  // measure 48
0000
0001
0000
1000
,  // measure 49
0000
0100
0100
0100
,  // measure 50
0000
0010
0010
0010
,  // measure 51
0010
0000
0001
0000
,  // measure 52
2000
0000
3000
0000
,  // measure 53
0001
0000
1000
0000
,  // measure 54
0200
0000
0300
0000
,  // measure 55
0010
0000
0001
0000
,  // measure 56
0020
0000
0030
0000
,  // measure 57
0001
0000
1000
0000
,  // measure 58
0200
0000
0300
0000
,  // measure 59
1000
0000
0001
0000
,  // measure 60
0020
0000
0030
0000
,  // measure 61
0001
0000
1000
0000
,  // measure 62
0200
0000
0300
0000
,  // measure 63
1000
0000
0010
0000
,  // measure 64
0200
0000
0300
0000
,  // measure 65
0010
0000
1000
0000
,  // measure 66
2002
0000
3003
0000
,  // measure 67
0001
0000
1000
0000
,  // measure 68
0100
0000
1000
0000
,  // measure 69
0001
0000
0100
0000
,  // measure 70
0010
0000
0100
0000
,  // measure 71
0001
0001
0001
0000
,  // measure 72
1000
1000
1000
0000
,  // measure 73
0010
0000
0100
0000
,  // measure 74
0110
0110
0110
0110
;

//---------------dance-single - DDRDAIKENKAI----------------
#NOTES:
     dance-single:
     DDRDAIKENKAI:
     Easy:
     4:
     0.327,0.462,0.351,0.192,0.000: // measure 1
0000
0000
0000
0000
,  // measure 2
0000
0000
0000
0000
,  // measure 3
0000
0000
0000
0000
,  // measure 4
0000
0000
0000
0000
,  // measure 5
1000
1100
0000
0101
,  // measure 6
0000
0011
0000
1010
,  // measure 7
0000
1100
0000
1001
,  // measure 8
1001
0000
0000
0000
,  // measure 9
1000
1010
0000
0011
,  // measure 10
0000
0101
0000
1100
,  // measure 11
0000
1010
0000
1001
,  // measure 12
1001
1001
1001
1001
,  // measure 13
0001
0100
0010
1000
,  // measure 14
0100
1000
0010
0100
,  // measure 15
0010
0010
1000
1000
,  // measure 16
0001
1000
0100
0010
,  // measure 17
0001
0100
1000
0100
,  // measure 18
0001
0010
1000
0010
,  // measure 19
0001
0001
1000
1000
,  // measure 20
0220
0000
0330
0000
,  // measure 21
1001
1001
1001
0110
,  // measure 22
1001
0110
1001
0000
,  // measure 23
0200
0000
0000
0000
,  // measure 24
0000
0000
0300
0000
,  // measure 25
0110
0110
0110
1001
,  // measure 26
0000
0000
0000
0000
,  // measure 27
1000
0100
0001
0100
,  // measure 28
1000
0010
0001
0010
,  // measure 29
1000
0100
0001
0100
,  // measure 30
1000
0010
0001
0010
,  // measure 31
1000
0100
0010
0001
,  // measure 32
1000
0010
0100
0001
,  // measure 33
1000
1000
0001
0001
,  // measure 34
0220
0000
0330
0000
,  // measure 35
0001
0010
0001
0100
,  // measure 36
0002
0000
0003
0000
,  // measure 37
1000
0100
1000
0010
,  // measure 38
2000
0000
3000
0000
,  // measure 39
0010
0001
0010
0100
,  // measure 40
0020
0000
0030
0000
,  // measure 41
0100
1000
0100
0010
,  // measure 42
0200
0000
0300
0000
,  // measure 43
0001
0010
0100
1000
,  // measure 44
0010
0100
0001
1000
,  // measure 45
0100
0010
0001
0100
,  // measure 46
0002
0000
0003
0000
,  // measure 47
1000
0010
0100
0001
,  // measure 48
0010
0100
1000
0010
,  // measure 49
0100
0001
1001
0000
,  // measure 50
0001
0100
0010
0110
,  // measure 51
1001
0001
0100
0010
,  // measure 52
0220
0000
0330
0000
,  // measure 53
0001
0100
0010
1000
,  // measure 54
0002
0000
0003
0000
,  // measure 55
1000
0001
0100
0010
,  // measure 56
0220
0000
0330
0000
,  // measure 57
1000
0001
1000
0010
,  // measure 58
0200
0000
0300
0000
,  // measure 59
0001
0010
0001
1000
,  // measure 60
2002
0000
3003
0000
,  // measure 61
1000
0001
0010
0100
,  // measure 62
2000
0000
3000
0000
,  // measure 63
0001
1000
0100
1000
,  // measure 64
2002
0000
3003
0000
,  // measure 65
1000
0001
0100
0010
,  // measure 66
0220
0000
0330
0000
,  // measure 67
0010
1000
0100
1000
,  // measure 68
0010
0001
0100
0001
,  // measure 69
0010
1000
0100
1000
,  // measure 70
0010
0001
0100
0001
,  // measure 71
0010
0010
0100
0100
,  // measure 72
1000
1000
0001
0001
,  // measure 73
0100
0100
0010
0010
,  // measure 74
1001
1001
0110
1001
;
