#TITLE:Sing;
#SUBTITLE:;
#ARTIST:Pentatonix;
#TITLETRANSLIT:;
#SUBTITLETRANSLIT:;
#ARTISTTRANSLIT:;
#GENRE:POP-CAPELLA;
#CREDIT:;
#MENUCOLOR:;
#NEWMETERSYSTEM:NO;
#BANNER:Sing.png;
#BACKGROUND:Sing-bg.png;
#LYRICSPATH:;
#CDTITLE:CDTitle.png;
#MUSIC:Sing.ogg;
#OFFSET:-1.548;
#SAMPLESTART:41.815;
#SAMPLELENGTH:12.800;
#SELECTABLE:YES;
#LISTSORT:;
#BPMS:0.000=155.000;
#STOPS:;
#BGCHANGES:;
#ATTACKS:;

//---------------dance-single - DDRDAIKENKAI----------------
#NOTES:
     dance-single:
     DDRDAIKENKAI:
     Hard:
     9:
     0.665,0.864,0.414,0.580,0.087: // measure 1
0000
0000
0000
0000
,  // measure 2
0000
0000
0000
0000
,  // measure 3
0000
1000
0100
0001
0100
1000
0010
0001
,  // measure 4
0010
2000
0000
3002
0000
0010
0010
0013
,  // measure 5
0100
1000
0010
0001
0010
1000
0100
0001
,  // measure 6
0100
2000
0000
3002
0000
0100
0100
0103
,  // measure 7
0110
0000
0000
0000
0000
0010
1000
0001
,  // measure 8
1001
0000
0000
0000
0000
0001
1000
0100
,  // measure 9
0020
0000
0032
0203
2300
3200
0320
2030
,  // measure 10
3200
0310
0000
0012
0000
1000
1000
1000
,  // measure 11
1003
0100
1000
0001
0010
0100
1000
0001
,  // measure 12
0100
0002
0000
2003
0000
0001
0001
0001
,  // measure 13
3001
1000
0100
0010
0001
0100
0010
1000
,  // measure 14
0100
2000
0000
3002
0000
0013
0010
0100
,  // measure 15
1100
0000
0000
0000
0000
0010
0010
0100
,  // measure 16
0101
0000
0000
0000
0000
0001
0001
1000
,  // measure 17
0200
0000
2300
3020
0230
0302
0203
0320
,  // measure 18
1030
0000
0001
0000
1000
0000
0100
0000
0010
0000
0100
0000
1000
0000
0001
0000
1000
0000
0100
0000
0000
0100
0000
0000
,  // measure 19
0100
0010
0100
1000
0100
0001
0100
1000
,  // measure 20
0001
0100
0010
0100
1000
0100
0001
0100
,  // measure 21
0010
1000
0010
0001
0010
0100
0010
1000
,  // measure 22
1100
0000
0011
0000
0100
0001
0200
0000
,  // measure 23
0302
0023
2030
3200
,  // measure 24
0302
0000
0023
0000
2030
0000
3100
0001
,  // measure 25
0101
0000
0001
0010
1010
0000
1000
0100
,  // measure 26
0001
0100
1000
0010
0001
0010
0110
0000
,  // measure 27
2010
3001
0012
1003
,  // measure 28
2100
3001
0102
1003
,  // measure 29
0010
1000
0100
0010
0001
0100
0010
1000
,  // measure 30
0200
1300
0011
1010
,  // measure 31
0001
0100
0010
1000
0010
0100
0001
0010
,  // measure 32
1000
0010
0001
1000
0100
0001
0100
0000
,  // measure 33
1100
0100
1000
0010
0100
0001
1000
0000
,  // measure 34
0011
0010
0001
0100
0010
1000
0001
1000
,  // measure 35
1200
0310
0102
1003
,  // measure 36
0021
0130
2010
3100
,  // measure 37
0001
0010
0100
1000
0010
0100
0001
0010
,  // measure 38
0200
1300
1010
0011
,  // measure 39
1000
0100
0010
0001
0100
0010
1000
0100
,  // measure 40
0010
0001
0010
0001
0100
0010
1000
0000
,  // measure 41
1001
0100
0010
1000
0001
0100
0110
0000
,  // measure 42
1001
0010
0100
0001
1000
0010
0110
0000
,  // measure 43
1001
0000
0001
1000
0001
0000
0100
0000
0020
0000
1000
0000
1030
0000
0100
0000
,  // measure 44
1100
0000
0100
1000
0100
0000
0010
0000
0002
0000
1000
0000
1003
0000
0100
0000
,  // measure 45
1100
0000
1000
0001
1000
0000
0001
0000
0101
0000
0000
0000
0110
0000
0010
0100
,  // measure 46
0001
0000
0010
0000
1000
0000
0010
0100
0010
0100
0010
0000
0110
0000
0000
0000
,  // measure 47
1001
0000
1000
0000
0010
0000
0100
0001
2000
0000
3020
0000
0032
0000
0013
0000
,  // measure 48
1010
0000
1000
0100
1000
0000
0100
0000
0002
0000
0023
0000
0230
0000
0301
0000
,  // measure 49
0101
0000
0001
0100
0001
0000
0001
1000
0100
1000
0100
0000
0110
0000
0010
0001
,  // measure 50
0100
1000
0100
0001
0010
1000
0010
0001
,  // measure 51
0200
0000
0320
0000
,  // measure 52
2030
0000
0000
0000
3002
0000
0000
0023
,  // measure 53
0000
0031
1000
0100
0010
0100
1000
0002
,  // measure 54
0000
0000
0003
0000
1000
0010
0000
2000
,  // measure 55
0000
3001
0010
0001
0100
0010
1000
0200
,  // measure 56
0000
1300
0001
0010
0100
0010
0002
0000
,  // measure 57
1003
0100
1000
0001
0100
0010
1000
0000
,  // measure 58
0001
0010
0001
1000
0010
0100
0001
0010
,  // measure 59
0012
0000
1003
0000
1100
0100
1000
0010
,  // measure 60
1020
0000
0130
0000
0101
0001
0010
0001
,  // measure 61
1000
0100
1000
0001
0010
0100
1000
0001
,  // measure 62
2000
3010
0101
1100
,  // measure 63
1000
0100
1000
0010
0001
0010
1000
0001
,  // measure 64
1000
0100
0010
0001
0100
0010
1000
0000
,  // measure 65
1100
0100
0010
0110
0100
1000
1002
0000
,  // measure 66
1003
0000
0001
0000
0100
0010
0100
0000
0001
0000
1000
0000
0010
0000
0000
0000
,  // measure 67
1010
0010
0100
0101
0001
0100
0210
0000
,  // measure 68
0302
0000
0000
1003
0100
0010
0100
0000
0010
0000
0001
0000
2000
0000
0000
0000
,  // measure 69
3200
0000
0000
0000
,  // measure 70
0000
0000
0000
0000
,  // measure 71
2300
0000
0000
0000
,  // measure 72
0000
0000
0000
0000
,  // measure 73
3002
0000
0000
0000
,  // measure 74
0000
0000
0000
0000
,  // measure 75
0203
0000
0000
0000
0000
0000
0000
0000
0000
0000
0000
0000
0000
0000
0000
0000
0000
0000
0000
0000
0000
0000
0000
0000
0000
0000
0000
0000
0000
0000
0000
0000
0000
0000
0000
0000
0000
0000
0000
0000
0000
0000
0000
0000
0000
0000
0000
0000
0000
0000
0000
0000
0000
0000
0000
0000
0000
0000
0000
0000
0000
0000
0000
0000
0000
0000
0000
0000
0000
0000
0000
0000
0000
0000
0000
0000
0000
0000
0000
0000
0000
0000
0000
0000
0000
0000
0000
0000
0000
0000
0000
0000
0000
0000
0000
0000
0000
0300
0000
0000
0000
0000
0000
0000
0000
0000
0000
0000
0000
0000
0000
0000
0000
0000
0000
0000
0000
0000
0000
0000
0000
0000
0000
0000
0000
0000
0000
0000
0000
0000
0000
0000
0000
0000
0000
0000
0000
0000
0000
0000
0000
0000
0000
0000
0000
0000
0000
0000
0000
0000
0000
0000
0000
0000
0000
0000
0000
0000
0000
0000
0000
0000
0000
0000
0000
0000
0000
0000
0000
0000
0000
0000
0000
0000
0000
0000
0000
0000
0000
0000
0000
0000
0000
0000
0000
0000
0000
0000
0000
0000
0000
0000
;

//---------------dance-single - DDRDAIKENKAI----------------
#NOTES:
     dance-single:
     DDRDAIKENKAI:
     Medium:
     6:
     0.480,0.555,0.265,0.538,0.000: // measure 1
0000
0000
0000
0000
,  // measure 2
0000
0000
0000
0000
,  // measure 3
0000
1000
0100
0000
0010
0001
0000
0100
,  // measure 4
0010
2000
0000
3002
0000
0100
0103
0000
,  // measure 5
0000
0001
0010
0000
0001
0100
0000
0010
,  // measure 6
1000
0100
0000
2000
0000
0010
3010
0000
,  // measure 7
0110
0000
0000
0000
0000
0100
0001
0000
,  // measure 8
1001
0000
0000
0000
0000
1000
0100
0000
,  // measure 9
0020
0001
0100
1000
,  // measure 10
0100
0100
0000
0200
0000
0000
0330
0000
,  // measure 11
1000
0000
0001
0000
0100
0010
0000
0100
,  // measure 12
0001
1000
0000
0100
0000
1000
1000
0000
,  // measure 13
0001
0000
0010
0000
0001
1000
0000
0010
,  // measure 14
1000
0001
0000
0200
0000
0010
0310
0000
,  // measure 15
0110
0000
0000
0000
0000
0100
0001
0000
,  // measure 16
1001
0000
0000
0000
0000
0001
1000
0000
,  // measure 17
0200
0010
1000
0001
,  // measure 18
0010
0010
0000
0020
0000
0000
0330
0000
,  // measure 19
0010
0000
0001
0000
0100
0001
0010
0000
,  // measure 20
0100
0000
1000
0000
0010
1000
0100
0000
,  // measure 21
0001
0000
0100
0000
1000
0010
0001
0000
,  // measure 22
0020
0000
2030
0000
3100
0100
0002
0000
,  // measure 23
0023
0032
0203
2300
,  // measure 24
3020
0032
0203
1300
,  // measure 25
1010
1010
0011
0011
,  // measure 26
0110
0110
2002
3003
,  // measure 27
2000
0100
3002
0010
,  // measure 28
0203
0010
0302
0013
,  // measure 29
0100
1000
0100
0000
1000
0001
1000
0000
,  // measure 30
0002
0000
0103
0000
0010
1000
0100
0000
,  // measure 31
1000
0010
1000
0000
0001
0010
0001
0000
,  // measure 32
0100
0010
0100
0010
1000
0001
1000
0000
,  // measure 33
0200
0000
1000
2300
0000
0001
3002
0000
,  // measure 34
0100
0203
0000
0010
0310
0000
0110
0000
,  // measure 35
2000
0010
3200
0010
,  // measure 36
2300
0001
3020
1030
,  // measure 37
0010
1000
0100
0000
0001
0100
1000
0000
,  // measure 38
0002
0000
1003
0000
1000
0001
1000
0000
,  // measure 39
0001
0010
0100
0000
0010
0001
0100
0000
,  // measure 40
0010
1000
0100
1000
0100
0010
0001
0000
,  // measure 41
0020
0000
0001
0032
0000
0100
0203
0000
,  // measure 42
1000
2300
0000
0010
3010
0000
0110
0000
,  // measure 43
1010
0000
0000
1000
0002
0000
0000
1003
,  // measure 44
1100
0000
0000
1000
0020
0000
0000
0130
,  // measure 45
0101
0000
0000
0010
0011
0000
0000
0001
,  // measure 46
1001
0000
0110
0000
1000
1000
1000
0000
,  // measure 47
1001
0000
0000
0100
0020
0000
0000
1030
,  // measure 48
1100
0000
0000
1000
0002
0000
0000
0013
,  // measure 49
0110
0000
1000
0010
1010
0000
0100
0001
,  // measure 50
1000
0100
1000
0100
1000
1000
1000
0001
,  // measure 51
0200
0000
0302
0000
,  // measure 52
2003
0000
0000
0000
3200
0000
0000
0320
,  // measure 53
0000
0031
0100
0000
0001
0000
0010
0100
,  // measure 54
0000
0000
0000
0000
1000
0010
0000
2000
,  // measure 55
0000
0000
3100
0000
0010
0000
0001
1000
,  // measure 56
0000
0100
1000
0000
0001
0100
0001
0000
,  // measure 57
0012
0000
0000
0103
0000
0000
2010
0000
,  // measure 58
0000
3001
0000
0000
0110
0000
1001
0000
,  // measure 59
2010
3001
0200
0301
,  // measure 60
2000
3100
0020
0031
,  // measure 61
0100
0001
0010
0000
0100
1000
0010
0000
,  // measure 62
0110
0000
0000
0000
0100
0010
0100
0000
,  // measure 63
0010
1000
0100
0000
0010
0001
0100
0000
,  // measure 64
0010
0100
0010
0100
0001
1000
0001
0000
,  // measure 65
2000
0000
0010
3020
0000
1000
2030
0000
,  // measure 66
0001
3002
0000
0103
0101
0000
1100
0000
,  // measure 67
0012
0000
0010
0023
0000
0100
0230
0000
,  // measure 68
1300
0001
1000
0001
0100
0010
0100
0000
,  // measure 69
0020
0000
0000
0000
,  // measure 70
0000
0000
0000
0000
,  // measure 71
0032
0000
0000
0000
,  // measure 72
0000
0000
0000
0000
,  // measure 73
0203
0000
0000
0000
,  // measure 74
0000
0000
0000
0000
,  // measure 75
2300
0000
0000
0000
0000
0000
0000
0000
0000
0000
0000
0000
0000
0000
0000
0000
0000
0000
0000
0000
0000
0000
0000
0000
0000
0000
0000
0000
0000
0000
0000
0000
0000
0000
0000
0000
0000
0000
0000
0000
0000
0000
0000
0000
0000
0000
0000
0000
0000
0000
0000
0000
0000
0000
0000
0000
0000
0000
0000
0000
0000
0000
0000
0000
0000
0000
0000
0000
0000
0000
0000
0000
0000
0000
0000
0000
0000
0000
0000
0000
0000
0000
0000
0000
0000
0000
0000
0000
0000
0000
0000
0000
0000
0000
0000
0000
0000
3000
0000
0000
0000
0000
0000
0000
0000
0000
0000
0000
0000
0000
0000
0000
0000
0000
0000
0000
0000
0000
0000
0000
0000
0000
0000
0000
0000
0000
0000
0000
0000
0000
0000
0000
0000
0000
0000
0000
0000
0000
0000
0000
0000
0000
0000
0000
0000
0000
0000
0000
0000
0000
0000
0000
0000
0000
0000
0000
0000
0000
0000
0000
0000
0000
0000
0000
0000
0000
0000
0000
0000
0000
0000
0000
0000
0000
0000
0000
0000
0000
0000
0000
0000
0000
0000
0000
0000
0000
0000
0000
0000
0000
0000
0000
;

//---------------dance-single - DDRDAIKENKAI----------------
#NOTES:
     dance-single:
     DDRDAIKENKAI:
     Easy:
     3:
     0.289,0.401,0.166,0.464,0.000: // measure 1
0000
0000
0000
0000
,  // measure 2
0000
0000
0000
0000
,  // measure 3
1000
0000
0001
0000
,  // measure 4
0100
0010
1000
0000
,  // measure 5
0001
0000
1000
0000
,  // measure 6
0010
0100
0001
0000
,  // measure 7
1001
0000
0000
0000
,  // measure 8
0110
0000
0000
0000
,  // measure 9
2002
0000
0000
0000
,  // measure 10
0000
0000
3003
0000
,  // measure 11
1000
1000
0001
0000
,  // measure 12
0100
0001
1000
0000
,  // measure 13
0001
0001
1000
0000
,  // measure 14
0100
1000
0001
0000
,  // measure 15
1001
0000
0000
0000
,  // measure 16
0110
0000
0000
0000
,  // measure 17
2002
0000
0000
0000
,  // measure 18
0000
0000
3003
0000
,  // measure 19
1000
1000
0100
0100
,  // measure 20
0010
0010
0001
0001
,  // measure 21
1000
1000
0010
0010
,  // measure 22
0100
0100
0001
0001
,  // measure 23
0010
1000
0010
0001
,  // measure 24
0100
1000
0100
0001
,  // measure 25
0100
0100
0010
0010
,  // measure 26
0110
0110
2002
3003
,  // measure 27
2000
0000
3002
0000
,  // measure 28
0203
0000
0320
0000
,  // measure 29
1030
0100
0010
0001
,  // measure 30
0100
0000
0001
0001
,  // measure 31
0010
0001
0100
0010
,  // measure 32
1000
0000
0100
0100
,  // measure 33
2000
0000
0000
3020
0000
0000
0230
0000
,  // measure 34
0000
0302
0000
0000
1003
0000
1000
0000
,  // measure 35
2000
0000
3200
0000
,  // measure 36
0320
0000
0032
0000
,  // measure 37
1003
0001
0100
0010
,  // measure 38
1000
0000
0001
0001
,  // measure 39
1000
0010
0100
0001
,  // measure 40
1000
0001
0100
0100
,  // measure 41
0020
0000
0000
2030
0000
0000
3200
0000
,  // measure 42
0000
0320
0000
0000
0031
0000
0100
0000
,  // measure 43
0220
0000
0330
0000
,  // measure 44
2002
0000
3003
0000
,  // measure 45
2000
3000
0002
0003
,  // measure 46
0100
0100
0010
0010
,  // measure 47
0220
0000
0330
0000
,  // measure 48
2002
0000
3003
0000
,  // measure 49
1001
0000
1001
0000
,  // measure 50
0110
0110
0110
0110
,  // measure 51
0200
0000
0000
0000
,  // measure 52
0000
0000
0000
0000
,  // measure 53
0302
0000
0000
0000
,  // measure 54
0000
0000
0000
0000
,  // measure 55
2003
0000
0000
0000
,  // measure 56
0000
0000
0000
0000
,  // measure 57
3020
0000
0000
0032
0000
0000
0023
0000
,  // measure 58
0000
2030
0000
0000
3200
0000
0310
0000
,  // measure 59
0120
0000
0032
0000
,  // measure 60
2003
0000
3020
0000
,  // measure 61
0130
0010
0100
0001
,  // measure 62
1000
0000
0001
1000
,  // measure 63
0010
0100
0010
1000
,  // measure 64
0001
1000
1000
1000
,  // measure 65
0200
0000
0000
2300
0000
0000
3002
0000
,  // measure 66
0000
0203
0000
0000
0310
0000
0010
0000
,  // measure 67
0200
0000
0000
0302
0000
0000
2003
0000
,  // measure 68
0000
3200
0000
0000
1300
0000
1000
0000
,  // measure 69
0002
0000
0000
0000
,  // measure 70
0000
0000
0000
0000
,  // measure 71
0203
0000
0000
0000
,  // measure 72
0000
0000
0000
0000
,  // measure 73
0320
0000
0000
0000
,  // measure 74
0000
0000
0000
0000
,  // measure 75
2030
0000
3000
0000
;
