#TITLE:Sense 2007;
#SUBTITLE:;
#ARTIST:good-cool;
#TITLETRANSLIT:;
#SUBTITLETRANSLIT:;
#ARTISTTRANSLIT:;
#GENRE:Rave;
#CREDIT:;
#MENUCOLOR:;
#NEWMETERSYSTEM:NO;
#BANNER:Sense 2007.png;
#BACKGROUND:Sense 2007-bg.png;
#LYRICSPATH:;
#CDTITLE:cdtitle.png;
#MUSIC:Sense 2007.mp3;
#OFFSET:-0.375;
#SAMPLESTART:32.730;
#SAMPLELENGTH:13.180;
#SELECTABLE:YES;
#LISTSORT:;
#BPMS:0.000=140.000,137.000=35.000,141.000=70.000,149.000=140.000;
#STOPS:8.000=1.286
;
#BGCHANGES:;
#ATTACKS:;

//---------------dance-single - ddrace----------------
#NOTES:
     dance-single:
     ddrace:
     Challenge:
     12:
     1.000,1.000,1.000,0.083,1.000: // measure 1
1001
1000
0100
0010
1001
1000
0100
0010
,  // measure 2
1001
0000
0000
0000
0101
0000
0000
0000
0110
0000
0000
0000
1010
0000
0000
0000
1001
0000
1000
0000
0001
0000
1000
0000
0001
1000
0001
1000
0001
1000
0001
1000
,  // measure 3
0002
0003
0000
0000
1001
0000
1010
0100
0000
0100
1010
0000
0000
1010
0100
0000
,  // measure 4
0010
0000
0001
0000
0000
1100
0011
1100
0000
1100
0000
0000
0000
0100
1010
0000
,  // measure 5
0101
0000
1010
0000
0000
0000
0101
0010
0000
0010
0101
0000
0000
0101
0010
0000
,  // measure 6
0100
0000
1000
0000
0000
0101
1010
0101
1010
0101
0000
0101
0000
0010
1100
0000
,  // measure 7
0011
0000
1100
1100
1001
0000
0011
1000
0000
1000
0011
0000
0000
0011
1000
0000
,  // measure 8
0100
0000
0010
0000
0000
1010
0101
1010
0000
1010
0000
0000
0000
1000
0011
0000
,  // measure 9
1100
0000
0011
0000
0000
0000
1100
0001
0000
0001
1100
0000
0000
1100
0001
0000
,  // measure 10
0010
0000
0100
0000
1001
0110
1001
0110
1001
0110
1001
0110
1001
0110
1001
0110
,  // measure 11
0011
0011
0011
0011
1001
0000
0010
0100
1000
0001
0100
0001
1000
0001
0010
0100
,  // measure 12
1000
0001
0100
0001
1000
0001
0100
0010
1000
0001
0100
0001
1000
0001
0100
0010
,  // measure 13
1000
0001
0100
0001
1000
0001
0010
0100
1000
0001
0100
0001
1000
0001
0010
0100
,  // measure 14
1000
0001
0100
0001
1100
0000
1100
0010
0000
0010
1100
0000
0010
0100
0001
0010
,  // measure 15
0100
1000
0010
0100
1001
0000
0010
0100
0001
1000
0100
1000
0010
0100
0001
0100
,  // measure 16
0010
0100
0001
0100
0010
1000
0100
1000
0100
0010
0001
0100
0010
1000
0010
0100
,  // measure 17
0010
1000
0010
0000
1001
0011
0110
1100
1001
1010
0110
0101
1001
0101
0110
1010
,  // measure 18
1001
1100
0110
0011
2002
0000
0000
0000
0000
0000
0000
0000
0000
0000
0000
0000
,  // measure 19
3003
0000
0110
0110
1001
0000
0010
0100
0001
1000
0001
0100
0010
0100
0001
1000
,  // measure 20
0100
0010
0001
1000
0001
0010
0100
0010
0001
1000
0010
0100
0001
1000
0001
0100
,  // measure 21
0001
0010
0100
1000
0001
1000
0010
1000
0001
1000
0010
1000
0100
1000
0010
1000
,  // measure 22
0001
1000
0010
1000
0101
0010
1000
0001
1100
0010
0001
0100
1010
0001
1000
0100
,  // measure 23
0011
0011
0011
0011
0011
1000
0010
1000
0001
1000
0010
1000
0100
1000
0010
1000
,  // measure 24
0001
1000
0010
1000
0001
0100
0001
1000
0010
1000
0001
0010
0001
1000
0010
1000
,  // measure 25
0001
0100
0001
1000
0110
0000
0101
0000
0011
0000
1001
0000
1100
0000
0011
0000
,  // measure 26
1010
0000
0101
0000
0011
0110
1100
1001
0101
0110
1010
1001
1100
0110
0011
0101
,  // measure 27
1001
0011
0110
1100
2002
0000
0000
0000
3003
0000
1100
0000
0011
0000
1100
0011
,  // measure 28
0000
0011
1100
0000
0101
0000
1010
0101
0000
0101
1010
0000
1100
0000
0011
0000
,  // measure 29
1010
0000
0101
0000
0000
0000
1001
0000
0000
0000
0011
0000
1100
0000
0011
1100
,  // measure 30
0000
1100
0011
0000
1010
0000
1010
0101
0000
0101
1010
0000
1001
0110
1001
0110
,  // measure 31
1001
0110
1001
0110
2001
0002
3003
0000
1100
0000
0011
0000
1001
0000
0101
1010
,  // measure 32
0000
1010
0101
0000
0011
0000
0011
1100
0000
1100
0011
0000
0101
0000
1010
0000
,  // measure 33
0011
1100
1001
0101
1001
1100
1001
0011
,  // measure 34
1001
0000
1100
0000
1001
0110
1001
0110
1001
0110
1001
0110
1001
0110
1001
0110
,  // measure 35
1001
0000
0110
0000
1001
0000
0110
0000
1001
0001
0001
0000
0000
0000
0000
0000
0100
0100
0100
0000
0000
0000
0000
0000
0010
0010
0010
0000
0000
0000
0000
0000
,  // measure 36
1002
1000
1000
0000
0000
0000
0000
0000
0013
0000
0100
1000
0101
0000
1000
0001
1000
0000
0001
1000
0001
0000
0001
0100
1010
0000
1010
0001
1000
0000
1000
0001
,  // measure 37
1000
0000
0000
0000
0000
0000
0000
0000
0000
0000
0000
0000
1000
0000
0000
0000
0000
0000
0100
0000
0000
0000
0000
0000
0011
0000
0000
0000
0000
0000
0000
0000
0000
0000
0000
0000
0001
0000
0000
0000
0000
0000
1000
0000
0000
0000
0000
0000
0101
0000
0000
0000
0000
0000
0000
0000
0000
0000
0000
0000
0101
0000
0000
0000
0000
0000
1000
0000
0000
0000
0000
0000
0001
0000
0000
0000
0000
0000
0000
0000
0000
0000
0000
0000
0001
0000
0000
0000
0000
0000
0100
0000
0000
0000
0000
0000
1010
0000
0000
0000
0000
0000
0000
0000
0000
0000
0000
0000
0100
0000
0000
0000
0000
0000
0010
0000
0000
0000
0000
0000
0100
0000
0000
0000
0000
0000
0000
0000
0000
0000
0000
0000
0010
0000
0000
0000
0000
0000
0100
0000
0000
0000
0000
0000
1001
0000
0000
0000
0000
0000
0000
0000
0000
0000
0000
0000
0100
0000
0000
0000
0000
0000
0000
0000
0000
0000
0000
0000
0010
0000
0000
0000
1000
0000
0000
0000
0001
0000
0000
0000
1000
0000
0000
0000
0001
0000
0000
0000
0000
0000
0000
0000
,  // measure 38
1100
0011
1100
0011
1001
1010
0101
1010
1001
0000
0000
0000
0100
0000
0001
0000
0010
0000
0100
0000
1000
0000
0001
0000
0100
0000
0001
0000
1000
0000
0010
0000
,  // measure 39
0100
0001
1000
0100
0010
0100
1000
0001
0100
0001
1000
0010
0100
0001
1000
0100
,  // measure 40
0010
0100
1000
0001
1000
0010
0100
0001
1000
0010
1000
0001
0010
0100
1000
0001
,  // measure 41
0010
0100
0010
0001
1010
0000
0101
0000
1001
0000
1010
0000
1100
0000
1001
0000
,  // measure 42
0101
0000
0010
0100
1001
0000
0010
1000
0100
0010
0001
1000
0010
1000
0001
0100
,  // measure 43
0010
1000
0001
0010
0100
0010
0001
1000
0010
1000
0001
0100
0010
1000
0001
0010
,  // measure 44
0100
0010
0001
1000
0001
0100
0010
1000
0001
0100
0001
1000
0100
0010
0001
1000
,  // measure 45
0100
0010
0100
1000
0101
0001
0011
0001
1001
0001
0011
0001
0101
1010
1001
1100
,  // measure 46
0011
0101
1010
0110
1001
0000
0010
0100
0001
1000
0001
0100
0001
1000
0010
0100
,  // measure 47
1010
0100
0001
0010
0100
1000
0010
0001
0010
1000
0100
0001
0100
1000
0001
0010
,  // measure 48
0101
0010
1000
0100
0010
0001
0100
1000
0100
0001
0010
1000
0010
0001
1000
0100
,  // measure 49
0011
0100
1000
0010
0101
0101
0011
0011
1001
1001
0110
0110
1010
1010
1100
1100
,  // measure 50
0101
0101
0011
0011
1001
0000
0100
0010
1000
0001
1000
0010
1000
0001
0100
0010
,  // measure 51
0101
0010
0100
0001
0010
0100
1000
0001
1000
0001
0010
0100
1000
0010
0100
0001
,  // measure 52
1010
0001
1000
0001
1100
0000
0011
0000
0101
0000
1010
0000
0110
0000
1001
0000
,  // measure 53
0101
0000
0011
0000
1100
1100
1010
1010
1010
1010
0110
0110
0110
0101
0101
0101
,  // measure 54
0011
0011
0011
0011
1001
0000
0000
1100
1100
0000
0011
0011
0000
0101
1010
0000
,  // measure 55
1010
0000
1010
0000
0011
0011
0000
1100
1100
0000
0110
0110
0000
0011
1100
0000
,  // measure 56
0101
0000
0101
0000
1010
1010
0000
0101
0101
0000
0011
1100
0000
1100
0011
0000
,  // measure 57
1010
0000
0101
0000
1010
0100
0001
1000
0011
0100
1000
0010
0101
1000
0001
0010
,  // measure 58
1001
0000
0110
0110
1001
0000
0000
0011
0011
0000
1100
1100
0000
1010
0101
0000
,  // measure 59
0101
0000
0101
0000
1100
1100
0000
0011
0011
0000
0110
0110
0000
1100
0011
0000
,  // measure 60
1010
1010
1100
0011
0101
1010
0110
1001
,  // measure 61
1010
0000
0101
0000
0011
0110
1100
1010
0110
0101
0011
0110
1100
0110
1001
0110
,  // measure 62
1001
0110
1001
0110
2002
0000
0000
0000
0000
0000
0000
0000
0000
0000
0000
0000
,  // measure 63
0000
0000
3003
0000
;

//---------------dance-single - DDRDAIKENKAI----------------
#NOTES:
     dance-single:
     DDRDAIKENKAI:
     Hard:
     10:
     0.985,1.000,0.887,0.522,1.000: // measure 1
1001
0100
0010
0001
1001
0100
0010
0001
,  // measure 2
1000
0100
0010
0001
1000
0100
0010
0001
1000
0100
0010
0001
1000
0001
1000
0001
,  // measure 3
2002
3003
0000
0000
1001
0000
0001
0000
1000
0100
1000
0000
0010
0100
0001
0000
,  // measure 4
0201
0000
0301
0000
0010
0001
0010
0001
0100
0010
0100
0000
0010
1000
0100
0000
,  // measure 5
2100
0000
3100
0000
0010
0001
0010
0000
0100
1000
0100
0000
1000
0001
0100
0000
,  // measure 6
0201
0000
0301
0000
1000
0100
1000
0100
1000
0100
0000
0010
0000
0001
0010
0000
,  // measure 7
0100
0000
1000
0000
2010
0000
3010
0000
0100
0001
0100
0000
0010
1000
0010
0000
,  // measure 8
0210
0000
0310
0000
1000
0100
1000
0100
1000
0010
0100
0000
0010
0100
0001
0000
,  // measure 9
0201
0000
0301
0000
0010
0000
0100
0000
1000
0100
0010
0000
0001
0010
0100
0000
,  // measure 10
2100
0000
3001
0000
1000
0100
1000
0100
0010
0100
0010
0100
0010
0001
0010
0100
,  // measure 11
1000
0100
0010
0001
0201
0000
0000
0000
0310
0000
1000
0000
0100
0000
1000
0000
,  // measure 12
0010
0000
0100
0000
0001
0000
1000
0100
1000
0000
0010
0000
0001
0000
0010
0000
,  // measure 13
1000
0000
0001
0000
1000
0000
0100
0000
0010
0000
0001
0000
0010
0000
0100
1000
,  // measure 14
0000
0000
0000
0000
2001
0000
0001
0000
0000
0001
0000
0000
3001
0000
0000
0020
,  // measure 15
0100
0130
2100
0000
3001
0010
0001
0100
,  // measure 16
0010
0000
1000
0000
0010
0100
0001
0100
0010
0000
1000
0000
0010
0000
0001
0000
,  // measure 17
0010
0000
1000
0000
0001
0010
000M
0010
0100
00M0
0100
1000
0M00
1000
0001
0000
,  // measure 18
1000
0001
0100
0010
0220
0000
0000
0000
0000
0000
0000
0000
0000
0000
0000
0000
,  // measure 19
0330
0000
1000
0001
2001
0000
0000
3001
1000
0000
0100
0000
1000
0001
0000
0000
,  // measure 20
1001
0000
0001
0000
1000
0000
0000
0010
0100
0000
0010
0000
1000
0010
0000
0000
,  // measure 21
1010
0000
0000
0000
0110
0000
0000
0100
0001
0000
0100
0000
0010
0100
0000
0000
,  // measure 22
0101
0000
0001
0000
1000
0100
1000
0000
0010
0100
0010
0100
0020
0000
0130
0000
,  // measure 23
0001
0010
0001
0010
0002
0000
0000
0103
0010
0000
1000
0000
0100
1000
0000
0000
,  // measure 24
1100
0000
0100
0000
1000
0000
0000
0010
0100
0000
0001
0000
0100
0010
0000
0000
,  // measure 25
1010
0000
0000
0000
1100
0000
0100
0010
0100
0000
0110
0000
0100
1000
0100
0000
,  // measure 26
1100
0000
1001
0000
0001
0010
0100
1000
0001
0100
0010
1000
0100
0010
0001
1000
,  // measure 27
0010
0100
0001
0010
0011
0000
0101
0000
0001
0000
0011
0000
0101
0000
0001
0010
,  // measure 28
0000
0010
0100
0000
0110
0000
0100
1000
0000
1000
0100
0000
1100
0000
1000
0000
,  // measure 29
1010
0000
0010
0000
0000
0000
0110
0000
0010
0000
1010
0000
0101
0000
0001
0010
,  // measure 30
0000
0010
0100
0000
1100
0000
0100
0010
0000
0010
0001
0000
0011
0000
1001
0000
,  // measure 31
1010
0000
0110
0000
0101
0100
0001
1000
0100
1000
0100
0010
0001
0100
0010
1000
,  // measure 32
0100
1000
0010
0100
0001
0010
0001
0100
0010
0100
0010
1000
0010
1000
0100
1000
,  // measure 33
0001
0100
0010
1000
1010
0000
1001
0000
1100
0000
0011
0000
0101
0000
1010
0000
,  // measure 34
0110
0000
1001
0000
0001
0010
0100
1000
0001
0100
0010
1000
0100
0010
0001
1000
,  // measure 35
1002
0000
0000
0000
0000
0000
0000
0000
0000
0000
0000
0000
0000
0000
0000
0000
2003
0000
0100
0000
3100
0000
0000
0010
0000
0000
0000
0000
0000
0000
0000
0000
0002
0000
0100
0000
0103
0000
0000
0010
0000
0000
0000
0000
0000
0000
0000
0000
2000
0000
0010
0000
3010
0000
0000
0100
0000
0000
0000
0000
0000
0000
0000
0000
,  // measure 36
0002
0000
0010
0000
0013
0000
0000
0100
0000
0000
1000
0000
0000
0001
0000
0000
0101
0000
0000
0000
0001
0000
0000
0000
1001
0000
0000
0000
1000
0000
0010
0000
0100
0000
0001
0000
0100
0000
0000
0000
0110
0000
0000
0000
0010
0000
0000
0000
1000
0000
0000
0000
0100
0000
0000
0000
0110
0000
0000
0000
0010
0000
0001
0000
,  // measure 37
0010
0100
1000
0000
1100
0000
0100
0000
1000
0000
0010
0000
0110
0000
0010
0100
0001
0100
0010
0000
0110
0000
0100
0000
0001
0010
0100
1000
0001
0100
0010
1000
,  // measure 38
0100
0010
0001
1000
0010
0100
0001
0100
0110
0000
0000
0000
1010
0000
0000
0000
0001
0000
0010
0000
0000
0000
0000
0000
0011
0000
0000
0000
0000
0000
0101
0000
,  // measure 39
0000
0000
1010
0000
1000
0000
1010
0000
0010
0100
0000
0000
0110
0000
0000
1100
,  // measure 40
0000
0000
1001
0000
0100
0000
0110
0000
0010
0001
0000
0000
0011
0000
0000
1001
,  // measure 41
0000
0000
0101
0000
0002
0000
0023
0000
0230
0000
2300
3200
0000
0310
0002
0000
,  // measure 42
0203
0000
0310
0000
0110
0000
1010
0000
1000
0001
0000
0000
1001
0000
0000
0001
,  // measure 43
1000
0000
0100
0000
1000
0000
1001
0000
1000
0001
0000
0000
0101
0000
0000
0001
,  // measure 44
0100
0000
0010
0000
1000
0000
1100
0000
0100
0010
0000
0000
0110
0000
0000
0100
,  // measure 45
1000
0000
1010
0000
0010
0100
0010
1000
0010
0001
0010
0100
0001
0100
0010
0100
,  // measure 46
0001
0100
1000
0100
0001
0000
0011
0000
0001
0100
0010
0000
0110
0000
1000
0010
,  // measure 47
0000
1000
0100
0000
0010
0000
0110
0000
1000
0010
0100
0000
0110
0000
0001
0010
,  // measure 48
0000
0001
0100
0000
0010
0000
1010
0000
0100
0001
0100
0000
0101
0000
0001
0100
,  // measure 49
0000
0010
1000
0000
0001
1000
0100
1000
0001
1000
0010
1000
0100
1000
0010
1000
,  // measure 50
0001
1000
0100
1000
1010
0000
0110
0000
0010
1000
0001
0000
1001
0000
0001
0100
,  // measure 51
0000
0100
0001
0000
0101
0000
0011
0000
0001
0100
0010
0000
0110
0000
0010
0100
,  // measure 52
0000
0100
0001
0000
0011
0000
0101
0000
0010
1000
0100
0000
1100
0000
0100
1000
,  // measure 53
0001
1000
0010
0000
1000
0100
0010
0001
1000
0010
0100
0001
0010
0001
0100
0010
,  // measure 54
1000
0100
1000
0010
0200
0010
0300
0020
1000
0030
2000
0100
3000
0200
0310
0000
,  // measure 55
0110
0000
0021
0000
0032
0100
0003
0200
0001
0300
0002
0010
0003
0020
0130
0000
,  // measure 56
0110
0000
0011
0000
0002
1000
0003
2000
0010
3000
0020
0100
0030
0200
0301
0000
,  // measure 57
1001
0000
1100
0000
0001
0010
0000
0010
0100
0000
1000
0001
0100
0010
0100
0000
,  // measure 58
0020
0000
1030
0001
2000
0100
3000
0200
1000
0300
0002
0010
0000
0023
0001
0030
,  // measure 59
1001
0000
0102
0000
0203
0010
0300
0020
0100
0030
0020
1000
0030
2000
0010
3000
,  // measure 60
1010
0000
0110
0000
2000
3002
1003
0002
2003
3000
0200
2300
3100
2000
3200
0300
,  // measure 61
0110
0000
0011
0000
0001
1000
0100
0010
0001
0010
0100
1000
0001
0010
0001
0100
,  // measure 62
0001
1000
0001
0100
0220
0000
0000
0000
0000
0000
0000
0000
0000
0000
0000
0000
,  // measure 63
0330
0000
0000
0000
;

//---------------dance-single - DDRDAIKENKAI----------------
#NOTES:
     dance-single:
     DDRDAIKENKAI:
     Medium:
     7:
     0.494,0.514,0.108,0.240,0.079: // measure 1
0000
0000
0000
0000
,  // measure 2
0000
0000
0000
0000
,  // measure 3
1001
0000
1000
0001
1000
0000
0001
1000
,  // measure 4
0100
0000
0010
1000
0010
0001
0100
0010
,  // measure 5
1000
0000
0010
0100
0001
0000
0010
0100
,  // measure 6
1000
0000
0010
0100
0010
0100
0001
1000
,  // measure 7
0100
0000
0110
0000
1001
0000
1000
0001
,  // measure 8
0100
0000
0001
0010
0001
0100
0010
1000
,  // measure 9
0001
0000
1000
0010
1000
0000
0010
0100
,  // measure 10
0010
0000
0100
0001
0100
1000
0100
0001
,  // measure 11
1000
0000
2001
0000
3001
0001
0001
0100
,  // measure 12
0010
0000
1000
0010
0010
0100
0001
0001
,  // measure 13
0001
0000
1000
0100
1000
1000
0010
0100
,  // measure 14
0001
0000
0000
0000
0010
0000
0010
0000
0000
0010
0000
0000
0010
0000
0000
0010
,  // measure 15
0001
0000
1002
0000
0103
0100
0010
1000
,  // measure 16
0100
0000
0010
0010
0010
0001
0100
0010
,  // measure 17
1000
0000
0001
1000
0001
1000
0010
0100
,  // measure 18
0010
0220
0000
0000
,  // measure 19
0330
0000
0000
0000
1001
0000
0000
1000
0000
0000
0001
0000
0000
1000
0000
0000
,  // measure 20
0100
0000
0010
0000
0001
0000
0000
1000
0000
0000
0001
0000
0000
0100
0000
0000
,  // measure 21
0100
0000
0000
0000
0010
0000
0000
1000
0000
0000
0010
0000
0000
1000
0000
0000
,  // measure 22
0100
0010
0001
0000
1000
0000
1002
0000
,  // measure 23
1000
0000
1000
0000
1003
0000
0000
0001
0000
0000
0100
0000
0000
0010
0000
0000
,  // measure 24
1000
0000
0001
0000
1000
0000
0000
0010
0000
0000
0100
0000
0000
0001
0000
0000
,  // measure 25
0001
0000
0000
0000
0010
0000
0000
1000
0000
0000
0010
0000
0000
0001
0000
0000
,  // measure 26
0100
0010
1000
0100
1000
0100
0010
0001
,  // measure 27
0010
0001
2000
0000
3001
0000
0100
0010
,  // measure 28
1000
0000
0010
0100
0001
0000
0010
0100
,  // measure 29
0010
0100
2000
0000
3001
0000
0100
0010
,  // measure 30
1000
0000
0100
0010
0001
0000
0100
0010
,  // measure 31
0100
0010
2000
0000
3001
0000
0010
0001
,  // measure 32
0100
0000
0001
0010
0100
0000
1000
0001
,  // measure 33
0100
0010
2000
0000
3001
0000
0001
0100
,  // measure 34
0020
0000
1030
0100
1000
0100
0010
0001
,  // measure 35
0002
0000
0000
0000
2003
0000
0000
3000
0020
0000
0000
0030
0200
0000
0000
0300
,  // measure 36
0002
0000
0000
0003
1000
0000
1000
0000
0001
0000
0100
0000
0010
0000
1000
0001
,  // measure 37
2000
0000
3001
0000
0100
0000
0010
0000
0100
0000
0001
0000
0010
0001
0010
0001
,  // measure 38
1000
0001
1000
0001
1000
0000
0000
0000
0001
0000
0000
0000
0100
0000
0010
0000
,  // measure 39
2000
0000
3001
0000
1000
0000
0010
1000
,  // measure 40
0002
0000
0013
0000
0100
0000
1000
0001
,  // measure 41
0200
0000
0310
1000
0100
0010
0001
0010
,  // measure 42
0100
1000
0010
0000
1000
0000
0001
0010
,  // measure 43
2000
0000
3010
0000
0001
0000
0100
0010
,  // measure 44
2000
0000
3100
0000
0010
0000
0001
0100
,  // measure 45
0020
0000
1030
0100
1000
0100
0010
0001
,  // measure 46
0010
0001
1000
0001
1000
1000
0001
1000
,  // measure 47
0020
0000
1030
0001
1000
1000
0001
1000
,  // measure 48
0200
0000
0310
0001
0010
0010
0001
1000
,  // measure 49
0020
0000
1030
0100
1000
0100
0010
0001
,  // measure 50
0010
0001
0100
0010
0100
0100
0010
0100
,  // measure 51
0002
0000
0103
0010
0100
0100
0010
1000
,  // measure 52
0020
0000
1030
0001
1000
0001
0100
0010
,  // measure 53
0100
0010
1000
0100
1000
0100
0010
0001
,  // measure 54
0010
0001
1000
0000
0001
0000
0100
0010
,  // measure 55
1000
0001
1000
0000
0010
0000
0100
0001
,  // measure 56
0100
0010
1000
0000
0100
0000
0010
0001
,  // measure 57
0010
0100
1000
0001
1000
0000
1001
0000
,  // measure 58
0110
0000
1001
0000
0101
0000
0001
1000
,  // measure 59
0100
1000
0010
0000
1000
0000
0001
1000
,  // measure 60
0010
0100
0001
0010
0001
0010
0100
1000
,  // measure 61
0100
1000
0001
0100
0010
1000
0100
0010
,  // measure 62
0010
2002
0000
0000
,  // measure 63
0003
3000
0000
0000
0000
0000
0000
0000
0000
0000
0000
0000
0000
0000
0000
0000
0000
0000
0000
0000
0000
0000
0000
0000
0000
0000
0000
0000
0000
0000
0000
0000
0000
0000
0000
0000
0000
0000
0000
0000
0000
0000
0000
0000
0000
0000
0000
0000
0000
0000
0000
0000
0000
0000
0000
0000
0000
0000
0000
0000
0000
0000
0000
0000
0000
0000
0000
0000
0000
0000
0000
0000
0000
0000
0000
0000
0000
0000
0000
0000
0000
0000
0000
0000
0000
0000
0000
0000
0000
0000
0000
0000
0000
0000
0000
0000
0000
0000
0000
0000
0000
0000
0000
0000
0000
0000
0000
0000
0000
0000
0000
0000
0000
0000
0000
0000
0000
0000
0000
0000
0000
0000
0000
0000
0000
0000
0000
0000
0000
0000
0000
0000
0000
0000
0000
0000
0000
0000
0000
0000
0000
0000
0000
0000
0000
0000
0000
0000
0000
0000
0000
0000
0000
0000
0000
0000
0000
0000
0000
0000
0000
0000
0000
0000
0000
0000
0000
0000
0000
0000
0000
0000
0000
0000
0000
0000
0000
0000
0000
0000
0000
0000
0000
0000
0000
0000
0000
0000
0000
0000
0000
0000
;

//---------------dance-single - DDRDAIKENKAI----------------
#NOTES:
     dance-single:
     DDRDAIKENKAI:
     Beginner:
     1:
     0.173,0.231,0.149,0.041,0.000: // measure 1
0000
0000
0000
0000
,  // measure 2
0000
0000
0000
0000
,  // measure 3
1001
1001
0000
0001
,  // measure 4
0000
1000
0000
1000
,  // measure 5
0000
0001
0000
1000
,  // measure 6
0000
0001
0000
0001
,  // measure 7
0000
0110
0000
0010
,  // measure 8
0000
0100
0000
0100
,  // measure 9
0000
0010
0000
0100
,  // measure 10
0000
0010
0000
0010
,  // measure 11
0000
0110
0000
0000
,  // measure 12
0000
1001
0000
0000
,  // measure 13
0000
1000
0000
1000
,  // measure 14
0000
0001
0001
0001
,  // measure 15
0000
1001
0000
0000
,  // measure 16
0000
0110
0000
0000
,  // measure 17
0000
0100
0100
0100
,  // measure 18
0100
0200
0000
0300
,  // measure 19
0000
0110
0000
0100
,  // measure 20
0000
0010
0000
0010
,  // measure 21
0000
0100
0000
0010
,  // measure 22
0000
0100
0000
0100
,  // measure 23
0000
1001
0000
0001
,  // measure 24
0000
1000
0000
1000
,  // measure 25
0000
0001
0000
1000
,  // measure 26
0000
0001
0000
0001
,  // measure 27
0000
1001
0000
1000
,  // measure 28
0000
0001
0000
0100
,  // measure 29
0000
0010
0000
0100
,  // measure 30
0000
0001
0000
1000
,  // measure 31
1000
0000
0001
0000
,  // measure 32
1000
0000
0010
0000
,  // measure 33
0100
0000
0100
0000
,  // measure 34
0010
0000
1000
0000
,  // measure 35
1001
2002
3003
0000
,  // measure 36
0000
1001
0000
0100
,  // measure 37
0000
0100
0000
0110
,  // measure 38
0110
0110
0000
0000
,  // measure 39
0000
1000
0000
1000
,  // measure 40
0000
1000
0000
0000
,  // measure 41
0000
0001
0000
1000
,  // measure 42
0000
1001
0000
0000
,  // measure 43
0000
0001
0000
0001
,  // measure 44
0000
0001
0000
0000
,  // measure 45
0000
0100
0100
0100
,  // measure 46
0100
0100
0000
0100
,  // measure 47
0000
0010
0000
0010
,  // measure 48
0000
1000
0000
1000
,  // measure 49
0000
0001
0001
0001
,  // measure 50
0001
0000
1000
0000
,  // measure 51
0001
0000
1000
0000
,  // measure 52
0001
0000
0100
0000
,  // measure 53
0010
0010
0010
0010
,  // measure 54
0010
0010
0000
1000
,  // measure 55
0000
0001
0000
1000
,  // measure 56
0000
0010
0000
1000
,  // measure 57
0000
0001
0000
1000
,  // measure 58
1000
0000
0001
0000
,  // measure 59
1000
0000
0010
0000
,  // measure 60
0100
0100
0000
0100
,  // measure 61
0000
0010
0010
0010
,  // measure 62
0000
2002
0000
0000
,  // measure 63
3003
0000
0000
0000
;

//---------------dance-single - DDRDAIKENKAI----------------
#NOTES:
     dance-single:
     DDRDAIKENKAI:
     Easy:
     4:
     0.359,0.360,0.240,0.298,0.000: // measure 1
0000
0000
0000
0000
,  // measure 2
0000
0000
0000
0000
,  // measure 3
1001
1000
1000
0001
,  // measure 4
0001
0100
0100
0010
,  // measure 5
0010
1000
0001
0100
,  // measure 6
0010
0000
1000
0001
1000
0000
0010
0100
,  // measure 7
0010
1000
1000
0010
,  // measure 8
0010
0100
0100
0001
,  // measure 9
0001
1000
0010
0100
,  // measure 10
0001
0000
1000
0010
1000
0000
0001
1000
,  // measure 11
0001
1001
0001
1000
,  // measure 12
0100
0010
0100
1000
,  // measure 13
0010
1000
0001
0100
,  // measure 14
0010
0000
1000
0000
1000
0000
1000
0001
,  // measure 15
1000
1001
0001
0010
,  // measure 16
0100
1000
0010
0100
,  // measure 17
0001
1000
0100
0010
,  // measure 18
0001
2002
0000
0000
,  // measure 19
3003
1001
1000
0001
,  // measure 20
0100
0110
0010
1000
,  // measure 21
0001
1001
0001
0100
,  // measure 22
0010
0110
0110
2002
,  // measure 23
3003
1001
0001
1000
,  // measure 24
0010
0110
0100
0001
,  // measure 25
1000
1001
0001
1000
,  // measure 26
0100
0110
0010
0001
,  // measure 27
1000
2002
3003
0001
,  // measure 28
0100
0010
1000
0100
,  // measure 29
0010
0000
0001
1000
,  // measure 30
0010
0100
0001
0010
,  // measure 31
0100
0220
0330
0100
,  // measure 32
1000
0010
1000
0100
,  // measure 33
0010
0001
0001
0100
,  // measure 34
0100
0000
0010
0000
0010
0000
1000
0001
,  // measure 35
1000
2002
3003
0200
,  // measure 36
0300
0000
0010
0010
0010
0000
1000
0000
,  // measure 37
0002
0003
1000
1000
1000
0000
0220
0000
,  // measure 38
0000
0330
1001
0000
1000
0000
0002
0000
,  // measure 39
0003
0100
0010
1000
,  // measure 40
0001
0100
0010
0200
,  // measure 41
0300
0010
1000
0100
,  // measure 42
0010
1001
0100
0020
,  // measure 43
0030
0001
1000
0010
,  // measure 44
0100
0110
0100
0002
,  // measure 45
0003
0000
1000
0000
0010
0000
0100
0001
,  // measure 46
0100
0001
0010
0100
,  // measure 47
1001
1000
0001
0100
,  // measure 48
0110
0010
0100
0001
,  // measure 49
1001
0000
1000
0100
1000
0000
0001
0010
,  // measure 50
0001
1000
0010
0100
,  // measure 51
0110
0010
1000
0001
,  // measure 52
1001
0001
0010
0100
,  // measure 53
0110
0000
0010
0001
0010
0000
0100
1000
,  // measure 54
0100
0020
0032
0103
,  // measure 55
0010
2000
3020
0130
,  // measure 56
0001
0020
0230
1300
,  // measure 57
0001
0200
0320
1030
,  // measure 58
1001
2000
3020
0130
,  // measure 59
0001
0020
0230
1300
,  // measure 60
0001
0200
0320
1030
,  // measure 61
0001
0000
0020
0000
0230
0000
1300
0001
,  // measure 62
1000
2002
0000
0000
,  // measure 63
3003
0000
0000
0000
;
