#TITLE:SPEEDY CAT;
#SUBTITLE:;
#ARTIST:Y&Co.;
#TITLETRANSLIT:;
#SUBTITLETRANSLIT:;
#ARTISTTRANSLIT:;
#GENRE:;
#CREDIT:;
#MENUCOLOR:;
#BANNER:SPEEDY CAT.png;
#BACKGROUND:SPEEDY CAT-bg.png;
#LYRICSPATH:;
#CDTITLE:;
#MUSIC:SPEEDY CAT.ogg;
#OFFSET:-0.380;
#SAMPLESTART:49.300;
#SAMPLELENGTH:12.480;
#SELECTABLE:YES;
#LISTSORT:;
#BPMS:0.000=155.000;
#STOPS:;
#TICKCOUNT:0.000=2,289.000=1;
#BGCHANGES:;
#KEYSOUNDS:;
#ATTACKS:;

//---------------dance-single - DDRDAIKENKAI----------------
#NOTES:
     dance-single:
     DDRDAIKENKAI:
     Challenge:
     9:
     0.828,0.953,0.416,0.629,0.433: // measure 1
0000
0000
0000
0000
,  // measure 2
0000
0000
0000
0000
,  // measure 3
0000
0000
0000
0000
,  // measure 4
0000
0000
0001
0000
1000
0010
1000
0000
0001
0000
0000
0100
0010
0000
1000
0000
,  // measure 5
2001
3002
0103
0110
,  // measure 6
0010
1000
0010
1000
0100
0010
0001
0000
,  // measure 7
2000
0000
3002
0000
0203
0000
0310
2020
,  // measure 8
0000
0000
0000
0000
0000
0000
0000
0000
3030
0000
0010
1000
0010
1000
0001
1000
,  // measure 9
0010
0000
0100
0000
0001
0000
0010
0000
0100
0000
1000
0100
0000
1000
0100
0000
,  // measure 10
0010
0000
0001
0100
0000
0001
0100
0000
0010
1000
0010
1000
0002
0000
0000
0000
,  // measure 11
1000
0000
1003
0000
0001
0010
0001
0000
0100
0010
0100
0000
0001
1000
0001
0000
,  // measure 12
1000
0010
0000
0010
0100
0000
0100
0001
0000
0001
0010
0000
0021
0000
0000
0000
,  // measure 13
0031
0000
0010
0000
0100
0000
1000
0000
0100
0000
0010
0001
0000
0010
0001
0000
,  // measure 14
1000
0000
0010
0100
0000
0010
0100
0000
0001
0010
0001
0010
0200
0000
0000
0000
,  // measure 15
1300
0000
0001
0000
0100
0001
0100
0000
0010
0100
0010
0000
1000
0100
1000
0000
,  // measure 16
1100
0000
0000
1001
0000
0000
0102
0000
0000
0000
0100
0000
0103
0000
0001
0010
,  // measure 17
0001
0100
0010
0100
0001
0100
1000
0100
,  // measure 18
0001
0010
0100
0010
0001
1000
0100
1000
,  // measure 19
0001
0010
0100
1000
0001
0100
0010
1000
,  // measure 20
0100
1000
0010
1000
0001
1000
0100
0010
,  // measure 21
0011
0001
0100
0001
0010
0100
1000
0001
,  // measure 22
0100
0010
1000
0100
1000
0010
0100
0001
,  // measure 23
0010
0100
0010
0100
1000
0001
1000
0001
,  // measure 24
0101
0000
0100
0110
0000
0010
1020
0000
,  // measure 25
1030
0100
1000
0010
1000
0001
1000
0010
,  // measure 26
0100
0001
0100
0010
0100
0001
0100
1000
,  // measure 27
0100
0001
0010
0001
0100
0001
1000
0001
,  // measure 28
0010
0100
0010
0001
0010
1000
0010
0100
,  // measure 29
1000
0010
1000
0100
0010
0001
0100
0010
,  // measure 30
1000
0000
0010
0000
1000
0000
0100
0000
1000
0000
0000
0010
0100
0000
0001
0000
,  // measure 31
0202
0303
2002
3003
2200
3300
0220
0330
,  // measure 32
0012
0000
0000
0000
0000
0000
0000
0000
1000
0000
0000
0000
2003
0000
0000
0000
0000
0000
0000
0000
3001
0000
0100
0000
0001
0100
0001
0100
0001
0000
0100
0000
,  // measure 33
0001
0020
0100
0030
0100
0010
0001
0100
,  // measure 34
0201
0000
0000
0301
0100
0000
0010
0000
1000
0000
0100
0000
0210
0000
0010
0000
,  // measure 35
0310
0001
0010
0100
1000
0001
0000
1002
,  // measure 36
0000
0000
1003
0000
1000
0000
0001
0000
0100
0000
0010
1000
0010
0000
0100
0000
,  // measure 37
0101
0001
2000
0000
3100
0010
0100
1000
,  // measure 38
2010
0000
0000
3010
0100
0000
0001
0000
0010
0000
0001
0000
0102
0000
0000
0000
,  // measure 39
0103
0100
0001
0001
1000
1000
0100
0010
,  // measure 40
0110
0000
0000
0110
0000
0000
0012
0000
0000
0000
1003
0000
0001
0100
0001
0100
,  // measure 41
0001
0000
0010
0000
0001
0000
0100
0000
0010
0000
1000
0100
0000
1000
0100
0000
,  // measure 42
0010
0000
0001
0100
0000
0001
0100
0000
0010
0100
0010
0100
0002
0000
0000
0003
,  // measure 43
1000
0000
0100
0000
0010
0100
0010
0000
0100
1000
0100
0000
1000
0001
1000
0000
,  // measure 44
0001
0100
0000
0100
0001
0000
0001
1000
0000
1000
0100
0000
0120
0000
0000
0000
,  // measure 45
0130
0000
1000
0000
0010
0000
0100
0000
0001
0000
0010
0100
0000
0010
0100
0000
,  // measure 46
1000
0000
0001
0100
0000
0001
0100
0000
0010
1000
0010
1000
0002
0000
0000
0003
,  // measure 47
1000
0000
0100
0000
1000
0010
1000
0000
0010
0100
0010
0000
0100
0001
0100
0000
,  // measure 48
0101
0000
0000
1001
0000
0000
2100
0000
0000
0000
0100
0000
3100
0000
1000
0001
,  // measure 49
1000
0100
1000
0010
1000
0001
1000
0010
,  // measure 50
0100
0001
0100
0010
0100
0001
0200
0000
,  // measure 51
0302
0000
1003
0000
2000
3200
0320
0032
,  // measure 52
0023
0230
0320
0030
0020
0230
0320
0032
,  // measure 53
0203
0000
0000
0000
0320
0000
0000
0000
2030
0000
0000
0000
3100
0000
0010
0100
,  // measure 54
0020
0000
0000
0000
0230
0000
0000
0000
2300
0000
0000
3001
0100
0000
0010
0000
,  // measure 55
0110
2020
3030
2002
3003
0220
0330
0101
,  // measure 56
0012
0000
0000
0000
0000
0000
0000
0000
0100
0000
0000
0000
0203
0000
0000
0000
0000
0000
0000
0000
0310
0000
1000
0000
0010
1000
0010
1000
0010
0000
1000
0000
,  // measure 57
0010
0200
0001
0300
0001
0100
0010
1000
,  // measure 58
2010
0000
0000
3100
0010
0000
0001
0000
0010
0000
0100
0000
1200
0000
1000
0000
,  // measure 59
1300
0001
0100
0001
0100
0010
0000
0120
,  // measure 60
0000
0000
0130
0000
0010
0000
1000
0000
0001
0000
1000
0100
1000
0000
0001
0000
,  // measure 61
0011
0001
0102
0000
0103
0010
1000
0001
,  // measure 62
1002
0000
0000
1003
0010
0000
0100
0000
0001
0000
0100
0000
0120
0000
0000
0000
,  // measure 63
1030
1000
0100
0100
0010
0010
0001
0010
,  // measure 64
0011
0000
0000
1001
0000
0000
0210
0000
0000
0000
0310
0000
0100
0001
0100
0001
,  // measure 65
0100
0000
0010
0000
1000
0000
0100
0000
0010
0000
0001
0100
0000
0001
0100
0000
,  // measure 66
0010
0000
1000
0100
0000
1000
0100
0000
1000
0010
1000
0010
0200
0000
0000
0000
,  // measure 67
0301
0000
0010
0000
0100
0010
0100
0000
1000
0100
1000
0000
0001
1000
0001
0000
,  // measure 68
0010
0001
0000
0001
1000
0000
1000
0010
0000
0010
0100
0000
0210
0000
0000
0000
,  // measure 69
0310
0000
1000
0000
0001
0000
1000
0000
0010
0000
0100
0001
0000
0100
0001
0000
,  // measure 70
0010
0000
0001
0100
0000
0001
0100
0000
0010
1000
0010
1000
0200
0000
0000
0000
,  // measure 71
1300
0000
0001
0000
1000
0100
1000
0000
0010
0100
0010
0000
0100
0001
0100
0000
,  // measure 72
0101
0000
0000
1001
0000
0000
1100
0000
0000
0000
0010
0000
0010
0000
0001
2000
,  // measure 73
0002
0000
0000
3003
0000
0000
0000
0000
;

//---------------dance-single - DDRDAIKENKAI----------------
#NOTES:
     dance-single:
     DDRDAIKENKAI:
     Hard:
     8:
     0.609,0.615,0.365,0.425,0.072: // measure 1
0000
0000
0000
0000
,  // measure 2
0000
0000
0000
0000
,  // measure 3
0000
0000
0000
0000
,  // measure 4
0000
0000
0000
0000
,  // measure 5
1002
0000
0000
0000
0200
0003
0000
0000
0320
0000
0000
0000
1030
0000
0000
0000
,  // measure 6
0001
0100
0001
0100
0010
1000
0100
0000
,  // measure 7
0020
0000
0032
0000
2003
0000
3200
2000
,  // measure 8
0000
0000
0000
3300
,  // measure 9
0010
0100
0001
0000
0010
0001
0100
0000
,  // measure 10
0010
1000
0100
0010
0001
0001
0100
0000
,  // measure 11
0010
0100
0010
0000
1000
0100
1000
0000
,  // measure 12
0010
0000
0000
1000
0000
0000
0001
0000
0000
0100
0000
0000
0110
0000
0000
0000
,  // measure 13
0010
1000
0010
0000
0100
0001
0100
0000
,  // measure 14
0001
0010
0001
0100
0010
0010
1000
0000
,  // measure 15
0001
1000
0001
0000
1000
0100
1000
0000
,  // measure 16
1100
0000
0000
0110
0000
0000
0012
0000
0000
0000
0010
0000
0013
0000
0001
0000
,  // measure 17
0010
0000
0001
0100
0001
0000
1000
0000
,  // measure 18
0010
0100
0010
0100
0002
0000
1003
0000
,  // measure 19
0001
0010
0001
0010
0100
1000
0000
0001
,  // measure 20
0000
0100
0010
1000
0000
0010
0100
0001
,  // measure 21
0201
0000
0301
0000
0010
0100
0010
0000
,  // measure 22
0100
1000
0100
1000
0002
0100
0103
0000
,  // measure 23
0010
0100
0010
1000
0001
0100
0010
0000
,  // measure 24
0110
0000
1000
1100
0000
0001
0101
0000
,  // measure 25
1001
0000
0100
0000
0010
0100
0010
1000
,  // measure 26
0000
0001
0010
0001
0000
1000
0100
1000
,  // measure 27
0000
0010
0100
0001
0000
0010
0001
0100
,  // measure 28
0000
0010
1000
0100
0010
0001
0100
0010
,  // measure 29
2000
0000
3001
0000
0001
0010
0001
0010
,  // measure 30
0200
0000
1000
0000
1300
0000
0000
0000
0001
0000
0000
0100
0010
0000
1000
0000
,  // measure 31
1010
0110
0101
1001
,  // measure 32
1200
0000
1000
2000
0000
0000
3300
0001
,  // measure 33
0010
0001
0100
0000
0010
1000
0100
0010
,  // measure 34
0002
0000
0000
0203
0000
0000
0320
0000
1000
0000
1030
0000
1010
0000
0000
0000
,  // measure 35
1000
0010
0100
0001
0100
0010
0000
1000
,  // measure 36
0100
0010
0001
0100
0010
1000
0100
0000
,  // measure 37
1000
0001
2000
0000
3001
0100
0010
1000
,  // measure 38
1010
0000
0000
0110
0000
0000
0102
0000
0000
0000
0000
0000
1003
0000
0001
0000
,  // measure 39
0000
0001
0010
0001
0100
0010
1000
0010
,  // measure 40
0110
0000
0000
1010
0000
0000
1002
0000
0000
0000
1000
0000
1003
0000
0001
0000
,  // measure 41
1000
0100
0010
0001
0100
0010
1000
0000
,  // measure 42
1000
0010
0100
0001
0010
0100
1000
0000
,  // measure 43
0001
0010
0001
0000
1000
0100
1000
0000
,  // measure 44
0020
0000
0000
2030
0000
0000
3002
0000
0000
0103
0000
0000
0110
0000
0000
0000
,  // measure 45
0010
1000
0010
1000
0001
0100
0001
0000
,  // measure 46
1000
0100
1000
0100
0010
0001
0100
0000
,  // measure 47
0010
1000
0010
0000
1000
0001
1000
0000
,  // measure 48
1001
0000
0000
1001
0000
0000
1002
0000
0000
0000
1003
0000
1000
0000
0001
0000
,  // measure 49
0200
0010
0010
0010
,  // measure 50
0001
0001
0010
0320
,  // measure 51
2030
0000
0001
0000
3001
0010
0001
0010
,  // measure 52
0200
0300
2000
3000
0002
0003
0200
0300
,  // measure 53
0020
0000
1000
0000
1030
0000
0010
1000
,  // measure 54
0200
1000
2300
3001
,  // measure 55
0101
1001
1010
0110
,  // measure 56
0102
0000
0010
0023
0000
0100
0130
1000
,  // measure 57
0100
1000
0002
0000
1003
0001
0100
0010
,  // measure 58
2000
0000
0000
3020
0000
0000
0230
0000
0001
0000
0301
0000
0101
0000
0000
0000
,  // measure 59
0001
0010
0001
0100
0010
1000
0000
0100
,  // measure 60
0000
0100
1000
0010
1000
0010
0110
0000
,  // measure 61
0001
0100
0002
0000
0013
0001
0100
0010
,  // measure 62
0110
0000
0000
1001
0000
0000
0210
0000
0000
0000
0000
0000
0310
0000
1000
0000
,  // measure 63
0000
1000
0001
1000
0010
0100
0010
1000
,  // measure 64
1010
0000
0000
0110
0000
0000
0102
0000
0000
0000
0100
0000
0103
0000
0001
0000
,  // measure 65
0100
0010
0100
0001
1000
0100
1000
0100
,  // measure 66
0010
0001
0100
0010
1000
1000
2000
0000
,  // measure 67
3001
0010
0001
0100
0010
1000
0100
0010
,  // measure 68
0001
0000
0000
0010
0000
0000
0100
0000
0000
1000
0000
0000
1100
0000
0000
0000
,  // measure 69
1000
0010
1000
0100
0010
0001
0100
0001
,  // measure 70
0010
0100
1000
0010
0100
0100
0200
0000
,  // measure 71
0301
0010
0001
0100
0010
1000
0100
0010
,  // measure 72
0110
0000
0000
0011
0000
0000
1002
0000
0000
0000
1000
0003
1000
0000
0010
0200
,  // measure 73
0020
0000
0000
0330
0000
0000
0000
0000
;

//---------------dance-single - DDRDAIKENKAI----------------
#NOTES:
     dance-single:
     DDRDAIKENKAI:
     Medium:
     6:
     0.489,0.492,0.238,0.459,0.000: // measure 1
0000
0000
0000
0000
,  // measure 2
0000
0000
0000
0000
,  // measure 3
0000
0000
0000
0000
,  // measure 4
0000
0000
0000
0000
,  // measure 5
1000
0001
1000
1000
,  // measure 6
0001
0100
0001
0000
0020
0000
0031
0000
,  // measure 7
0100
0000
0010
0000
1000
0000
0200
2000
,  // measure 8
0000
0000
0000
3300
,  // measure 9
0001
0000
1000
0000
0001
0100
0001
0000
,  // measure 10
1000
0010
1000
0000
0010
0100
0020
0000
,  // measure 11
0100
0000
0130
0000
0001
0010
0001
0000
,  // measure 12
0010
0100
1000
2001
,  // measure 13
0001
0000
3001
0000
1000
0010
1000
0000
,  // measure 14
0010
0100
0010
0000
1000
0001
2000
0000
,  // measure 15
0001
0000
3001
0000
0010
0001
0010
0000
,  // measure 16
0022
0000
0000
0033
0000
0010
0100
0010
,  // measure 17
0001
0000
0100
0000
0010
1000
0010
0000
,  // measure 18
1000
0001
0100
0000
0010
0100
0010
0000
,  // measure 19
1000
0100
1000
0000
0001
0010
0001
0000
,  // measure 20
1000
0010
0100
0000
0010
1000
0010
0000
,  // measure 21
1002
0000
0103
0000
0010
1000
0010
0000
,  // measure 22
1000
0001
1000
0000
0001
0100
0001
0000
,  // measure 23
0010
0001
0100
0010
,  // measure 24
1010
0000
1000
0001
0000
0001
1000
0000
,  // measure 25
0002
0103
0010
1000
,  // measure 26
0010
0100
0001
0010
,  // measure 27
0001
0100
0010
1000
,  // measure 28
0100
0000
0010
0000
0001
1000
0001
1000
,  // measure 29
0002
1003
1000
0010
,  // measure 30
0100
0010
1000
0001
,  // measure 31
1001
1001
0110
0110
,  // measure 32
0102
0000
0100
0200
0000
0000
0303
0000
,  // measure 33
0001
0010
0001
0000
1000
0100
1000
0000
,  // measure 34
1001
0110
2002
3003
,  // measure 35
1000
0010
1000
0000
0010
0100
0010
0000
,  // measure 36
0100
0001
0100
0000
0001
1000
0001
0000
,  // measure 37
0100
0001
0100
0000
0001
1000
0001
0000
,  // measure 38
0011
1100
0220
0330
,  // measure 39
0100
0010
0100
0001
,  // measure 40
0202
0000
0000
0303
0000
0000
0000
0000
,  // measure 41
0010
0000
1000
0000
0001
1000
0001
0000
,  // measure 42
1000
0001
0100
0000
0010
0100
0010
0000
,  // measure 43
1000
0000
1000
0000
0010
0100
0010
0000
,  // measure 44
2000
3002
0203
0320
,  // measure 45
1030
0100
1000
0000
0010
0100
0001
0000
,  // measure 46
0010
0001
0010
0000
0100
1000
0001
0000
,  // measure 47
1000
0010
1000
0000
0010
1000
0001
0000
,  // measure 48
1002
2003
3020
0230
,  // measure 49
0301
0001
1000
1000
,  // measure 50
0010
0100
0010
0100
0010
0000
1000
0000
,  // measure 51
0002
0000
0000
0000
0003
1000
2000
0000
,  // measure 52
3002
0023
0230
2300
,  // measure 53
3002
1000
1003
0002
,  // measure 54
0203
0310
0020
1030
,  // measure 55
1001
1100
1001
0011
,  // measure 56
0102
0000
0100
0200
0000
0000
0303
0000
,  // measure 57
0010
0100
0010
0000
1000
0001
1000
0000
,  // measure 58
1010
1001
0202
0303
,  // measure 59
0010
0001
0100
0000
0010
1000
0100
0000
,  // measure 60
0010
0100
1000
0000
0100
0010
0001
0000
,  // measure 61
1000
0010
1000
0000
0010
0100
0010
0000
,  // measure 62
0200
0302
2003
3000
,  // measure 63
0001
0010
0001
0000
1000
0010
1000
0000
,  // measure 64
2002
0000
0000
3003
0000
0000
0000
0000
,  // measure 65
0001
1000
0001
0000
1000
0100
1000
0000
,  // measure 66
0010
0100
0001
0000
0100
0010
1000
0000
,  // measure 67
0010
1000
0010
0000
1000
0100
1000
0000
,  // measure 68
0002
0023
0230
2300
,  // measure 69
3001
0010
0001
0000
1000
0100
1000
0000
,  // measure 70
0010
0100
0001
0000
0100
0010
1000
0000
,  // measure 71
0001
1000
0001
0000
0100
0010
0100
0000
,  // measure 72
0220
0000
0330
0000
0001
1000
0100
0000
,  // measure 73
2002
0000
0000
3003
0000
0000
0000
0000
;

//---------------dance-single - DDRDAIKENKAI----------------
#NOTES:
     dance-single:
     DDRDAIKENKAI:
     Beginner:
     2:
     0.199,0.246,0.051,0.153,0.000: // measure 1
0000
0000
0000
0000
,  // measure 2
0000
0000
0000
0000
,  // measure 3
0000
0000
0000
0000
,  // measure 4
0000
0000
0000
0000
,  // measure 5
0010
0010
0010
0000
,  // measure 6
1000
1000
1000
0000
,  // measure 7
0001
0000
0000
0000
,  // measure 8
0100
0000
0000
0000
,  // measure 9
0010
0000
0010
0000
,  // measure 10
1000
0000
1000
0000
,  // measure 11
0001
0000
1000
0000
,  // measure 12
2002
0000
3003
0000
,  // measure 13
0010
0000
0010
0000
,  // measure 14
1000
0000
1000
0000
,  // measure 15
0001
0000
1000
0000
,  // measure 16
2002
0000
3003
0000
,  // measure 17
0010
0000
0010
0000
,  // measure 18
0100
0100
0100
0000
,  // measure 19
0001
0000
1000
0000
,  // measure 20
0001
0000
1000
0000
,  // measure 21
0010
0000
0100
0000
,  // measure 22
0001
0001
0001
0000
,  // measure 23
1000
0000
0100
0000
,  // measure 24
0010
0000
0001
0000
,  // measure 25
1000
0000
1000
0000
,  // measure 26
0001
0000
0001
0000
,  // measure 27
1000
0000
0010
0000
,  // measure 28
1000
0000
0001
0000
,  // measure 29
0200
0300
0000
0000
,  // measure 30
0020
0030
0000
0000
,  // measure 31
1000
0000
0001
0000
,  // measure 32
2002
0000
3003
0000
,  // measure 33
1000
1000
1000
0000
,  // measure 34
0001
0001
0001
0000
,  // measure 35
1000
0000
0001
0000
,  // measure 36
0100
0000
0010
0000
,  // measure 37
0100
0100
0100
0000
,  // measure 38
0010
0010
0010
0000
,  // measure 39
0100
0000
0010
0000
,  // measure 40
0220
0000
0330
0000
,  // measure 41
0010
0000
1000
0000
,  // measure 42
0001
0000
1000
0000
,  // measure 43
0010
0000
0100
0000
,  // measure 44
0001
0001
0001
0001
,  // measure 45
0001
0000
1000
0000
,  // measure 46
0001
0000
0100
0000
,  // measure 47
0010
0000
0100
0000
,  // measure 48
0001
0001
0001
0001
,  // measure 49
0002
0000
0000
0000
,  // measure 50
0003
0000
0000
0000
,  // measure 51
2000
0000
0000
0000
,  // measure 52
3000
0000
0000
0000
,  // measure 53
0020
0000
0000
0000
,  // measure 54
0030
0000
0000
0000
,  // measure 55
0200
0000
0000
0000
,  // measure 56
0000
0000
0300
0000
,  // measure 57
0001
0000
1000
0000
,  // measure 58
0001
0001
0001
0000
,  // measure 59
1000
1000
1000
0000
,  // measure 60
0001
0001
0001
0000
,  // measure 61
0100
0000
0010
0000
,  // measure 62
0100
0100
0100
0000
,  // measure 63
0010
0010
0010
0000
,  // measure 64
0220
0000
0330
0000
,  // measure 65
0010
0000
0010
0000
,  // measure 66
1000
1000
1000
0000
,  // measure 67
0001
0000
0001
0000
,  // measure 68
0100
0100
0100
0100
,  // measure 69
0100
0100
0100
0000
,  // measure 70
0010
0010
0010
0000
,  // measure 71
1000
1000
1000
0000
,  // measure 72
0001
0001
0001
0000
,  // measure 73
2002
0000
0000
3003
0000
0000
0000
0000
;

//---------------dance-single - DDRDAIKENKAI----------------
#NOTES:
     dance-single:
     DDRDAIKENKAI:
     Easy:
     3:
     0.288,0.338,0.051,0.263,0.000: // measure 1
0000
0000
0000
0000
,  // measure 2
0000
0000
0000
0000
,  // measure 3
0000
0000
0000
0000
,  // measure 4
0000
0000
0000
0000
,  // measure 5
2002
3003
0001
0001
,  // measure 6
0100
0010
0100
0010
,  // measure 7
1000
1000
0100
0010
,  // measure 8
0220
0000
0000
0330
,  // measure 9
0001
0001
1000
0000
,  // measure 10
0001
0001
0100
0000
,  // measure 11
0010
0010
1000
1000
,  // measure 12
0001
1000
0001
0000
,  // measure 13
1000
0100
1000
0000
,  // measure 14
0001
0010
0001
0000
,  // measure 15
0100
0100
0010
0010
,  // measure 16
0220
0000
0000
0330
,  // measure 17
0000
0010
0010
0000
,  // measure 18
1000
0001
1000
0000
,  // measure 19
0001
0100
0001
0001
,  // measure 20
1000
0010
1000
0000
,  // measure 21
0100
0000
0001
0000
,  // measure 22
0100
0000
1000
0000
,  // measure 23
0100
0100
1000
1000
,  // measure 24
0020
0000
0000
0130
,  // measure 25
0200
0300
0001
0000
,  // measure 26
1000
0001
0001
1000
,  // measure 27
0100
0000
1000
0000
,  // measure 28
0010
0100
0100
0010
,  // measure 29
1000
0000
0001
0001
,  // measure 30
0100
0000
0010
0010
,  // measure 31
2000
3200
0320
0032
,  // measure 32
2000
0000
0000
3003
0000
0000
0000
0000
,  // measure 33
0001
0001
1000
1000
,  // measure 34
0020
0230
0302
0003
,  // measure 35
0010
0100
1000
0000
,  // measure 36
0100
0010
0001
0000
,  // measure 37
1000
1000
0010
0100
,  // measure 38
0002
0203
0320
0030
,  // measure 39
1000
0100
1000
0010
,  // measure 40
0220
0000
0000
0330
0000
0000
0000
0000
,  // measure 41
0010
0010
1000
1000
,  // measure 42
0001
0100
0010
1000
,  // measure 43
0001
0001
1000
1000
,  // measure 44
0010
0100
0001
1000
,  // measure 45
0001
0000
0010
0100
,  // measure 46
1000
0000
0100
0010
,  // measure 47
0001
0001
0100
0100
,  // measure 48
0020
0000
0000
0030
,  // measure 49
2000
0000
0001
0000
,  // measure 50
0100
0000
0000
0000
0001
3000
0000
0000
,  // measure 51
0002
0000
0100
0000
,  // measure 52
1000
0000
0100
0003
,  // measure 53
0002
0000
0010
0000
,  // measure 54
0100
0000
0000
0000
0010
0003
0000
0000
,  // measure 55
0200
0000
0000
0000
,  // measure 56
2000
0000
0000
3300
,  // measure 57
0010
0000
0100
0000
,  // measure 58
0001
0001
0001
0000
,  // measure 59
1000
1000
1000
0000
,  // measure 60
0010
1000
0100
0000
,  // measure 61
1000
0000
0001
0000
,  // measure 62
1000
0100
0010
0000
,  // measure 63
0001
0100
0010
0000
,  // measure 64
2002
0000
0000
3003
0000
0000
0000
0000
,  // measure 65
0001
0001
0001
0001
,  // measure 66
0100
0100
0100
0100
,  // measure 67
0010
0010
1000
1000
,  // measure 68
0001
1000
0010
0100
,  // measure 69
0001
0001
0001
0001
,  // measure 70
0100
0100
0100
0100
,  // measure 71
0010
0010
1000
1000
,  // measure 72
0010
0100
0001
1000
,  // measure 73
2002
0000
0000
3003
0000
0000
0000
0000
;
